#TITLE:Nightbird;
#SUBTITLE:;
#ARTIST:Big Idea;
#TITLETRANSLIT:;
#SUBTITLETRANSLIT:;
#ARTISTTRANSLIT:;
#GENRE:;
#CREDIT:;
#MUSIC:01. Nightbird.mp3;
#BANNER:;
#BACKGROUND:;
#CDTITLE:;
#SAMPLESTART:0.000;
#SAMPLELENGTH:0.000;
#SELECTABLE:YES;
#OFFSET:-0.076;
#BPMS:0.000=128.000;
#STOPS:;
#BGCHANGES:;
#FGCHANGES:;

//--------------- dance-single - about-blank ----------------
#NOTES:
     dance-single:
     about-blank:
     Beginner:
     1:
     0,0,0,0,0:
0000
0000
0000
0000
,
0000
0000
0000
0000
,
0000
0000
0000
0000
,
0000
0000
0000
0000
,
0000
0000
0000
0000
,
1000
0000
0000
0000
,
0000
0000
0000
0000
,
0001
0000
0000
0000
,
0000
0000
0000
0000
,
0100
0000
0000
0000
,
0000
0000
0000
0000
,
0010
0000
0000
0000
,
0000
0000
1000
0000
,
0001
0000
0000
0000
,
0000
0000
0000
0000
,
0010
0000
0000
0000
,
0000
0000
0000
0000
,
0100
0000
0000
0000
,
0000
0000
0000
0000
,
1000
0000
0000
0000
,
0000
0000
0000
0000
,
0000
0001
0000
0001
,
0000
0001
0000
0001
,
0000
1000
0000
1000
,
0000
1000
0000
1000
,
0000
0010
0000
0100
,
0000
0010
0000
0100
,
0000
0001
0000
1000
,
0000
0001
0000
1000
,
0001
0000
0000
0000
,
0000
0000
0000
0000
,
1000
0000
0000
0000
,
0000
0000
0000
0000
,
0100
0000
0000
0000
,
0000
0000
0000
0000
,
0010
0000
0000
0000
,
0000
0000
0001
0000
,
1000
0000
0000
0000
,
1000
0000
0000
0000
,
0001
0000
0000
0000
,
0001
0000
0000
0000
,
0100
0000
0100
0000
,
0010
0000
0010
0000
,
0100
0000
0100
0000
,
0010
0000
0010
0000
,
0000
1001
0000
1001
,
0000
0000
1001
0000
0000
0000
0000
1001
,
0000
0110
0000
0110
,
0000
0110
0000
0000
;

//--------------- dance-single - about-blank ----------------
#NOTES:
     dance-single:
     about-blank:
     Easy:
     5:
     0,0,0,0,0:
0000
0000
0000
0000
,
0000
0000
0000
0000
,
0000
0000
0000
0000
,
1000
0100
0001
0100
,
1000
0010
0001
0010
,
1001
0000
0000
0000
,
1000
1000
0100
0100
,
0110
0000
0000
0000
,
0001
0001
1000
1000
,
0010
0000
0100
0100
,
0001
0000
1000
1000
,
0100
0000
0001
0001
,
0100
0000
0110
0000
,
1000
0010
1000
0010
,
0100
0000
0000
0000
,
0001
0010
0001
0010
,
0100
0000
1000
0000
,
0001
0000
0100
0100
,
1000
0000
0100
0100
,
0001
0000
0010
0010
,
1000
0000
0010
0010
,
0001
0001
0001
0000
,
0001
0001
0001
0000
,
1000
1000
1000
0000
,
1000
1000
1000
0000
,
0010
0000
1000
0000
,
0100
0000
0001
0000
,
0010
0010
0010
0010
,
0110
0000
0000
0000
,
0100
0100
1000
0000
,
0100
0100
0001
0000
,
0010
0010
1000
0000
,
0010
0010
0001
0000
,
1001
0000
1000
0001
,
0100
0000
0000
0000
,
1001
0000
1000
0001
,
0010
0000
0000
0000
,
0100
0100
1000
1000
,
0010
0010
0100
0100
,
0001
0001
0010
0010
,
0001
0001
0100
0010
,
0110
0000
1000
1000
,
0001
0001
0010
0010
,
0100
0100
1000
1000
,
0001
0001
0100
0010
,
1000
1100
0000
1100
,
0001
0000
0101
0000
0000
0000
0000
1000
,
0001
0011
0000
0011
,
1000
0000
1010
0000
0000
0000
1000
0010
;

//--------------- dance-single - about-blank ----------------
#NOTES:
     dance-single:
     about-blank:
     Medium:
     10:
     0,0,0,0,0:
0000
0000
0000
0000
,
0000
0000
0000
0000
,
0000
0000
0000
0000
,
0000
0000
0000
0000
,
0000
0000
0000
0000
0000
0000
0000
1000
,
0001
0000
0000
0100
0000
0100
0000
0010
,
0000
1000
0000
0000
0000
0000
0000
0001
,
1000
0000
1000
0100
0000
0100
0000
0010
,
0000
0001
0000
0100
0000
1000
0000
0100
,
0000
0000
0001
0010
0001
0000
0001
0000
,
1000
0000
0000
0000
1000
0100
0000
0010
,
0000
0000
0010
0002
0000
0000
0000
0000
,
0003
0000
0000
0000
0100
0100
0100
0000
,
0010
0000
1000
0100
0000
0001
0000
0100
,
0000
0010
0000
0000
0000
0001
1000
0000
,
0010
0000
1000
0010
0000
0001
0000
1000
,
0000
0100
0000
0001
0000
0010
0000
0100
,
0000
0000
1000
0001
1000
0000
0100
0000
,
0010
0000
0001
0001
0000
0100
0000
1000
,
0000
0000
0001
0010
1000
0000
0100
0000
,
0110
0000
0000
0000
0001
1000
0001
0000
,
0100
0000
0001
0000
0100
0010
0100
0000
,
0010
0000
1000
0000
0010
1000
0010
0000
,
1000
0000
0100
0000
1000
0100
1000
0000
,
0001
0000
0010
0000
0001
0010
0001
0000
,
1000
0100
0001
0000
0001
0100
1000
0000
,
1000
0010
0001
0000
0001
0010
1000
0000
,
1000
0001
0100
0000
0001
1000
0100
0000
,
0010
0001
1000
0000
0010
1000
0001
0000
,
0110
0000
1000
0000
0010
0000
1000
0010
,
0000
0010
0100
0000
1000
0100
0001
0000
,
0001
0000
0001
0010
0000
0001
0000
0010
,
0000
0010
0001
0100
0000
1000
0000
0100
,
0001
0000
1001
0000
1000
0100
1000
0000
,
0010
0000
1001
0000
0001
0100
0001
0000
,
0010
0000
1001
0000
1000
0010
1000
0000
,
1000
0100
0010
0000
0001
0001
0001
0000
,
0001
0000
0001
0100
0000
0010
1000
0000
,
1000
0000
1000
0100
0000
0010
0001
0000
,
1000
0000
0001
0100
0000
0010
1000
0000
,
0001
0000
1000
0100
0000
0010
0001
0000
,
0100
0000
1000
0100
0000
0001
0010
0000
,
1000
0000
0010
0001
0000
0100
1000
0000
,
0001
0000
0010
1000
0000
0100
0001
0000
,
1000
0000
0010
0001
0000
0100
1000
0100
,
0001
0010
0100
0000
1000
0010
0100
0000
,
0001
0010
0100
0000
1000
0010
0100
0010
,
1000
0100
0010
0000
0001
0100
0010
0000
,
1000
0100
0010
0000
0001
0100
0010
1000
;

//--------------- dance-single - about-blank ----------------
#NOTES:
     dance-single:
     about-blank:
     Hard:
     11:
     0,0,0,0,0:
0000
0000
0000
0000
,
0000
0000
0000
0000
,
0000
0000
0000
0000
,
0000
0000
0000
0000
,
0000
0000
0000
0000
0000
0000
0000
1000
,
0020
0000
0000
0001
0000
0100
0000
1030
,
0000
0000
0001
0001
1000
0010
0100
0001
,
0020
0000
1000
1000
0000
0100
0000
0031
,
0000
0010
0100
1000
0000
1001
0000
0220
,
0000
0330
0001
0001
0010
0100
0010
0000
,
0100
0000
1000
0000
0001
0200
0000
0320
,
0000
0030
1000
1000
0100
0010
0100
0000
,
1001
0000
0000
0000
0001
0000
0000
0000
0100
0010
0100
0010
0100
0000
0000
0000
,
0021
0000
0001
1000
0000
1000
0000
0001
,
0000
0031
1000
1000
0001
0100
0010
0000
,
1020
0000
1000
0001
0000
0001
0000
1000
,
0000
1030
0100
0010
0000
0010
0001
1000
,
0010
0000
0001
0001
0010
1000
0100
0000
,
0110
0000
0001
0002
0000
2003
0000
3200
,
0000
0000
0001
2000
0000
3300
0000
0000
,
1000
0000
0000
0000
0010
0000
0010
0000
0100
0001
0100
0001
0100
0000
0000
0000
,
0002
0000
0103
0010
0200
0000
1300
0100
,
0010
0000
1001
0000
1000
1000
0001
0000
,
2000
0000
3100
0010
0200
0000
0301
0100
,
0010
0000
1001
0000
1000
0001
1000
0001
,
0200
0000
1300
0100
0002
0000
1003
0100
,
0010
0001
0100
0010
1000
0010
0100
0002
,
2000
0000
0000
3003
,
0000
0000
0000
0000
0110
0000
0000
0000
1000
0001
1000
0001
1000
0000
0000
0000
,
1200
0000
0301
0100
1000
0000
0001
0100
,
0000
0100
1000
0100
0001
0000
1001
0000
,
0021
0000
1030
0010
0000
0011
0000
0201
,
0000
1300
0000
1200
0000
0010
0000
0301
,
1000
0000
0001
1000
0100
0100
0010
0000
,
0001
0000
0010
1000
0001
0100
0000
0110
,
0000
0000
1000
0001
0100
0100
0010
0000
,
1000
0000
0000
0000
0001
0000
0010
0000
0100
0010
0100
0010
0100
0000
0000
0000
,
2010
0000
3100
0001
0100
1000
0100
0000
,
0010
0001
0010
1000
0010
0001
1000
0000
,
0201
0000
1300
0100
0001
0100
1000
0000
,
0001
0000
0010
0000
1000
0000
0010
0000
0001
0010
0001
0010
1000
0000
0100
0000
,
0110
0000
0001
1000
0001
0100
0010
1000
,
0100
0010
0001
0100
0010
1000
0010
0000
,
0101
0000
0001
0010
0001
1000
0010
1000
,
0001
0100
0010
1000
0100
0010
0001
0100
,
0010
1000
1100
0000
0010
0001
0101
0000
,
0001
1000
1010
0000
1000
0001
0011
0000
,
0001
0100
0110
0000
1000
0100
0110
0000
,
0001
0000
0010
0000
0110
0000
0000
0000
1000
0001
1000
0000
0100
0000
0010
0000
;
