#TITLE:Next Big Thing;
#SUBTITLE:;
#ARTIST:Big Idea;
#TITLETRANSLIT:;
#SUBTITLETRANSLIT:;
#ARTISTTRANSLIT:;
#GENRE:;
#CREDIT:;
#MUSIC:Next Big Thing.mp3;
#BANNER:;
#BACKGROUND:;
#CDTITLE:;
#SAMPLESTART:0.000;
#SAMPLELENGTH:0.000;
#SELECTABLE:YES;
#OFFSET:1.789;
#BPMS:0.000=129.000;
#STOPS:;
#BGCHANGES:;
#FGCHANGES:;

//--------------- dance-single - OrangeRight ----------------
#NOTES:
     dance-single:
     OrangeRight:
     Beginner:
     2:
     0,0,0,0,0:
0000
0000
0000
0000
,
0000
0000
0000
0000
,
0000
0000
0000
0000
,
0000
0000
0000
0000
,
1000
0000
0001
0000
,
1000
0000
0000
0000
,
0100
0000
0000
0000
,
1000
0000
0000
0000
,
0001
0000
1000
0000
,
0001
0000
0000
0000
,
0100
0000
0000
0000
,
0001
0000
0000
0000
,
1000
0000
0001
0000
,
1000
0000
0100
0000
,
1000
0000
0000
0000
,
0001
0000
0100
0000
,
0001
0000
0000
0000
,
1000
0000
0000
0000
,
0100
0000
0000
0000
,
0010
0000
0000
0000
,
0100
0000
1000
0000
,
0001
0000
0000
0000
,
0100
0000
0000
0000
,
0010
0000
0000
0000
,
0100
0000
0001
0000
,
1000
0000
0010
0000
,
1000
0000
0000
0000
,
0001
0000
0010
0000
,
0001
0000
0000
0000
,
2000
0000
0000
0000
,
3000
0000
0001
0000
,
0002
0000
0000
0000
,
0003
0000
0001
0000
,
1000
0000
0100
0000
,
1000
0000
0000
0000
,
0001
0000
0100
0000
,
0001
0000
1000
0000
,
0001
0000
0001
0000
,
1000
0000
0000
0000
,
1000
0000
1000
0000
,
0001
0000
0100
0000
,
0010
0000
1000
0000
,
1000
0000
0100
0000
,
0010
0000
0001
0000
,
0001
0000
1000
0000
,
0010
0000
0100
0000
,
0001
0000
1000
0000
,
0100
0000
1000
0001
,
1000
0000
0000
0000
,
1000
0000
0001
1000
,
0001
0000
0000
0000
,
0001
0000
1000
0100
,
1000
0000
0000
0000
,
0010
0000
0100
0010
,
0100
0000
0000
0000
;

//--------------- dance-single - OrangeRight ----------------
#NOTES:
     dance-single:
     OrangeRight:
     Easy:
     4:
     0,0,0,0,0:
0000
0000
0000
0000
,
0000
0000
0000
0000
,
0000
0000
0000
0000
,
0000
0000
0000
0000
,
1000
0001
2002
3003
,
1000
0000
0100
0000
,
0010
0000
0100
0000
,
1000
0000
0010
0000
,
0100
0000
0001
1000
,
0001
0000
0010
0000
,
0100
0000
0010
0000
,
0001
0000
0100
0000
,
0010
0000
1000
0001
,
1000
0000
0100
0000
,
0010
0000
0001
1000
,
0001
0000
0100
0000
,
0010
0000
1000
0001
,
1000
0000
0010
0000
,
0100
0000
0010
0000
,
1000
0000
0100
0000
,
0010
0000
0001
1000
,
0001
0000
0100
0000
,
0010
0000
0100
0000
,
0001
0000
0010
0000
,
0100
0000
1000
0001
,
1000
0000
0001
0000
,
0100
0000
0010
0100
,
0001
0000
1000
0000
,
0100
0000
0010
0100
,
2000
0001
0000
0001
,
3001
0100
0000
0010
,
0200
0010
0000
0010
,
0310
1000
0000
0100
,
0010
0001
0010
0000
,
0100
1000
0100
0000
,
1000
0010
1000
0000
,
0001
1000
2002
3003
,
1000
0001
0000
0001
,
0100
0010
1000
0100
,
2000
0000
3000
0001
,
0100
0000
0010
0000
,
1000
0000
0100
0010
,
0001
0000
1000
0000
,
0010
0000
0100
0001
,
1000
0000
0100
0000
,
0010
0000
0100
1000
,
0010
0000
0100
0000
,
0001
0000
1000
0001
,
2002
3003
0100
0010
,
1000
0100
1000
0001
,
2002
3003
0100
0010
,
0001
0100
0001
1000
,
2002
3003
1000
0010
,
0100
0001
0010
0100
,
2002
0000
0000
3003
0000
0000
0000
0000
;

//--------------- dance-single - OrangeRight ----------------
#NOTES:
     dance-single:
     OrangeRight:
     Medium:
     7:
     0,0,0,0,0:
0000
0000
0000
0000
,
0000
0000
0000
0000
,
0000
0000
0000
0000
,
0000
0000
0000
0000
,
1001
1001
2002
3003
,
1000
0100
0010
0001
,
1000
0001
0100
0001
,
0010
0000
0100
0000
1000
0001
1000
0000
,
0100
0000
1001
1001
,
1001
0100
0010
1000
,
0001
1000
0010
1000
,
0100
0000
0010
0000
0001
1000
0001
0000
,
0010
0000
0110
0110
,
0110
0100
1000
0010
,
0100
0000
0001
0000
1000
0001
1000
0000
,
0001
0010
0100
1000
,
0010
0000
0100
0000
0010
0100
0010
0000
,
1000
0100
0010
0001
,
0100
0001
0010
0001
,
1000
0000
0001
0000
0100
0010
0100
0000
,
0001
0000
1001
1001
,
1001
0100
0010
1000
,
0100
1000
0010
1000
,
0001
0000
1000
0000
0010
0100
0001
0000
,
0010
0000
1001
1001
,
1001
1000
0100
1000
,
0010
0000
1000
0000
0001
0100
0001
0000
,
0001
0010
0001
0100
,
0001
1000
0001
0000
1000
0001
1000
0000
,
0002
0100
0000
0013
,
0010
0100
1001
1001
,
2001
0100
0000
3010
,
0010
0100
1001
1001
,
1002
0100
0000
0103
,
0001
0100
0001
0000
1000
0100
1000
0000
,
2001
0100
0000
3100
,
1001
0110
2002
3003
,
1000
0010
1000
0010
0100
0000
0001
0000
,
0010
0100
0010
0000
0001
0000
0100
0000
,
0002
1003
0010
0100
,
0001
0000
0000
0001
0010
0000
0000
0010
,
0100
0000
0000
0100
1000
0000
0001
0000
,
1000
0000
0000
1000
0100
0000
0000
0100
,
0010
0000
0000
0010
0001
0000
1000
0000
,
0001
0100
0010
1000
,
0100
0010
0100
1000
,
0010
0000
0100
0000
0001
1000
0001
0000
,
1001
0000
0110
1001
,
0120
1030
2000
3100
,
0200
0310
1001
0110
,
1002
0103
0200
0310
,
0020
1030
1010
0101
,
2001
0000
3100
0000
0010
0001
0100
0000
,
0010
1000
0100
0000
1001
0000
0110
0000
,
2002
0000
0000
3003
0000
0000
0000
0000
;

//--------------- dance-single - OrangeRight ----------------
#NOTES:
     dance-single:
     OrangeRight:
     Hard:
     10:
     0,0,0,0,0:
0000
0000
0000
0000
,
0000
0000
0000
0000
,
0000
0000
0000
0000
,
0000
0000
0000
0000
,
1001
0110
2002
3003
,
1000
0001
0010
0001
0000
0001
0100
0010
,
0000
0010
1000
0100
1000
0010
0100
0001
,
0000
1000
0001
0000
0010
0100
1000
0001
,
1000
0000
1000
0001
1001
0000
0110
0000
,
1001
0001
0100
0010
0000
0010
1000
0100
,
0000
1000
0001
0100
0000
0001
1000
0010
,
0000
1000
0001
1000
0100
1000
0010
0100
,
0001
0000
1000
0001
1001
0000
0110
0000
,
1001
0000
1000
0100
0010
0100
1000
0010
,
0100
0001
0100
0010
1000
0001
1000
0000
,
0001
0000
0001
0100
0010
0100
0001
1000
,
0010
1000
0100
0010
0001
1000
0001
0000
,
1000
0001
1000
0001
0100
0010
0100
0000
,
0001
1000
0001
0100
0000
0100
0010
1000
,
0001
0010
0100
1000
0010
0100
0010
1000
,
0001
0000
1000
0001
1001
0000
0110
0000
,
1001
1000
0100
0010
0000
0010
0001
0100
,
0000
0100
0010
1000
0000
1000
0001
0100
,
0000
0100
0010
1000
0100
0010
0001
1000
,
0001
0000
1000
0001
1001
0000
0110
0000
,
1001
0000
1000
0010
0100
0010
1000
0100
,
0010
0001
0100
0010
1000
0001
1000
0000
,
0001
0000
1000
0100
0010
0100
1000
0010
,
0100
0001
1000
0100
0001
0100
1000
0000
,
1002
0010
1000
0100
,
0013
0100
1000
0000
1001
0000
0110
0000
,
2001
0100
0001
0010
,
3001
0100
0010
0000
0110
0000
1001
0000
,
1020
0100
0001
0100
,
1030
0000
0000
0000
0010
0000
1000
0001
1000
0001
1000
0000
0100
0000
0000
0000
,
1200
0000
0010
0000
0001
0000
0310
0100
,
0110
0000
1001
0000
0011
0000
0010
0100
,
1000
0001
0100
0010
1000
0000
0001
0000
,
1000
0100
0010
0001
1000
0000
0001
0000
,
0200
1000
0010
0301
,
1000
0000
0100
1000
0001
0000
0100
0001
,
1000
0000
1000
0100
0010
0100
1000
0001
,
0100
0000
0010
0100
0010
0000
1000
0010
,
1000
0000
0100
0010
0001
1000
0001
0000
,
1000
0000
0001
0100
0010
0100
0001
0000
,
1000
0100
0010
0100
1000
0001
0100
0000
,
0010
0100
0001
0010
1000
0010
0001
0000
,
1001
0000
1000
0001
1001
0000
0110
0000
,
0011
0001
0100
0000
0100
0100
0010
0000
,
0010
0010
1000
0000
1001
0000
0110
0000
,
1010
1000
0100
0000
0100
0100
0010
0000
,
0010
0010
0001
0100
0101
0000
0110
0000
,
1010
1000
0100
0000
0010
0001
0100
0000
,
0010
0100
0001
1000
1100
0000
0101
0000
,
2002
0000
0000
3003
0000
0000
0000
0000
;

//--------------- dance-double - OrangeRight ----------------
#NOTES:
     dance-double:
     OrangeRight:
     Easy:
     5:
     0,0,0,0,0:
00000000
00000000
00000000
00000000
,
00000000
00000000
00000000
00000000
,
00000000
00000000
00000000
00000000
,
00000000
00000000
00000000
00000000
,
10000000
00010000
20020000
30030000
,
10000000
00000000
01000000
00000000
,
00100000
00010000
01000000
00000000
,
00010000
00000000
00100000
00001000
,
00010000
00000000
00001000
00010000
,
00001000
00000000
00010000
00000000
,
00000100
00001000
00000010
00000000
,
00000100
00000000
00000001
00001000
,
00000001
00000000
00001000
00000001
,
00001000
00000000
00000100
00000000
,
00000010
00000000
00000001
00000001
,
00000100
00000000
00000010
00000000
,
00001000
00000000
00000100
00010000
,
00001000
00000000
00100000
00000000
,
00010000
01000000
00100000
00000000
,
10000000
00010000
10000000
00010000
,
10000000
00000000
00010000
10000000
,
00010000
00000000
00100000
00000000
,
00001000
00010000
00000100
00000000
,
00001000
00000010
00000100
00000001
,
00001000
00000000
00000001
00001000
,
00000001
00000000
00000100
00000000
,
00000010
00000000
00001000
00001000
,
00000100
00000000
00010000
00000000
,
00001000
01000000
00010000
10000000
,
20020000
00000000
00000000
30030000
,
10000000
01000000
00100000
00010000
,
00220000
00000000
00000000
00330000
,
00100000
00001000
00010000
00000100
,
00002200
00000000
00000000
00003300
,
00001000
00000001
00001000
00000001
,
00002002
00000000
00000000
00003003
,
00000001
00001000
00002002
00003003
,
00000100
00000010
00001000
00000000
,
00000100
00000010
00000001
00000100
,
00000020
00000030
00001000
00000001
,
00001000
00000000
00000100
00000000
,
00010000
00000000
00001000
00100000
,
00010000
00000000
01000000
00000000
,
00001000
00000000
00010000
00000010
,
00001000
00000000
00000001
00000000
,
00000100
00000010
00001000
00000000
,
00000001
00001000
00000100
00000010
,
00000001
00000000
00001000
00000001
,
00002002
00003003
00000100
00000010
,
00001000
00000100
00010000
00001000
,
00022000
00033000
00001000
00100000
,
00010000
01000000
00100000
01000000
,
02200000
03300000
00100000
10000000
,
01000000
00100000
00010000
10000000
,
20020000
00000000
00000000
30030000
00000000
00000000
00000000
00000000
;

//--------------- dance-double - OrangeRight ----------------
#NOTES:
     dance-double:
     OrangeRight:
     Medium:
     8:
     0,0,0,0,0:
00000000
00000000
00000000
00000000
,
00000000
00000000
00000000
00000000
,
00000000
00000000
00000000
00000000
,
00000000
00000000
00000000
00000000
,
10010000
10010000
20020000
30030000
,
10000000
01000000
00100000
00010000
,
01000000
00001000
00010000
00000100
,
00001000
00000000
00000010
00000000
00000100
00000001
00000100
00000000
,
00000001
00000000
00001001
00001001
,
00001001
00000100
00000010
00001000
,
00000100
00010000
00001000
01000000
,
00010000
00000000
00100000
00000000
01000000
10000000
01000000
00000000
,
10000000
00000000
10010000
10010000
,
10010000
10000000
01000000
10000000
,
00100000
00000000
01000000
00000000
00010000
00100000
00010000
00000000
,
00100000
00001000
00010000
00000100
,
00001000
00000000
00000001
00000000
00001000
00000001
00001000
00000000
,
00000001
00000010
00000100
00001000
,
00000010
00010000
00001000
00100000
,
00010000
00000000
01000000
00000000
00100000
10000000
01000000
00000000
,
10000000
00000000
10010000
10010000
,
10010000
00100000
01000000
00010000
,
00100000
00001000
00010000
00000010
,
00001000
00000000
00000100
00000000
00000010
00000001
00000100
00000000
,
00000001
00000000
00001001
00001001
,
00001001
00000001
00000010
00000001
,
00000100
00000000
00000010
00000000
00001000
00000100
00001000
00000000
,
00000100
00010000
00001000
00100000
,
00010000
00000000
10000000
00000000
00010000
10000000
00010000
00000000
,
20010000
01000000
00000000
30100000
,
01000000
00010000
00110000
00110000
,
00210000
00001000
00000000
00301000
,
00010000
00000100
00001100
00001100
,
00002100
00000010
00000000
00003001
,
00000001
00000000
00000100
00000000
00000010
00001000
00000010
00000000
,
00002001
00000100
00000000
00003010
,
00001001
00001001
00002002
00003003
,
00000001
00000010
00000001
00000010
00000100
00000000
00001000
00000000
,
00000010
00001000
00000010
00001000
00000100
00000000
00010000
00000000
,
00022000
00033000
00010000
00001000
,
01000000
00000000
00000000
01000000
00100000
00000000
00000000
00100000
,
10000000
00000000
00000000
10000000
01000000
00000000
00100000
00000000
,
00010000
00000000
00000000
00010000
00100000
00000000
00000000
00100000
,
00001000
00000000
00000000
00001000
00010000
00000000
00000100
00000000
,
00001000
00000100
00000010
00000001
,
00000100
00000000
00000010
00000000
00001000
00000010
00001000
00000000
,
00000001
00000010
00001000
00000010
,
00000001
00000000
00001001
00000110
,
00001002
00000103
00000200
00000310
,
00000020
00001030
00001100
00001100
,
00001200
00010300
00020000
00031000
,
00002000
00103000
00110000
00110000
,
00120000
01030000
02000000
03100000
,
00200000
10300000
10010000
01100000
,
20020000
00000000
00000000
30030000
00000000
00000000
00000000
00000000
;

//--------------- dance-double - OrangeRight ----------------
#NOTES:
     dance-double:
     OrangeRight:
     Hard:
     11:
     0,0,0,0,0:
00000000
00000000
00000000
00000000
,
00000000
00000000
00000000
00000000
,
00000000
00000000
00000000
00000000
,
00000000
00000000
00000000
00000000
,
00010100
00101000
00022000
00033000
,
00001000
00010000
00000100
00001000
00000000
00000010
00001000
00000100
,
00000000
00000100
00010000
00001000
00100000
00001000
00010000
00000100
,
00000000
00010000
00001000
01000000
00100000
01000000
00010000
00100000
,
00010000
00000000
00100000
00001000
00101000
00000000
00010100
00000000
,
00011000
00001000
01000000
00010000
00000000
00010000
00100000
00001000
,
00000000
00010000
00000100
00001000
00000000
00001000
00000010
00010000
,
00000000
00001000
00100000
00010000
01000000
00100000
10000000
00010000
,
10000000
00000000
00010000
10000000
10010000
00000000
01100000
00000000
,
10010000
00000000
10000000
00100000
01000000
00100000
10000000
01000000
,
00100000
00010000
01000000
00010000
00100000
00001000
00010000
00000000
,
00001000
00010000
00000100
00010000
00000010
00001000
00000100
00000010
,
00000001
00000100
00000010
00000100
00000001
00001000
00000001
00000000
,
00001000
00000001
00001000
00000001
00000100
00000010
00000100
00000000
,
00000010
00001000
00000100
00010000
00000000
00010000
00001000
00100000
,
00000000
00100000
00010000
01000000
00100000
10000000
00010000
10000000
,
00010000
00000000
10000000
00010000
10010000
00000000
01100000
00000000
,
10010000
10000000
01000000
00100000
00000000
00100000
00010000
01000000
,
00000000
01000000
00001000
00010000
00000000
00010000
00000100
00001000
,
00000000
00001000
00000010
00000100
00000000
00000100
00000001
00001000
,
00000000
00000010
00001000
00000001
00001001
00000000
00000110
00000000
,
00001001
00000000
00000001
00000010
00000100
00000010
00000001
00000100
,
00000010
00001000
00000100
00001000
00000010
00010000
00001000
00000000
,
00010000
00001000
01000000
00001000
00100000
00010000
01000000
00100000
,
10000000
01000000
00100000
00010000
01000000
10000000
01000000
00000000
,
01020000
00100000
01000000
00130000
,
00010000
00100000
00001000
00000000
00011000
00000000
00010100
00000000
,
00002100
00000010
00000100
00003010
,
00001000
00000100
00010000
00000000
00011000
00000000
00101000
00000000
,
00210000
01000000
10000000
01000000
,
00310000
00000000
00000000
00000000
00100000
00000000
00010000
10000000
00010000
10000000
00010000
00000000
01000000
00000000
00000000
00000000
,
00100000
00000000
10000000
00000000
01000000
00000000
00100000
00010000
,
00110000
00000000
11000000
00000000
10010000
00000000
10000000
00100000
,
01000000
00010000
00100000
01000000
10000000
00000000
01000000
00000000
,
00100000
00010000
00100000
00001000
00010000
00000000
00000100
00000000
,
00002000
00000010
00000001
00000100
,
00003010
00000000
00000010
00000100
00000001
00000000
00000010
00000100
,
00001000
00000000
00000100
00010000
00001000
00100000
00010000
00000000
,
00100000
01000000
10000000
00000000
00100000
01000000
00010000
00000000
,
10000000
00010000
01000000
00100000
10000000
01000000
10000000
00000000
,
01000000
10000000
00100000
01000000
00010000
00100000
00001000
00000000
,
00010000
00000010
00001000
00000100
00000010
00000001
00001000
00000000
,
00000010
00000100
00000001
00001000
00000100
00000001
00000100
00001000
,
00000010
00000000
00000100
00000010
00000110
00000000
00001001
00000000
,
00000110
00000000
00000010
00000010
00001000
00000000
00001000
00001000
,
00000100
00000000
00000100
00010000
00011000
00000000
00101000
00000000
,
00110000
00000000
00100000
00100000
00010000
00000000
00010000
00010000
,
01000000
00000000
01000000
00001000
00011000
00000000
00010100
00000000
,
00001100
00000000
00001000
00000100
00010000
00000000
00001000
01000000
,
00010000
00000000
01000000
00001000
01001000
00000000
00010100
00000000
,
00022000
00000000
00000000
00033000
00000000
00000000
00000000
00000000
;
