#TITLE:New Magical Definition;
#SUBTITLE:;
#ARTIST:Oh,la,la!;
#TITLETRANSLIT:;
#SUBTITLETRANSLIT:;
#ARTISTTRANSLIT:;
#GENRE:;
#CREDIT:;
#MUSIC:New Magical Definition.mp3;
#BANNER:New Magical Definition.png;
#BACKGROUND:New Magical Definition-bg.png;
#CDTITLE:./CDTITLES/pop'n music.png;
#SAMPLESTART:5.700;
#SAMPLELENGTH:13.740;
#SELECTABLE:YES;
#OFFSET:1.507;
#BPMS:0.000=153.100;
#STOPS:;
#BGCHANGES:;
#FGCHANGES:;

//--------------- dance-single - about-blank ----------------
#NOTES:
     dance-single:
     about-blank:
     Beginner:
     3:
     0,0,0,0,0:
0000
0000
0000
0000
,
0000
0000
0000
0000
,
0000
0000
0000
0000
,
0000
0000
0000
0000
,
0000
0000
0000
0000
,
1000
0000
0000
0000
,
1000
0000
0000
0000
,
0001
0000
0000
0000
,
0001
0000
0000
0000
,
0010
0000
0000
0000
,
0010
0000
0000
0000
,
0100
0000
0000
0000
,
0100
0000
0000
0000
,
1000
0000
1000
0000
,
1000
0000
0000
0000
,
0001
0000
0001
0000
,
0001
0000
0000
0000
,
0100
0000
0100
0000
,
0100
0000
0000
0000
,
0010
0000
0010
0000
,
0010
0000
0000
0000
,
1001
0000
0000
0000
,
0110
0000
0000
0000
,
1001
0000
0010
0000
,
0110
0000
0000
0000
,
0001
0001
0001
0000
,
0000
0000
0000
0000
,
1000
1000
1000
0000
,
0000
0000
0000
0000
,
0010
0010
0010
0000
,
0000
0000
0000
0000
,
0100
0100
0100
0000
,
0000
0000
0000
0000
,
0000
0000
1001
0000
,
0000
0000
0001
0000
,
0000
0000
1000
0000
,
0000
0000
1000
0000
,
0000
0000
0010
0000
,
0000
0000
0010
0000
,
0000
0000
0100
0000
,
0000
0000
0100
0000
,
0000
0000
0001
0000
,
0001
0000
0010
0000
,
0010
0000
0100
0000
,
0100
0000
1000
0000
,
1000
0000
1001
0000
,
1001
0000
1001
0000
,
1001
0000
0001
0000
,
0000
0000
0001
0000
,
0000
0000
1000
0000
,
0000
0000
1000
0000
,
0000
0000
0100
0000
,
0000
0000
0100
0000
,
0000
0000
0010
0000
,
0000
0000
0010
0000
,
0000
0000
0001
0000
,
0000
0000
1000
0000
,
0000
0000
0100
0000
,
0000
0000
0010
0000
,
0000
0000
0002
0003
,
0002
0003
2000
3000
,
2000
3000
0010
0000
,
1001
0000
0000
0000
,
0000
0000
0100
0000
,
1001
0000
0000
0000
,
0000
0000
1000
0000
,
0110
0000
0000
0000
,
0000
0000
0001
0000
,
0110
0000
0000
0000
;

//--------------- dance-single - about-blank ----------------
#NOTES:
     dance-single:
     about-blank:
     Easy:
     8:
     0,0,0,0,0:
0000
0000
0000
0000
,
0000
0000
0000
0000
,
0000
0000
0000
0000
,
0000
0000
0000
0000
,
0000
0000
0000
0000
,
1000
0100
1000
1000
,
0010
0100
0001
0010
,
0001
0100
0001
0001
,
0010
1001
0000
0001
,
1000
0100
0010
0010
,
0001
1000
0010
0100
,
0001
0010
0100
0010
,
0001
1000
0010
0000
,
0100
1000
0100
0001
,
0100
1000
0100
0001
,
0010
1000
0010
0001
,
0010
0100
0100
0000
,
1000
0100
0010
0100
,
1000
0100
0001
0100
,
1000
0010
0001
0010
,
0100
0100
0100
0000
,
0011
0011
0011
0000
,
1100
1100
1100
0000
,
1010
1010
0101
0101
,
1000
0001
1000
0000
,
0001
0100
0010
0100
,
0001
1000
0010
0100
,
0001
1000
0100
0010
,
0001
0010
1000
0010
,
0001
1000
0100
0010
,
0001
1000
0010
0001
,
1000
0100
0001
0010
,
0100
1000
0001
0100
,
0010
0100
0010
0000
1001
0000
1100
0000
,
0001
1000
0100
0100
,
0010
0001
1001
0101
,
0001
0010
0001
0001
,
0100
0010
1001
0110
,
1000
1000
0001
0100
,
0010
1000
1001
0110
,
0001
1000
0010
0001
,
1000
0100
0001
0001
,
1000
1000
0010
0010
,
0100
0100
0001
0001
,
0010
0010
0100
0100
,
1000
1000
0010
0100
,
0001
1000
0100
0010
,
0001
1000
0001
0000
,
0010
0000
1000
0000
,
0100
0000
0001
0000
,
0010
0000
1000
1000
,
1000
0000
1000
0000
,
0100
0000
0001
0000
,
0010
0000
1000
0000
,
0100
0000
0001
0001
,
0001
0000
1001
0000
,
0100
0000
0011
0000
,
1000
0000
1100
0000
,
0001
0000
2020
0000
,
0000
3030
0000
0000
0000
0000
0000
0000
0000
0000
0000
0000
0000
0000
0000
0000
0000
0000
0000
0000
0000
0000
0000
0000
1000
0000
0000
0000
0000
0000
0000
0000
0000
0000
0000
0000
1000
0000
0000
0000
0000
0000
0000
0000
0000
0000
0000
0000
,
0001
0001
0010
0100
,
1000
0001
0100
0110
,
1000
1001
0010
0010
,
0100
0100
0010
0011
,
0100
1001
1000
1000
,
0001
0001
0100
1000
,
0100
0001
0010
0110
,
0100
1100
1000
0010
,
0100
0001
1000
0100
,
0010
0001
0000
0000
;

//--------------- dance-single - about-blank ----------------
#NOTES:
     dance-single:
     about-blank:
     Medium:
     12:
     0,0,0,0,0:
0000
0000
0000
0000
,
0000
0000
0000
0000
,
0000
0000
0000
0000
,
0000
0000
0000
0000
,
0000
0000
0000
0000
,
1000
0101
0001
0010
,
0001
0000
0101
0000
0100
0010
0100
0000
,
0001
1100
1000
0010
,
1000
0000
0101
0000
0100
0010
0100
0000
,
0001
0010
0001
0000
1000
0000
1100
0000
,
0001
0000
0100
0010
0000
1000
0010
1000
,
0001
0100
0001
0100
0010
1000
0010
1000
,
0001
0010
0100
1000
0000
0010
0100
0001
,
1000
0000
0100
0000
0010
0001
0010
0000
,
0001
0000
1000
0000
0001
0100
0001
0000
,
1000
0000
0010
0000
0100
0001
0100
0000
,
0001
0010
0001
0010
0001
0010
0001
0000
,
1000
0000
0001
0000
0010
0100
0010
0000
,
0100
0000
1000
0000
0010
0100
0010
0000
,
1000
0000
0010
0000
0100
0001
0100
0000
,
0001
1000
0001
1000
0001
1000
0001
0000
,
0100
0010
0100
0001
0100
0010
0100
0000
,
0010
1000
0010
0100
0010
1000
0010
0000
,
1000
0100
0001
0000
0001
0100
1000
0000
,
1000
0010
0100
0010
1000
0010
0100
0000
,
0001
1000
0100
0010
,
0001
1000
0010
0001
,
1000
0100
0001
0010
,
0100
0010
0001
1000
,
0001
0000
0100
1000
0100
0000
0001
0000
,
1000
0000
0100
0001
0100
0000
1000
0000
,
0010
0000
0100
0010
0100
0000
0001
0000
,
0010
0000
0100
0010
0100
0000
1001
0000
,
1000
0000
1000
0000
0000
0010
0000
0010
0100
0000
0000
0000
0011
0000
0000
0000
,
0001
1000
0001
0000
0100
0000
1010
0000
,
1000
0010
0100
0000
0001
0000
0001
0010
,
1000
0000
1000
0010
0001
0000
1001
0000
,
0001
0100
0010
0000
1000
0010
1000
0010
,
1000
0000
1001
0000
1000
0000
0100
0010
,
0100
0000
1001
0000
0001
0100
0001
0100
,
0010
1000
0010
1000
0001
0100
0010
1000
,
0010
0100
0001
0000
1000
0001
0100
0001
,
0100
0001
1000
0000
0001
1000
0100
1000
,
0100
1000
0001
0000
1000
0001
0010
0001
,
0010
0001
1000
0000
0001
1000
0010
1000
,
0010
1000
0001
0000
0001
0010
1000
0000
,
0001
0100
1000
0000
1000
0010
0001
0000
,
1000
0100
0001
0000
1000
0000
0100
0000
,
0010
0000
0001
1000
0001
0000
0100
0000
,
0010
0000
0100
0010
0100
0000
0010
0000
,
1000
0000
0001
0010
0100
0010
0100
0000
,
1000
0000
1001
0000
1000
0100
1000
0010
,
1000
0000
1000
0000
0001
0100
0001
0010
,
0001
0000
0001
0000
1000
0010
0100
0010
,
0100
0000
0100
0000
0001
0010
0100
0010
,
0100
0100
0002
0000
,
0023
0000
0230
0000
,
2300
0000
3020
0000
,
0230
0000
0302
0000
,
0003
0000
1000
0100
,
0001
0010
1000
0010
,
0001
0000
0000
0000
0100
0000
0000
0000
1001
0000
0000
0000
0010
0100
0000
0000
,
1100
0000
0011
0000
1000
0010
0001
0000
,
0010
0000
0101
0000
0001
0010
0001
0000
,
1000
0010
1000
0000
0001
0000
0101
0000
,
0100
0001
0010
0000
1000
0010
0100
0010
,
0001
0000
1001
0000
1000
0000
0001
0010
,
0100
0000
0101
0000
1000
0010
1000
0010
,
0001
0010
0001
0010
1000
0000
1001
0000
,
0100
0010
0100
0000
0000
0000
0000
0000
;

//--------------- dance-single - about-blank ----------------
#NOTES:
     dance-single:
     about-blank:
     Hard:
     13:
     0,0,0,0,0:
0000
0000
0000
0000
,
0000
0000
0000
0000
,
0000
0000
0000
0000
,
0000
0000
0000
0000
,
0000
0000
0000
0000
,
1000
0100
0010
0100
2000
0000
3010
0000
,
0100
1000
0100
0010
0000
0100
0001
0010
,
0001
0100
0010
0100
0002
0000
0013
0000
,
0100
0010
0001
0100
0000
0010
1000
0001
,
1000
0100
0010
0001
0200
0000
0310
0000
,
1000
0010
0100
0001
0000
0010
0100
1000
,
0001
0010
0001
0010
0100
1000
0100
1000
,
0010
0100
0001
1000
0010
0100
0001
0000
,
1000
0100
0000
0000
0010
0000
0000
0000
0001
1000
0000
0000
0010
0000
0000
0000
,
0100
0001
0000
0000
1000
0000
0000
0000
0001
0010
0000
0000
0100
0000
0100
0000
,
1000
0001
0000
0000
0100
0000
0000
0000
0001
1000
0000
0000
0100
0000
0000
0000
,
1000
0010
0100
0001
0010
0001
1000
0001
,
0010
0100
0000
0000
1000
0000
0000
0000
0001
0010
0000
0000
0001
0000
0000
0000
,
0001
1000
0000
0000
0100
0000
0000
0000
1000
0010
0000
0000
0100
0000
0100
0000
,
0001
0100
0000
0000
0010
0000
0000
0000
1000
0001
0000
0000
0010
0000
0010
0000
,
0100
1000
0010
0100
0001
0010
0100
1000
,
0001
0100
1000
0100
0001
0100
1000
0000
,
0110
0110
0110
0000
,
1000
0001
0000
0000
0010
0000
0000
0000
0001
1000
0000
0000
0100
0000
0000
0000
,
1000
0010
0000
0000
0010
0100
0000
0000
0100
0001
0000
0000
1001
0000
0000
0000
,
0001
0000
0010
0010
0100
0000
1000
0000
,
0001
0000
0100
0100
0010
0000
1000
0000
,
0001
0000
0010
0010
0001
0000
0100
0000
,
0010
0000
1000
1000
0100
0000
0010
0000
,
0100
0000
0000
0000
1000
0001
1000
0000
0000
0000
0000
0000
0101
0000
1000
0000
,
0001
0000
0000
0000
0010
0001
0010
0000
0000
0000
0001
0000
0010
0000
0100
0000
,
1000
0000
0000
0000
0010
0100
0010
0100
0000
0000
0000
0000
1001
0000
0000
0000
,
0001
0010
0000
0000
0010
0001
0010
0001
1000
0000
1000
0000
1000
0000
1000
0000
,
0001
0010
0000
0000
0001
0100
0000
0100
0010
0000
1000
0000
0001
0000
0100
0000
,
1000
0100
0010
0100
0001
0010
0100
1000
,
0002
0010
1003
0000
1000
0100
0010
0001
,
1000
0010
0001
0010
0100
0001
0100
0010
,
2000
0000
3001
0001
1000
0001
0100
0010
,
0001
1000
0100
0010
1000
0001
0010
0100
,
0020
1000
0031
0000
0100
1000
0001
0010
,
1000
0001
0100
0000
1000
0100
0001
1000
,
0100
0000
0010
0000
0001
0000
0000
0000
1000
0010
0000
0000
0001
0010
0000
0000
,
1000
0010
0000
0000
1000
0100
0000
0010
0001
0100
0000
0000
1000
0100
0000
0000
,
0001
0100
0000
0000
0001
0010
0000
0100
1000
0100
0000
0000
0001
0100
0000
0000
,
1000
0100
0000
0000
1000
0010
0000
0100
0001
0100
0000
0000
1000
0100
0000
0000
,
0001
0100
0000
0000
0001
0010
0000
0100
1000
0001
1000
0000
0010
0100
0000
0000
,
0001
1000
0001
0000
0010
0100
0000
0100
1000
0001
1000
0000
0100
0010
0000
0000
,
0001
1000
0001
0000
0100
0010
0000
0010
2000
0000
0000
0000
0100
0000
0000
0000
,
3002
0000
0100
0100
0023
0000
1000
0000
,
0230
0000
0010
0010
0302
0000
1000
0000
,
2003
0000
0000
0000
0100
0000
0100
0000
3001
0010
0100
1000
0100
0000
0000
0000
,
0010
0000
0000
0000
0001
0000
0001
0000
1000
0000
0000
0100
0010
0000
0000
0100
,
0010
0000
0000
0000
0010
0000
0010
0000
0001
0000
0000
0010
0001
0000
0000
0010
,
0001
0000
0000
0000
0001
0000
0001
0000
0100
0000
0000
0010
0100
0000
0000
0010
,
0100
0000
0000
0000
0100
0000
0100
0000
1000
0000
0000
0100
1000
0000
0000
0100
,
1000
0000
0100
0100
0002
0000
0000
0000
,
2003
0000
3020
0000
,
0230
0000
2300
0000
,
3002
0000
0023
0000
,
0000
0000
0000
0000
0000
0000
0000
0000
1030
0100
0000
0000
0100
0010
0000
0000
,
0010
0001
0000
0000
0001
1000
0000
0000
0001
0000
0100
0000
0010
0000
1000
0000
,
0001
0000
0010
0000
0100
0000
1000
0000
0001
0010
0001
0000
0000
1000
0000
0001
,
0100
0001
0010
0001
1000
0100
0010
0100
,
1000
0001
0100
0010
1000
0100
0010
0001
,
0100
0010
0100
0010
0100
0010
0100
0010
1000
0000
0001
0000
0010
0000
0001
0000
,
0000
0000
0100
0000
0001
0000
0010
0000
0100
1000
0001
0000
0000
0100
0000
0010
,
1000
0001
0010
0100
1000
0010
0001
0010
,
1000
0000
0100
0000
0001
0000
0100
0000
1000
0010
1000
0010
1000
0010
1000
0010
,
0100
0001
0100
0001
0100
0001
0100
0001
1000
0001
0000
0100
0001
1000
0000
0010
,
1000
0001
0000
1000
0100
0010
0001
0000
0000
0000
0000
0000
0000
0000
0000
0000
;
