#TITLE:Nah Dee;
#SUBTITLE:;
#ARTIST:Big Idea;
#TITLETRANSLIT:;
#SUBTITLETRANSLIT:;
#ARTISTTRANSLIT:;
#GENRE:;
#CREDIT:;
#MUSIC:Nah Dee.mp3;
#BANNER:;
#BACKGROUND:;
#CDTITLE:;
#SAMPLESTART:68.643;
#SAMPLELENGTH:14.436;
#SELECTABLE:YES;
#OFFSET:-0.072;
#BPMS:0.000=133.000;
#STOPS:;
#BGCHANGES:;
#FGCHANGES:;

//--------------- dance-single - MEGAtive ----------------
#NOTES:
     dance-single:
     MEGAtive:
     Beginner:
     2:
     0,0,0,0,0:
0000
0000
0000
0000
,
0000
0000
0000
0000
,
0000
0000
0000
0000
,
0000
0000
0000
0000
,
1000
0000
0000
0000
,
0100
0000
0000
0000
,
0010
0000
0000
0000
,
0001
0000
0000
0000
,
1000
0000
0000
0000
,
0010
0000
0000
0000
,
0100
0000
0000
0000
,
0001
0000
0000
0000
,
2000
0000
3000
0000
,
0020
0000
0030
0000
,
0200
0000
0300
0000
,
0002
0000
0003
0000
,
0020
0000
0030
0000
,
0200
0000
0300
0000
,
2000
0000
3200
0000
,
0320
0000
0030
0000
,
0002
0000
0000
0203
,
0320
0030
0000
0000
,
2000
0000
3020
0000
,
0230
0000
0300
0000
,
0002
0000
0000
0023
,
0230
0000
0300
0000
,
1000
0000
0000
0000
,
0001
0000
0000
0000
,
0100
0000
0000
0000
,
0010
0000
0000
0000
,
1000
0000
0000
0000
,
0100
0000
0000
0000
,
0010
0000
0000
0000
,
0001
0000
0000
0000
,
1000
0000
0000
1000
,
0010
0000
0000
0010
,
0100
0000
0000
0100
,
0001
0000
0000
0001
,
0020
0000
0230
0000
,
0320
0000
0000
0000
,
0032
0000
0000
2003
,
3020
0000
0030
0000
,
0200
0000
0320
0000
,
0230
0000
0000
0000
,
0302
0000
0000
0023
,
0230
0000
0300
0000
,
1000
0000
1000
0000
,
0010
0000
0010
0000
,
0100
0000
0100
0000
,
0001
0000
0001
2000
,
3000
0000
0000
0000
;

//--------------- dance-single - MEGAtive ----------------
#NOTES:
     dance-single:
     MEGAtive:
     Easy:
     6:
     0,0,0,0,0:
0000
0000
0000
0000
,
0000
0000
0000
0000
,
0000
0000
0000
0000
,
0000
0000
0000
0000
,
0001
0001
0001
0001
,
0001
0100
0010
1000
,
0001
0001
0001
0001
,
0001
0010
0100
1000
,
0001
0001
0001
0001
,
0001
0100
0010
1000
,
0001
0001
0001
0001
,
0001
0010
0100
1000
,
0002
0000
0103
0000
,
0020
0000
1030
0000
,
0200
0000
0310
0000
,
0002
0000
1003
0000
,
0200
0000
0310
0000
,
2000
0000
3100
0000
,
0010
0001
0010
1000
,
0010
0001
0100
0010
,
0100
1000
0100
0001
,
0100
0010
1000
0100
,
0010
0001
0010
1000
,
0010
0001
0100
0010
,
0100
1000
0100
0001
,
0010
0100
1000
0010
,
0200
0000
0301
0000
,
0020
0000
0130
0000
,
2000
0000
3001
0000
,
0100
0100
0000
0010
,
2000
0000
3100
0000
,
0002
0000
0103
0000
,
2000
0000
3010
0000
,
0100
0100
0000
0001
,
0001
0010
0100
0010
,
0001
0100
0010
0100
,
0001
0010
0100
1000
,
0001
0100
0010
1000
,
0100
0001
0100
1000
,
0100
0001
0100
1000
,
0010
0001
0010
1000
,
0010
0001
0010
1000
,
0100
0001
0100
1000
,
0100
0001
0100
1000
,
0010
0001
0010
1000
,
0010
0001
0010
1000
,
0002
0010
0023
0100
,
0230
1000
2300
0000
,
3020
0100
0230
0001
,
0302
0000
1000
0000
2003
0000
0002
3003
;

//--------------- dance-single - MEGAtive ----------------
#NOTES:
     dance-single:
     MEGAtive:
     Medium:
     10:
     0,0,0,0,0:
0000
0000
0000
0000
,
0000
0000
0000
0000
,
0000
0000
0000
0000
,
0000
0000
0000
0000
,
0001
0001
0001
0001
,
0001
0100
0000
0100
0001
1000
0100
0000
,
1000
1000
1000
1000
,
1000
0100
0000
0100
1000
0001
0100
0000
,
0001
0001
0001
0001
,
0001
0010
0000
0010
0001
1000
0010
0000
,
1000
1000
1000
1000
,
1000
0010
0000
0010
1000
0001
0010
0000
,
0001
0000
0000
0010
0000
0001
0000
0000
1000
0000
0000
0010
0000
1000
0000
0000
,
0001
0000
0000
0100
0000
0001
0000
0000
1000
0000
0000
0100
0000
1000
0000
0000
,
0001
0000
0000
0010
0000
0100
0000
0000
1000
0000
0000
0010
0000
0100
0000
0000
,
0001
0000
0000
0100
0000
0010
0000
0000
1000
0000
0000
0100
0000
0010
0000
0000
,
0001
0000
0000
0010
0000
0001
0000
0000
1000
0000
0000
0010
0000
1000
0000
0000
,
0001
0000
0000
0100
0000
0010
0000
0000
1000
0000
0000
0100
0000
0010
0000
0000
,
0001
0010
0100
0010
0001
0010
0100
1000
,
0001
1000
0010
0000
0100
0000
0001
0000
,
1000
0100
0010
0100
1000
0100
0010
0001
,
1000
0010
0100
0000
0001
0000
0010
0000
,
0001
0100
0010
0100
0001
0100
0010
1000
,
0001
1000
0100
0000
0010
0000
0001
0000
,
1000
0010
0100
0010
1000
0010
0100
0001
,
1000
0100
0010
0000
0100
0000
1000
0000
,
0002
0000
0103
0010
,
2000
0000
3100
0010
,
0002
0000
0103
0010
,
1000
0000
0100
0000
0010
0000
0000
0100
0000
1000
0000
0000
0001
0000
0000
0000
,
2000
0000
3010
0100
,
0002
0000
0013
0100
,
2000
0000
3010
0100
,
0001
0000
0010
0000
0100
0000
0000
0010
0000
0001
0000
0000
1000
0000
0000
0000
,
0001
0000
0000
0100
0000
0000
0010
0000
0000
0000
1000
0000
0001
0000
0000
0000
,
1000
0000
0000
0100
0000
0000
0010
0000
0000
0000
0001
0000
1000
0000
0000
0000
,
0001
0000
0000
0100
0000
0000
0010
0000
0000
0000
0100
0000
0001
0000
0000
0000
,
0010
0000
0100
0000
1000
0000
0000
0001
0000
0100
0000
0000
0010
0000
0000
0000
,
1000
0100
0010
0001
0100
0010
1000
0001
,
0010
0100
0000
0100
0010
0001
1000
0001
,
1000
0010
0100
0001
0010
0100
1000
0001
,
0100
0010
0000
0010
0100
0010
1000
0001
,
1000
0100
0010
0001
0100
0010
1000
0001
,
0010
0100
0000
0100
0010
0100
1000
0001
,
1000
0010
0100
0001
0010
0100
1000
0001
,
0100
0010
0000
0010
0100
0001
1000
0001
,
0020
0130
2000
3010
,
0200
0301
0020
0130
,
2000
3001
0200
0310
,
2000
0000
3001
0000
0020
0000
0200
0330
;

//--------------- dance-single - MEGAtive ----------------
#NOTES:
     dance-single:
     MEGAtive:
     Hard:
     13:
     0,0,0,0,0:
0000
0000
0000
0000
,
0000
0000
0000
0000
,
0000
0000
0000
0000
,
0000
0000
0000
0000
,
1000
1000
1000
1000
,
1000
0010
0100
0010
0001
1000
0100
0010
,
1000
1000
1000
1000
,
1000
0100
0010
0100
0001
1000
0010
0100
,
1000
1000
1000
1000
,
0001
0100
0010
0100
1000
0001
0010
0100
,
0001
0001
0001
0001
,
0001
0010
0100
0010
1000
0001
0100
0010
,
0002
0000
0000
0010
0000
0000
0010
0000
0010
0000
0000
0010
0000
0000
0010
0000
,
2003
0000
0000
0010
0000
0000
0010
0000
0010
0000
0000
0010
0000
0000
0010
0000
,
3002
0000
0000
0100
0000
0000
0100
0000
0100
0000
0000
0100
0000
0000
0100
0000
,
2003
0000
0000
0100
0000
0000
0100
0000
0100
0000
0000
0100
0000
0000
0100
0000
,
3001
0000
0100
0010
0000
0100
0010
0000
1000
0000
0001
0000
0010
0000
0000
0000
,
0100
0000
0010
0100
0000
0010
0100
0000
1000
0000
0001
0000
0100
0000
0010
0000
,
1000
0010
0001
0010
1000
0010
0001
1000
,
0100
0001
1000
0001
0010
0100
0010
0001
,
1000
0100
0001
0100
1000
0100
0001
1000
,
0010
0001
1000
0001
0100
0010
0100
0001
,
1000
0010
0001
0010
1000
0010
0001
1000
,
0100
0001
1000
0001
0010
0100
0010
0001
,
1000
0100
0001
0100
1000
0100
0001
1000
,
0010
0001
1000
0001
0100
0010
0100
0001
,
2000
0000
0000
0100
0000
0100
0000
0000
0001
0000
0000
0000
3010
0000
0100
0000
,
0002
0000
0000
0100
0000
0100
0000
0000
1000
0000
0000
0000
0013
0000
0100
0000
,
2000
0000
0000
0010
0000
0010
0000
0000
0001
0000
0000
0000
3100
0000
0010
0000
,
0002
0000
0100
0000
0203
0000
0000
0010
0000
1000
0000
0000
0310
0000
1000
0000
,
0002
0000
0000
0010
0000
0010
0000
0000
1000
0000
0000
0000
0103
0000
0010
0000
,
2000
0000
0000
0010
0000
0010
0000
0000
0001
0000
0000
0000
3100
0000
0010
0000
,
0002
0000
0000
0100
0000
0100
0000
0000
1000
0000
0000
0000
0013
0000
0100
0000
,
2000
0000
0010
0000
3020
0000
0000
0100
0000
0001
0000
0000
0130
0000
0001
0000
,
1000
0100
0000
1000
0100
0000
1000
0100
0000
0000
1000
0001
0100
0000
0010
0000
,
0100
0001
0000
0100
0001
0000
0100
0001
0000
0000
0100
0001
1000
0000
0100
0000
,
0010
0001
0000
0010
0001
0000
0010
0001
0000
0000
0010
0001
1000
0000
0010
0000
,
0200
0000
0010
0000
0310
0000
1000
0100
0000
0010
0100
0000
1000
0000
1000
0000
,
0001
0100
1000
0100
0001
0100
1000
0001
,
0010
1000
0001
0010
0001
1000
0100
1000
,
0001
0010
1000
0010
0001
0010
1000
0001
,
0100
1000
0001
0100
0001
1000
0010
0100
,
0001
1000
0010
0001
0010
1000
0010
0001
,
1000
0100
0001
1000
0100
0010
0100
1000
,
0001
1000
0100
0001
0100
1000
0100
0001
,
1000
0000
0010
0000
0100
0000
1000
0001
0000
0100
0010
0000
1000
0000
0001
0000
,
2000
0100
3100
0000
0010
0100
1000
0001
,
0200
0010
0310
0000
0100
0001
1000
0000
,
0200
0010
0310
0000
0100
1000
0001
0100
,
0020
1000
1030
0000
0010
0100
0002
0000
,
0003
0000
0000
0000
;

//--------------- dance-single - aboutblank ----------------
#NOTES:
     dance-single:
     aboutblank:
     Challenge:
     15:
     0,0,0,0,0:
0000
0000
0000
0000
,
0000
0000
0000
0000
,
0000
0000
0000
0000
,
0000
0000
0000
0000
,
0001
0100
1000
0100
0001
0100
1000
0100
,
0001
0000
0010
0000
0100
0000
0010
0000
0001
0000
1000
0001
1000
0100
0000
0100
,
0010
0001
0100
0001
0010
0001
0100
0001
,
1000
0000
0010
0000
0100
0000
0010
0000
1000
0000
0001
1000
0010
0100
0000
0100
,
0001
0000
1000
0001
1000
0000
0100
0000
0010
0000
0010
0000
0001
0000
0010
0000
,
0100
0000
1000
0001
1000
0000
0010
0000
0100
0000
0100
0000
0001
0010
0000
0010
,
0200
0000
0000
0000
1300
0000
0001
0010
1000
0000
0001
0000
0100
0000
0010
0000
,
0001
0000
0100
0001
0010
0000
0010
0000
0100
0000
1000
0000
0100
0001
0000
0001
,
2000
0010
3002
0100
,
2003
0000
0100
0000
3002
0010
0013
0000
,
1000
0000
0100
0000
0010
0001
0000
0010
0001
0000
0100
0000
0010
1000
0000
0010
,
1000
0000
0100
0000
0010
0001
0000
0100
0001
0000
1000
0000
1000
0000
0000
0000
,
0010
0000
0100
0000
0001
0010
0000
0010
0100
0000
1000
0000
0010
0100
0000
0001
,
1000
0000
0100
0000
0010
0000
0001
0000
0100
0000
0010
0000
0000
0000
1000
0000
0100
0000
1000
0000
0010
0000
0100
0000
0001
0000
1000
0100
0010
0000
0001
0000
,
1000
0010
0000
0110
0000
0000
0100
0000
0100
0000
0001
0000
0010
0100
0000
0100
,
1000
0001
0000
1001
0000
0000
0001
0000
1000
0000
0010
0100
0001
1000
0000
0100
,
0010
0001
0000
0011
0000
0000
0001
0000
1000
0000
0010
0000
0100
1000
0000
0100
,
0001
0010
0000
0110
0000
0000
0100
0000
1000
0000
0100
0000
0100
0010
0000
0001
,
0010
0100
0000
1100
0000
0000
0001
0000
1000
0000
0001
0000
0010
0100
0000
0100
,
1000
0001
0000
1001
0000
0000
1000
0000
0100
0000
0010
0000
0001
0100
0000
0010
,
1000
0100
0000
0110
0000
0000
0010
0000
0001
0000
1000
0000
0010
0100
0000
0001
,
0010
0001
0000
1001
0000
1000
0010
0000
0100
0000
1000
0000
0001
0010
0000
0010
,
2000
0000
0000
0100
0000
0100
0000
3100
1000
0000
0001
0010
1000
0000
0010
0000
,
0002
0000
0000
0100
0000
0100
0000
0103
0001
0000
1000
0010
0100
0000
0010
1000
,
0020
0000
0000
1000
0000
1000
0000
1030
0010
0000
0100
0001
0100
0000
0001
0010
,
0200
0000
0000
0010
0000
0010
0000
0310
0001
0000
1000
0010
0100
0000
0001
0000
,
1000
0000
0100
0010
0000
0010
0000
0001
1000
0000
0001
0010
0100
0000
1000
0001
,
1000
0000
0000
0010
0000
0010
0000
0100
0001
0000
1000
0000
0010
0100
1000
0100
,
0010
0000
0000
1000
0000
1000
0000
0001
0100
0000
0010
1000
0100
0000
0001
0100
,
1000
0000
0000
0010
0000
0010
0000
0100
0010
1000
0010
0100
0001
1000
0100
0010
,
0002
0000
0000
0100
0000
0000
0103
0000
0001
0000
0010
0000
0100
0000
0000
0000
,
2000
0000
0000
0010
0000
0000
3010
0000
1000
0000
0001
0000
1000
0100
1000
0000
,
0002
0000
0000
0003
0000
1000
0010
0000
0000
1100
0000
0000
0101
0000
0000
0000
0000
0000
0000
0000
0000
0000
0000
0000
,
0000
0000
0000
0000
0001
0000
0010
0000
0000
0000
0000
0000
0100
0000
0000
0000
1000
0000
0001
0000
0000
0000
1000
0000
0010
0000
0000
0000
0000
0000
0100
0000
0000
0000
0000
0000
0001
0000
0000
1000
0000
0000
0001
0000
0000
1000
0000
0000
,
0020
0000
0000
0000
0031
0000
1000
0100
0020
0000
0000
0000
1030
0000
0001
1000
,
0020
0000
0000
0000
0000
0000
0000
0000
0130
0000
0000
0000
1000
0000
0100
0000
0010
0000
0000
0000
0100
0000
0000
0000
0001
0000
0000
0000
1000
0000
0010
0100
,
0010
0000
1000
0000
0000
0000
0001
0000
0000
0000
0100
0000
0001
0000
0000
0000
0010
0000
0000
0000
0001
0000
0010
0000
0100
0000
1000
0000
0000
0000
0100
0010
,
0100
1000
0000
0010
0000
0100
0001
0000
1000
0000
0001
0100
0010
1000
0100
0010
,
2000
0000
0000
0000
3010
0000
0001
0010
2000
0000
0000
0000
3010
0000
0001
0100
,
2000
0000
0000
0000
0000
0000
0000
0000
3001
0000
0000
0000
0010
0000
0100
0000
1000
0000
0000
0000
0100
0000
0000
0000
0001
0000
0000
0000
0010
0000
0001
1000
,
0001
0000
0100
0000
0000
0000
0010
0000
0000
0000
1000
0000
0001
0000
0000
0000
0100
0000
0000
0000
0001
0000
0010
0000
0100
0000
1000
0000
0000
0000
0010
0100
,
0001
1000
0000
1000
0000
0100
0010
0000
0001
0000
0100
0001
1000
0100
0010
0001
,
2000
0000
0000
0000
3010
0000
0001
0010
0200
0000
0000
0000
0301
0000
1000
0100
,
0020
0000
0000
0000
0031
0000
1000
0100
0001
0000
0100
0000
0010
0000
0001
0100
,
0020
0000
0000
0000
1030
0000
0001
0010
0200
0000
0000
0000
1300
0000
0001
0100
,
2000
0000
0000
0000
3100
0000
0001
0010
0001
0000
1000
0000
0010
0000
0100
0000
;
