#TITLE:NORTH;
#SUBTITLE:;
#ARTIST:WALL5;
#TITLETRANSLIT:;
#SUBTITLETRANSLIT:;
#ARTISTTRANSLIT:;
#GENRE:;
#CREDIT:;
#MUSIC:NORTH.mp3;
#BANNER:;
#BACKGROUND:;
#CDTITLE:;
#SAMPLESTART:14.260;
#SAMPLELENGTH:13.913;
#SELECTABLE:YES;
#OFFSET:-0.370;
#BPMS:0.000=138.000;
#STOPS:64.000=1.304;
#BGCHANGES:;
#FGCHANGES:;

//--------------- dance-single - eataninja ----------------
#NOTES:
     dance-single:
     eataninja:
     Beginner:
     3:
     0,0,0,0,0:
0000
0000
0000
0000
,
0000
0000
0000
0000
,
0000
0000
0000
0000
,
0000
0000
0000
0000
,
1000
0000
0001
0000
,
0010
0000
0100
0000
,
1000
0000
0001
0000
,
0100
0100
0100
0000
,
0020
0000
0030
0000
,
0200
0000
0300
0000
,
0001
0000
0010
0000
,
0200
0000
0300
0000
,
2000
0000
3000
0000
,
0002
0000
0003
0000
,
0100
0000
0010
0000
,
2000
0000
3000
0000
,
1001
1000
0000
0100
,
0000
0001
0000
0100
,
0000
0010
0000
0010
,
0000
0001
0000
0001
,
0000
1000
0000
0010
,
0000
0001
0000
0010
,
0000
0100
0000
0100
,
0000
0002
0000
0003
,
0000
1001
0000
1001
,
0000
1000
0001
1000
,
0000
0010
0000
0100
,
0000
0010
0000
1000
,
0000
1001
0000
1001
,
0000
0001
1000
0001
,
0000
1000
0000
0010
,
0000
0001
0000
0010
,
0000
0100
0100
0100
,
0000
0001
0001
0001
,
0000
1000
1000
1000
,
0000
0100
0100
0100
,
0000
0010
0100
0010
,
0000
0001
1000
0001
,
0000
0100
0010
0100
,
0000
0001
1000
0001
,
0000
2002
0000
3003
,
0000
0100
0000
0010
,
0000
0001
0000
0100
,
0000
0020
0000
0030
,
0000
1000
0000
1000
,
0000
0100
0000
0010
,
0000
0001
0000
0001
,
0000
0200
0000
0300
,
0000
0010
0010
0100
,
0000
0100
0100
0010
,
0000
1000
0000
0001
,
0000
0010
0000
0010
,
0000
0001
0001
1000
,
0000
1000
1000
0001
,
0000
0100
0000
0010
,
0000
1000
0000
1000
,
0000
1001
0000
0000
;

//--------------- dance-single - eataninja ----------------
#NOTES:
     dance-single:
     eataninja:
     Easy:
     5:
     0,0,0,0,0:
0000
0000
0000
0000
,
0000
0000
0000
0000
,
0000
0000
0000
0000
,
0000
0000
0000
0000
,
1000
0001
0100
0010
,
0001
0010
2000
3000
,
0001
0010
0100
0001
,
0100
1000
0001
0110
,
1000
0000
0010
0000
,
0001
0000
0010
0000
,
0100
0000
0001
0000
,
1000
0000
1000
0000
,
0001
0000
0010
0000
,
1000
0000
0010
0000
,
0100
0000
1000
0000
,
0001
0000
0001
0000
,
1001
0010
0010
0100
,
0100
0001
0001
0100
,
0100
0010
0010
1000
,
1000
0001
0001
0001
,
0001
0010
0010
0001
,
0001
0100
0100
0001
,
0001
0010
0010
0100
,
0100
1000
1000
1000
,
0000
0020
0130
0020
,
0130
0001
0010
0200
,
0300
2000
3001
0200
,
0301
0010
0100
2000
,
3000
0002
0103
0002
,
0103
0010
1000
0002
,
0003
0020
0130
2000
,
3001
0100
0100
0020
,
0030
1000
0001
1000
,
1000
0001
1000
0001
,
0001
0100
0010
1000
,
0100
0010
0001
0100
,
0010
1000
0001
1000
,
1000
0001
1000
0001
,
0001
0100
0010
1000
,
0100
0010
0001
0100
,
0010
2001
0000
0001
,
0000
0100
0000
0001
,
0000
0010
0000
0010
,
0000
0001
0000
3001
,
0000
0200
0310
1000
,
0000
0200
0310
0100
,
0000
0001
0001
0100
,
0100
2000
0000
0000
,
3000
0001
0001
0100
,
0100
1000
1000
0100
,
0100
0010
0010
1000
,
1000
0100
0100
0100
,
0100
1000
1000
0010
,
0010
0001
0001
0010
,
0010
0100
0100
0001
,
0001
1000
1000
1000
,
1000
0110
0000
0000
;

//--------------- dance-single - eataninja ----------------
#NOTES:
     dance-single:
     eataninja:
     Medium:
     8:
     0,0,0,0,0:
0000
0000
0000
0000
,
0000
0000
0000
0000
,
0000
0000
0000
0000
,
0000
0000
0000
0000
,
2000
0000
3002
0000
0103
0010
1000
0000
,
1000
0100
0001
0100
2000
0000
3000
0000
,
0002
0000
0203
0000
0301
0010
1000
0000
,
0010
0100
1000
0001
0100
0000
1001
0000
,
0010
0010
0100
0100
,
0001
0001
0010
0010
,
0100
0100
0001
0001
,
0100
0100
1000
1000
,
0001
0100
0001
0000
1000
0100
1000
0000
,
0001
0010
0001
0000
1000
0010
1000
0000
,
0010
0100
0010
0000
1000
0001
1000
0000
,
0001
0010
0001
0000
1000
0100
1000
0000
,
1001
0000
1000
0000
0010
0000
0100
0001
,
1000
0000
0010
0000
0010
0000
0100
0001
,
1000
0000
0001
0010
0100
0000
0010
0001
,
0100
0000
0010
1000
0001
0000
0001
1000
,
0010
0000
1000
0000
0100
0000
0010
0001
,
1000
0000
0100
0000
0100
0000
1000
0001
,
0010
0000
0001
1000
0010
0000
0100
0010
,
1000
0000
0001
1000
0001
1000
0100
0000
,
0000
0020
1030
0020
,
0130
0000
0010
0001
1000
0001
0010
0000
,
0000
0200
0310
0200
,
0301
0000
0100
0000
0010
0001
2000
0000
,
3000
0002
0103
0002
,
1003
0000
0100
0001
0100
1000
0001
0000
,
0000
2000
3001
2000
,
3010
0000
0100
0000
1000
0010
0002
0000
,
0003
0000
1000
0100
1000
1000
0001
0100
,
0010
0000
0100
0100
0001
1000
0001
0010
,
0100
0000
0001
0100
1000
0000
1000
0010
,
0001
0000
0010
0100
0001
0001
1000
0100
,
0010
0001
1000
0000
0001
0001
0010
0100
,
1000
0000
1000
0010
0001
0010
1000
0010
,
0100
0000
1000
0100
0001
0000
0010
0100
,
1000
0000
0001
0100
0001
0001
1000
0100
,
0010
0001
0001
0100
,
0100
1000
1000
0010
,
0010
0001
0001
0100
,
0100
0010
0010
0010
,
0010
0000
1000
0010
1000
0000
0010
0001
,
0010
0000
0001
0100
0001
0000
0100
1000
,
0100
0000
1000
0010
1000
0000
0001
0010
,
0001
0200
0000
0000
,
0300
0000
0010
0000
0100
0001
1000
0100
,
0010
0000
0100
0000
1000
0001
1000
0010
,
0100
0000
0001
0100
1000
0000
1000
0100
,
0001
0000
1000
0100
0001
0000
0001
0100
,
1000
0000
0001
0000
1000
0010
1000
0001
,
0100
0000
0010
0000
1000
0001
0010
0100
,
1000
0000
0001
0010
1000
0000
1000
0010
,
0001
0000
1000
0010
0001
0000
0001
0010
,
1000
1001
0000
0000
;

//--------------- dance-single - eataninja ----------------
#NOTES:
     dance-single:
     eataninja:
     Hard:
     12:
     0,0,0,0,0:
0000
0000
0000
0000
,
0000
0000
0000
0000
,
0000
0000
0000
0000
,
0000
0000
0000
0000
,
1000
0000
0000
0000
0001
0000
0000
0001
0010
0000
0100
0000
1000
0000
0000
0000
,
0010
1000
0100
0010
0002
0000
0003
0000
,
1000
0000
0000
0000
0010
0000
0000
0010
0100
0000
0001
0000
0010
0000
0000
0000
,
0100
0001
0100
1000
0001
0000
0101
0000
,
1000
0000
0000
1000
0000
0000
1000
0000
0010
0000
0000
0010
0000
0000
0010
0000
,
0100
0000
0000
0100
0000
0000
0100
0000
0001
0000
0000
0001
0000
0000
0001
0000
,
0010
0000
0000
0010
0000
0000
0010
0000
0100
0000
0000
0100
0000
0000
0100
0000
,
1000
0000
0000
0001
0000
0000
0001
0000
1000
0000
0000
0001
0000
0000
0001
0000
,
0100
0000
0000
0100
0000
0000
0100
0000
0010
0000
0000
0010
0000
0000
0010
0000
,
1000
0000
0000
1000
0000
0000
1000
0000
0001
0000
0000
0001
0000
0000
0001
0000
,
0010
0000
0000
0010
0000
0000
0010
0000
0100
0000
0000
0100
0000
0000
0100
0000
,
1000
0000
0000
0001
0000
0000
0001
0000
1000
0000
0000
0001
0000
0000
0001
0000
,
0110
0000
0000
0000
1000
0000
0001
0000
0100
0001
0000
0000
1000
0000
0001
0000
,
0010
0100
0000
0100
1000
0000
0001
0000
0010
0001
0000
0000
1000
0000
0001
0000
,
0010
0001
0000
0001
1000
0000
0010
0100
0000
0000
0100
0000
0001
0000
1000
0100
,
0000
0000
0100
0000
0010
0000
0001
1000
0000
0001
1000
0000
0100
0000
1000
0001
,
0000
1000
0001
0000
1000
0000
0010
0000
0100
0010
0000
0000
1000
0000
0010
0000
,
0100
0001
0000
0001
1000
0000
0100
0000
0010
0100
0000
0000
1000
0000
0100
0000
,
0010
0001
0000
0001
1000
0000
0010
0100
0000
0000
0100
0000
0001
0000
1000
0010
,
0000
0000
0010
0000
0100
0000
0001
1000
0000
0001
1000
0000
0010
0000
1000
0000
,
0100
0010
0002
0003
0100
0010
0002
0003
,
0100
0000
0010
0000
0001
0000
1000
0010
0100
0000
0001
0000
1000
0000
0000
0000
,
0010
0100
0001
0000
0001
1000
0100
0000
,
0001
0100
1000
0000
0010
0100
0002
0000
,
0013
0100
2000
3000
0010
0100
2000
3000
,
0010
0000
0100
0000
1000
0000
0001
0100
0010
0000
1000
0000
0001
0000
0000
0000
,
1000
0001
0010
0000
0010
0100
1000
0000
,
0001
0100
1000
0000
1000
0010
0002
0000
,
0103
0000
0000
0000
0010
0000
1000
0000
0100
0000
0010
0001
0010
0001
1000
0000
,
0010
0000
0100
0000
0001
0000
0001
0000
1000
0100
1000
0100
0010
0000
0001
0000
,
0100
0000
0010
1000
0001
0000
0010
0000
1000
0000
0010
0000
0001
0000
0001
0000
,
1000
0000
0010
0100
0010
0000
1000
0010
1000
0000
0001
1000
0001
0000
0010
0000
,
0100
0000
1000
0001
0100
0000
1000
0000
0100
0010
0100
0010
1000
0000
0001
0000
,
0010
0000
0100
0000
1000
0000
0010
0001
0000
0010
1000
0000
0100
0010
0000
0001
,
0100
0000
0010
0000
0001
0000
0010
0100
0010
0000
1000
0001
1000
0000
0100
0000
,
0001
0000
0100
0000
1000
0000
0001
0000
1000
0100
1000
0000
0010
0000
0100
0000
,
0001
0000
1000
0000
0100
0000
0000
0100
0000
0000
0100
0000
0010
0000
0000
0010
,
0000
0000
0010
0000
0001
0000
0000
0001
0000
0000
0001
0000
1000
0000
0000
1000
,
0000
0000
1000
0000
0010
0000
0000
0010
0000
0000
0010
0000
0100
0000
0000
0100
,
0000
0000
0100
0000
0001
0000
0000
1000
0000
0000
1000
0000
0001
0000
0000
1000
,
0000
0000
1000
0000
0001
0000
0000
0001
0010
0000
0000
0010
0100
0000
0000
0100
,
1000
0000
0000
1000
0001
0000
0000
0001
0100
0000
0000
0100
0010
0000
0000
0010
,
0001
0000
0000
0001
0010
0000
0000
0010
1000
0000
0000
1000
0001
0000
0000
0001
,
0010
0000
0000
0010
0200
0000
0000
0000
0302
0000
0000
0000
0023
0000
0000
0000
,
2030
0000
0000
0000
3001
0000
0100
0001
0000
0100
0001
0000
0010
0000
0100
1000
,
0000
0100
1000
0000
0001
0000
0100
0010
0000
0100
0010
0000
1000
0000
0001
0100
,
0000
0001
0100
0000
1000
0000
0100
0010
0000
0100
0010
0000
1000
0000
0001
0010
,
0000
0001
0010
0000
1000
0000
0010
0100
0000
0010
0100
0000
1000
0000
0010
0100
,
0000
0010
0100
0000
0001
0000
1000
0100
0000
0010
0001
0000
1000
0000
0001
0100
,
0000
0010
1000
0000
0001
0000
0010
0100
0000
0010
0001
0000
1000
0000
0010
0100
,
0000
0010
1000
0000
0001
0000
0100
1000
0000
0100
0001
0000
1000
0000
0100
0001
,
0000
0100
1000
0000
0010
0000
0100
0001
0000
0100
0001
0000
0010
0000
0100
1000
,
0000
0100
1000
0000
1001
0000
0000
0000
0000
0000
0000
0000
0000
0000
0000
0000
;

//--------------- dance-single - forcednature ----------------
#NOTES:
     dance-single:
     forcednature:
     Challenge:
     13:
     0,0,0,0,0:
0000
0000
0000
0000
,
0000
0000
0000
0000
,
0000
0000
0000
0000
,
0000
0000
0000
0000
,
0001
0000
0000
0000
0100
0000
0000
0010
1000
0000
0001
0000
1000
0000
0000
0000
,
0100
0001
0100
1000
0200
0000
0000
0000
,
0310
0000
0000
0000
0001
0000
0000
1000
0001
0000
0100
0000
0010
0000
0000
0000
,
1000
0001
0100
1000
0100
0000
1001
0000
,
0002
0100
1000
0010
,
0203
1000
0010
0001
,
0320
1000
0100
0001
,
2030
0100
0001
0010
,
3001
0000
0000
0100
0000
0000
0001
0000
1000
0000
0000
0100
0000
0000
1000
0000
,
0010
0000
0000
0001
0000
0000
0010
0000
0100
0000
0000
1000
0000
0000
0100
0000
,
0001
0000
0000
1000
0000
0000
0100
0000
1000
0000
0000
0001
0000
0000
0100
0000
,
1000
0000
0000
0100
0000
0000
0001
0000
0010
0000
0000
0100
0000
0000
1000
0000
,
1001
0000
0000
0000
0001
0100
0000
0100
0000
0010
1000
0000
0100
0010
0000
0010
,
0000
0001
1000
0000
0100
1000
0000
1000
0000
0010
0100
0000
0001
0010
0000
0010
,
0000
0001
0100
0000
0010
1000
0000
1000
0000
0100
0010
0000
0001
0100
0000
0100
,
0000
0001
1000
0000
0100
0010
0000
0010
0000
0001
1000
0000
0010
0100
0000
0100
,
0000
0010
1000
0000
0001
0000
0000
0100
0001
0000
0010
0000
0110
0000
0000
0100
,
1000
0000
0001
0000
1001
0000
0000
1000
0010
0000
0100
0000
0110
0000
0000
0100
,
0001
0000
0010
0000
1001
0000
0000
0001
1000
0000
0010
0000
1001
0000
0000
1000
,
0100
0000
0010
0000
0011
0000
0000
0001
0000
0000
1000
0000
0010
0000
0000
0000
,
0100
0001
0020
0000
0130
1000
0020
0000
,
0130
0000
0001
0000
0010
0000
0100
1000
0001
0000
0100
0000
0020
0000
0000
0000
,
0031
0010
2000
0000
3001
0100
2000
0000
,
3100
0010
2000
0000
3100
0010
0002
0000
,
1003
0100
0002
0000
1003
0010
0002
0000
,
1003
0000
0010
0000
0100
0000
0001
0010
0100
0000
1000
0000
0002
0000
0000
0000
,
0103
1000
0200
0000
0310
1000
0200
0000
,
0310
0001
2000
0000
3010
0100
0002
0000
,
0000
0000
0000
0000
1003
0100
0010
0000
0001
0000
0000
0001
0000
0001
0000
0000
,
0001
0000
0000
0000
0100
0000
0100
0000
0001
1000
0001
0000
1000
0010
0000
0000
,
1000
0000
0100
0000
0010
0001
0000
0000
0100
0000
0000
0000
0010
0000
0010
0000
,
0010
0000
0010
0000
1000
0000
0001
0100
0001
0010
0000
0000
0100
1000
0001
0100
,
0010
0000
1000
0000
0100
0000
0100
0000
1000
0000
0000
1000
0000
1000
0010
0000
,
0000
0000
0100
0001
0010
0000
0000
0110
0000
0000
1100
0000
0000
0101
0000
0010
,
0010
0000
0000
0000
1000
0000
1000
0001
1000
0000
1000
0001
1000
0000
0100
0000
,
0010
0000
0000
0000
0001
1000
0010
0000
0100
0000
0001
1000
0100
0000
0010
0000
,
0000
0000
0100
0000
1001
0000
0000
0001
0000
0000
0100
0000
0010
0000
0000
0001
,
0000
0000
0010
0000
1000
0000
0000
0100
0000
0000
0010
0000
0100
0000
0000
0001
,
0000
0000
0100
0000
1000
0000
0000
0001
0000
0000
0010
0000
0001
0000
0000
0100
,
0000
0000
1000
0000
0001
0000
0000
0010
0000
0000
1000
0000
0100
0000
0000
0010
,
0000
0001
1000
0100
0001
0100
0010
0001
,
0100
0010
0001
1000
0100
0010
1000
0001
,
0010
1000
0001
0100
1000
0100
0010
0001
,
1000
0010
0200
0000
0000
0000
0000
0000
,
0300
0000
0000
0000
0001
1000
0000
0010
0000
1000
0100
0000
0010
0001
0000
1000
,
0000
0001
0100
0000
0010
1000
0000
0001
0000
1000
0100
0000
0010
0100
0000
1000
,
0000
0001
0100
0000
0010
1000
0000
0001
0000
0010
0001
0000
0100
0010
0000
0100
,
0000
0001
0010
0000
0100
1000
0000
0001
0000
1000
0010
0000
1000
0100
0000
0010
,
0000
0001
1000
0000
0100
0000
0000
1000
0010
0000
1000
0000
1001
0000
0000
0001
,
0010
0000
0100
0000
0110
0000
0000
0010
0001
0000
0100
0000
0110
0000
0000
0010
,
1000
0000
0001
0000
1001
0000
0000
1000
0100
0000
1000
0000
1010
0000
0000
0010
,
0100
0000
0001
0000
0011
0000
0000
0010
0100
1000
0100
1000
0001
0100
0001
0100
,
0010
1001
0000
0000
;

//--------------- dance-double - forcednature ----------------
#NOTES:
     dance-double:
     forcednature:
     Easy:
     6:
     0,0,0,0,0:
00000000
00000000
00000000
00000000
,
00000000
00000000
00000000
00000000
,
00000000
00000000
00000000
00000000
,
00000000
00000000
00000000
00000000
,
00001000
01000000
00010000
10000000
,
01000000
00100000
00020000
00000000
,
01030000
00001000
00010000
00000010
,
00001000
00000001
00000020
00000030
,
00000200
00000000
00020300
00000000
,
00032000
00000000
00203000
00000000
,
00320000
00000000
20030000
00000000
,
30200000
00000000
00000000
00000000
,
02300000
00000000
03002000
00000000
,
00023000
00000000
00030200
00000000
,
00000320
00000000
00000032
00000000
,
00000203
00000000
00000000
00000300
,
00001001
00001001
00001000
00000010
,
00010000
00001000
00100000
00010000
,
10000000
00100000
01000000
00010000
,
00100000
00001000
00010000
00000100
,
00001000
00000001
00000100
00000010
,
00010000
00001000
01000000
00010000
,
10000000
01000000
00100000
01000000
,
10000000
00020000
00000000
00000000
,
01030000
00002000
01003000
00002000
,
00013000
00000000
00000100
00000000
00001000
00000001
00001000
00000000
,
00000010
00010000
00000100
00001000
,
00000010
00010000
00001000
00100000
,
00010000
20000000
30010000
20000000
,
30100000
00000000
01000000
00000000
00001000
00010000
00001000
00000000
,
00000100
00000001
00001000
00000100
,
00010000
00001000
00100000
00020000
,
00030000
10010000
10000000
00000000
,
01000000
00100000
00100000
00001000
,
00010000
00000010
00000010
00000100
,
00000100
00000000
00000000
00000000
00000001
00000000
00000000
00000001
00000000
00000000
00000000
00000000
00001000
00000000
00000000
00001000
,
00000000
00000000
00000100
00000000
00010000
00000000
00000000
00100000
,
00000000
00000000
00000000
00000000
10000000
00000000
00000000
10000000
00000000
00000000
10000000
00000000
00000000
10000000
00000000
00000000
,
00000000
01000000
00100000
00010000
,
01000000
00001000
00010000
00000100
,
00000000
00001002
00000000
00000203
,
00000000
00000320
00000000
00020030
,
00000000
00032000
00000000
00203000
,
00000000
02300000
00000000
00000000
,
00000000
13000000
10000000
00010000
,
00010000
01000000
01000000
00001000
,
00001000
00010000
00010000
00000100
,
00000100
00000020
00000000
00000000
,
00000030
00001001
00000001
00000100
,
00000010
00010000
00001000
00100000
,
00001000
00010000
01000000
00100000
,
00010000
10000000
00100000
01000000
,
00001000
00010000
00000100
00001000
,
00000001
00001000
00000010
00010000
,
00001000
00010000
00000100
00001000
,
00000100
00000010
00000001
00000100
,
00000000
00001001
00000000
00000000
;

//--------------- dance-double - forcednature ----------------
#NOTES:
     dance-double:
     forcednature:
     Medium:
     9:
     0,0,0,0,0:
00000000
00000000
00000000
00000000
,
00000000
00000000
00000000
00000000
,
00000000
00000000
00000000
00000000
,
00000000
00000000
00000000
00000000
,
00001000
00010000
01000000
00100000
,
00010000
10000000
00010000
10000000
00200000
00000000
00300000
00000000
,
01000000
00001000
00010000
00000100
,
00001000
00000001
00001000
00000001
00000020
00000000
00000130
00000000
,
00020000
00000000
00032000
00000000
,
02003000
00000000
03020000
00000000
,
20030000
00000000
30200000
00000000
,
00320000
00000000
00032000
00000000
,
00003010
00000010
00000100
00000100
,
00001000
00001000
00000001
00000001
,
00000100
00001000
00010000
01000000
,
00100000
00001000
00010000
00100000
,
10010000
00000000
00000000
00000000
10000000
00000000
00000000
01000000
00000000
00000000
00100000
00000000
01000000
00000000
00000000
10000000
,
00000000
00000000
00010000
00000000
01000000
00000000
00000000
00001000
00000000
00000000
00010000
00000000
00000100
00000000
00000000
00001000
,
00000000
00000000
00000001
00000000
00000100
00000000
00000000
00000010
00000000
00000000
00010000
00000000
00001000
00000000
00000000
00010000
,
00000000
00000000
00000100
00000000
00001000
00000000
00000000
00000001
00000000
00000000
00000100
00000000
00000010
00000000
00000000
00010000
,
00000000
00000000
00001000
00000000
00100000
00000000
00000000
00100000
00000000
00000000
00100000
00000000
01000000
00000000
00000000
01000000
,
00000000
00000000
01000000
00000000
10000000
00000000
00000000
10000000
00000000
00000000
10000000
00000000
00010000
00000000
00000000
00010000
,
00000000
00000000
00010000
00000000
01000000
00000000
00000000
01000000
00000000
00000000
00001000
00000000
00010000
00000000
00000000
00010000
,
00000000
00000000
00000100
00000000
00001000
00000000
00000000
00000001
00000000
00000000
00001000
00000000
00000001
00000000
00000000
00000000
,
00001000
00000001
00000100
00000000
00000010
00010000
00001000
00000000
,
00100000
00010000
00100000
01000000
10000000
01000000
00100000
00000000
,
00010000
01000000
00010000
00000000
00100000
00001000
00100000
00000000
,
00001000
00010000
00000010
00000000
00001000
00000001
00000010
00000000
,
00000100
00001000
00000100
00000000
00000010
00000001
00000010
00000000
,
00000100
00001000
00000100
00010000
00001000
00010000
00000100
00000000
,
00010000
00001000
00010000
00000000
00100000
10000000
00100000
00000000
,
01000000
00010000
10000000
00000000
01000000
00100000
00020000
00000000
,
00030000
01010000
01000000
00001000
,
00000000
00000000
00010000
00010000
00000100
00010000
00001000
00000000
,
00000100
00000000
00000110
00000000
00000001
00000000
00000010
00000010
,
00000010
00000000
00000010
00000000
00000100
00000000
00000000
00000100
00000000
00000000
00000000
00000000
00010000
00001000
00000000
00010000
,
00000000
00000000
00000000
00000000
00100000
00000000
00100000
00000000
10000000
00000000
00000000
10000000
00000000
00000000
01000000
00000000
,
00000000
00000000
00000000
00000000
01100000
00000000
00000000
01100000
00000000
00000000
01100000
00000000
00000000
01100000
00000000
00000000
,
00000000
00000000
10000000
10000000
00010000
00000000
01000000
01000000
,
00001000
00000000
00011000
00000000
00000100
00000100
00001000
00000000
,
00000001
00000201
00000000
00002300
,
00000000
00023000
00000000
00230000
,
00000000
20300000
00000000
32000000
,
00000000
03020000
00000000
00032000
,
00000000
01003000
00010000
00100000
,
00001000
00010000
00000010
00001000
,
00000100
00000010
00000001
00000100
,
00000010
00002000
00000000
00000000
,
00000000
00000000
00000000
00000000
00003001
00000000
00000000
00000100
00000000
00000000
00001000
00000000
00010000
00000000
00000000
00000100
,
00000000
00000000
00010000
00000000
00001000
00000000
00000000
01000000
00000000
00000000
00010000
00000000
00100000
00000000
00000000
01000000
,
00000000
00000000
10000000
00000000
00010000
00000000
00000000
01000000
00000000
00000000
00100000
00000000
10000000
00000000
00000000
01000000
,
00000000
00000000
00100000
00000000
00001000
00000000
00000000
00010000
00000000
00000000
00000010
00000000
00001000
00000000
00000000
00000001
,
00000000
00000000
00000010
00000000
00000100
00000000
00000000
00000100
00000000
00000000
00000100
00000000
00001000
00000000
00000000
00001000
,
00000000
00000000
00001000
00000000
00000001
00000000
00000000
00000001
00000000
00000000
00000001
00000000
00000100
00000000
00000000
00000100
,
00000000
00000000
00000100
00000000
00001000
00000000
00000000
00001000
00000000
00000000
00010000
00000000
00100000
00000000
00000000
00100000
,
00000000
00000000
01000000
00000000
00010000
00000000
00000000
10000000
00000000
00000000
01000000
00000000
00010000
00000000
00000000
00001000
,
00000000
00010000
00011000
00000000
00000000
00000000
00000000
00000000
;

//--------------- dance-double - forcednature ----------------
#NOTES:
     dance-double:
     forcednature:
     Hard:
     13:
     0,0,0,0,0:
00000000
00000000
00000000
00000000
,
00000000
00000000
00000000
00000000
,
00000000
00000000
00000000
00000000
,
00000000
00000000
00000000
00000000
,
00001000
00000000
00000000
00000000
00010000
00000000
00000000
01000000
10000000
00000000
00010000
00000000
01000000
00000000
00000000
00000000
,
00100000
10000000
01000000
00010000
00002000
00000000
00000000
00000000
,
00003010
00000000
00000000
00000000
00000001
00000000
00000000
00001000
00000001
00000000
00000100
00000000
00001000
00000000
00000000
00000000
,
00010000
00100000
10000000
01000000
00100000
00000000
10010000
00000000
,
10000000
00000000
00000000
01000000
00000000
00000000
10000000
00000000
00010000
00000000
00000000
01000000
00000000
00000000
00010000
00000000
,
00100000
00000000
00000000
00001000
00000000
00000000
00010000
00000000
00000010
00000000
00000000
00010000
00000000
00000000
00001000
00000000
,
00000010
00000000
00000000
00000010
00000000
00000000
00000010
00000000
00000100
00000000
00000000
00000100
00000000
00000000
00000100
00000000
,
00001000
00000000
00000000
00001000
00000000
00000000
00000001
00000000
00001000
00000000
00000000
00001000
00000000
00000000
00000001
00000000
,
00000100
00000000
00000000
00001000
00000000
00000000
00010000
00000000
00100000
00000000
00000000
00010000
00000000
00000000
00001000
00000000
,
00010000
00000000
00000000
01000000
00000000
00000000
00100000
00000000
00010000
00000000
00000000
10000000
00000000
00000000
00100000
00000000
,
01000000
00000000
00000000
01000000
00000000
00000000
01000000
00000000
00001000
00000000
00000000
00001000
00000000
00000000
00001000
00000000
,
00010000
00000000
00000000
00010000
00000000
00000000
00000100
00000000
00001000
00000000
00000000
00001000
00000000
00000000
00000001
00000000
,
00001001
00000000
00000000
00000000
00000001
00000000
00000100
00000000
00000010
00001000
00000000
00000000
00000100
00000000
00010000
00000000
,
00001000
01000000
00000000
01000000
00010000
00000000
10000000
00000000
01000000
00100000
00000000
00000000
00010000
00000000
01000000
00000000
,
00001000
00010000
00000000
00010000
00000100
00000000
00001000
00000000
00000001
00000100
00000000
00000000
00000010
00000000
00010000
00000000
,
00001000
00100000
00000000
00100000
01000000
00000000
10000000
00000000
00010000
01000000
00000000
00000000
00001000
00000000
00010000
00000000
,
00000100
00001000
00000000
00001000
00000001
00000000
00000100
00000000
00000010
00010000
00000000
00000000
00001000
00000000
00100000
00000000
,
01000000
10000000
00000000
00010000
01000000
00000000
00100000
00000000
10000000
01000000
00000000
00000000
00100000
00000000
00001000
00000000
,
00010000
00000010
00000000
00001000
00000001
00000000
00000010
00000000
00000100
00001000
00000000
00000000
00000001
00000000
00000100
00000000
,
00000010
00010000
00000000
00001000
00100000
00000000
00000000
00100000
00000000
00000000
00100000
00000000
01000000
00000000
00000000
01000000
,
00010000
01000000
20000000
30000000
00010000
01000000
20000000
30000000
,
01000000
00000000
00001000
00000000
00010000
00000000
00000100
00001000
00000001
00000000
00000100
00000000
00002000
00000000
00003000
00000000
,
00010000
00000010
00002000
00003000
00010000
01000000
00200000
00300000
,
10000000
01000000
00020000
00030000
00000100
00001000
00000002
00000000
,
00000103
00001000
00020000
00030000
00000100
00001000
00020000
00030000
,
00100000
00000000
00001000
00000000
00010000
00000000
00100000
10000000
00010000
00000000
10000000
00000000
02000000
00000000
03000000
00000000
,
00100000
00001000
00020000
00030000
00000010
00010000
00002000
00003000
,
00000010
00000100
00002000
00003000
00000001
00000001
00000200
00000000
,
00000000
00000000
00000000
00000000
00001300
00000000
00010000
00000000
00100000
00000000
10000000
00010000
10000000
00010000
00100000
00000000
,
01000000
00000000
00010000
00000000
00001000
00000000
00001000
00000000
00000010
00000001
00000010
00000001
00000100
00000000
00000010
00000000
,
00001000
00000000
00010000
01000000
00100000
00000000
10000000
00000000
01000000
00000000
00010000
00000000
00001000
00000000
00001000
00000000
,
00000010
00000000
00000100
00001000
00000100
00000000
00010000
00001000
00010000
00000000
00100000
10000000
00100000
00000000
01000000
00000000
,
00001000
00000000
00010000
00000100
00001000
00000000
00000001
00000000
00000100
00000010
00000100
00000010
00001000
00000000
00010000
00000000
,
01000000
00000000
00100000
00000000
10000000
00000000
01000000
00010000
00000000
00001000
00010000
00000000
00100000
00010000
00000000
00001000
,
00010000
00000000
00000100
00000000
00001000
00000000
00000001
00000100
00000001
00000000
00001000
00000100
00001000
00000000
00010000
00000000
,
00100000
00000000
01000000
00000000
00010000
00000000
00001000
00000000
01000000
00010000
01000000
00000000
00100000
00000000
10000000
00000000
,
01000000
00000000
00010000
00000000
00001000
00000000
00000000
00010000
00000000
00000000
00000100
00000000
00001000
00000000
00000000
00000001
,
00000000
00000000
00000100
00000000
00000010
00000000
00000000
00010000
00000000
00000000
00001000
00000000
00100000
00000000
00000000
00010000
,
00000000
00000000
01000000
00000000
00001000
00000000
00000000
00001000
00000000
00000000
00001000
00000000
00010000
00000000
00000000
00010000
,
00000000
00000000
00010000
00000000
01000000
00000000
00000000
01000000
00000000
00000000
10000000
00000000
00010000
00000000
00000000
00010000
,
00000000
00000000
01000000
00000000
00100000
00000000
00000000
00100000
10000000
00000000
00000000
10000000
01000000
00000000
00000000
01000000
,
00010000
00000000
00000000
00010000
00001000
00000000
00000000
00001000
00000010
00000000
00000000
00000010
00000001
00000000
00000000
00000001
,
00000100
00000000
00000000
00000100
00001000
00000000
00000000
00001000
00010000
00000000
00000000
00010000
00100000
00000000
00000000
00100000
,
10000000
00000000
00000000
10000000
02000000
00000000
00000000
00000000
00000000
00000000
00000000
00000000
00000000
00000000
00000000
00000000
,
00000000
00000000
00000000
00000000
03010000
00000000
00000100
00001000
00000000
00000100
00001000
00000000
00000001
00000000
00000100
00000010
,
00000000
00000100
00000010
00000000
00001000
00000000
00000100
00010000
00000000
00000100
00010000
00000000
00001000
00000000
00100000
00010000
,
00000000
00100000
00010000
00000000
01000000
00000000
00001000
00010000
00000000
00001000
00010000
00000000
00000010
00000000
00001000
00000001
,
00000000
00001000
00000001
00000000
00000010
00000000
00000100
00010000
00000000
00000100
00010000
00000000
00001000
00000000
01000000
00010000
,
00000000
01000000
00010000
00000000
10000000
00000000
01000000
00100000
00000000
00010000
00100000
00000000
00001000
00000000
00010000
00000010
,
00000000
00001000
00000010
00000000
00000100
00000000
00000001
00000010
00000000
00000100
00000010
00000000
00000100
00000000
00001000
00000001
,
00000000
00000100
00000001
00000000
00001000
00000000
00000010
00010000
00000000
00001000
00010000
00000000
00100000
00000000
10000000
00010000
,
00000000
01000000
00010000
00000000
00100000
00000000
00001000
00010000
00000000
00000010
00010000
00000000
00000100
00000000
00000010
00000001
,
00000000
00000100
00000001
00000000
00001001
00000000
00000000
00000000
00000000
00000000
00000000
00000000
00000000
00000000
00000000
00000000
;

//--------------- dance-double - forcednature ----------------
#NOTES:
     dance-double:
     forcednature:
     Challenge:
     13:
     0,0,0,0,0:
00000000
00000000
00000000
00000000
,
00000000
00000000
00000000
00000000
,
00000000
00000000
00000000
00000000
,
00000000
00000000
00000000
00000000
,
00010000
00000000
00000000
00000000
00001000
00000000
00000000
00000010
00000001
00000000
00001000
00000000
00000001
00000000
00000000
00000000
,
00000100
00001000
00010000
00100000
20000000
00000000
00000000
00000000
,
31000000
00000000
00000000
00000000
00010000
00000000
00000000
00000100
00001000
00000000
00000001
00000000
00000100
00000000
00000000
00000000
,
00000010
00010000
00001000
01000000
00010000
00000000
10010000
00000000
,
20000000
00000000
32000000
00000000
,
03020000
00000000
00032000
00000000
,
00003200
00000000
00000302
00000000
,
00000023
00000000
00000000
00000000
,
00000130
00000000
00000000
00001000
00000000
00000000
00000100
00000000
00010000
00000000
00000000
00001000
00000000
00000000
00010000
00000000
,
00100000
00000000
00000000
10000000
00000000
00000000
00010000
00000000
10000000
00000000
00000000
01000000
00000000
00000000
00010000
00000000
,
00001000
00000000
00000000
00010000
00000000
00000000
00000100
00000000
00001000
00000000
00000000
00000001
00000000
00000000
00000100
00000000
,
00001000
00000000
00000000
00010000
00000000
00000000
00000100
00000000
00010000
00000000
00000000
00001000
00000000
00000000
01000000
00000000
,
10010000
00000000
00000000
00000000
10000000
01000000
00000000
00100000
00000000
00010000
01000000
00000000
00001000
00010000
00000000
00000100
,
00000000
00001000
00000001
00000000
00000100
00000010
00000000
00010000
00000000
00001000
00100000
00000000
00010000
10000000
00000000
00100000
,
00000000
01000000
00001000
00000000
00010000
00000100
00000000
00001000
00000000
00000001
00000100
00000000
00000010
00010000
00000000
00001000
,
00000000
00100000
00010000
00000000
10000000
00010000
00000000
01000000
00000000
00001000
00010000
00000000
00000100
00001000
00000000
00000001
,
00000000
00001000
00000010
00000000
00010000
00000000
00000000
00001000
00100000
00000000
00010000
00000000
10010000
00000000
00000000
10000000
,
00010000
00000000
01000000
00000000
01001000
00000000
00000000
00001000
00010000
00000000
00000100
00000000
00001100
00000000
00000000
00001000
,
00000001
00000000
00000100
00000000
00000110
00000000
00000000
00000010
00010000
00000000
00001000
00000000
00101000
00000000
00000000
00100000
,
00010000
00000000
01000000
00000000
00100000
00000000
00000000
00100000
10000000
00010000
10000000
00010000
10000000
01000000
10000000
01000000
,
00100000
00001000
00020000
00000000
00130000
00010000
00002000
00000000
,
00003010
00000000
00000100
00000000
00001000
00000000
00000001
00000100
00000010
00000000
00001000
00000000
00020000
00000000
00000000
00000000
,
01030000
00100000
20000000
00000000
31000000
00100000
00020000
00000000
,
01030000
00001000
00020000
00000000
00030010
00010000
00002000
00000000
,
00003010
00000001
00000200
00000000
00000310
00010000
00002000
00000000
,
00003010
00000000
00000100
00000000
00001000
00000000
00000001
00000100
00000010
00000000
00001000
00000000
00020000
00000000
00000000
00000000
,
00130000
01000000
20000000
00000000
30100000
01000000
00020000
00000000
,
00130000
01000000
00020000
00000000
00031000
00000010
00000200
00000000
,
00000000
00000000
00000000
00000000
00001300
00000000
00000001
00000000
00000100
00000000
00000000
00000010
00010000
00000010
00000000
00000000
,
00001000
00000000
00000000
00000000
00000100
00000000
00000100
00000000
00010000
00001000
00010000
00001000
01000000
00010000
00000000
00000000
,
00100000
00000000
01000000
10000000
00100000
01000000
00000000
00000000
00001000
00000000
00000000
00000000
00010000
00000000
00010000
00000000
,
00000100
00000000
00000100
00001000
00000001
00000000
00000100
00000010
00001000
00000001
00001000
00000100
00000010
00000001
00000000
00000001
,
00000100
00000000
00000000
00000000
00000000
00000000
00001000
00000000
00010000
00000000
00001000
00000000
00010000
00000000
00000000
00000000
00000000
00000000
00010000
00000000
00000000
00000000
00000000
00000000
00100000
00000000
00000000
10000000
00000000
00000000
00000000
00000000
00000000
10000000
00000000
00000000
01000000
00000000
00000000
00100000
00000000
00000000
00010000
00000000
00000000
00000000
00000000
00000000
,
01000000
00001000
00010000
00000010
00001000
00000000
00000000
00001100
00000000
00000000
00000101
00000000
00000000
00000110
00000000
00001000
,
00001000
00000000
00000000
00000000
00000001
00000000
00000100
00001000
00010000
00000000
00100000
00010000
00001000
00010000
00000000
00000000
,
01100000
00000000
00000000
00000000
10000000
10000000
00000000
00000000
00010000
01000000
00010000
01000000
00001000
00010000
00000100
00000000
,
00000000
00000010
00000210
00000000
00000000
00000000
00020300
00000000
,
00000000
00032000
00000000
02003000
,
00000000
03020000
00000000
20030000
,
00000000
30200000
00000000
00000000
,
00000000
01300000
00010000
00100000
,
00001000
00000010
00000001
00000100
,
00000010
00010000
01000000
00100000
,
00001000
00022000
00000000
00000000
,
00033000
00000000
00000000
00000000
00001000
01000000
00000000
00010000
00000000
10000000
01000000
00000000
00100000
00001000
00000000
00010000
,
00000000
00000010
00001000
00000000
00000001
00000010
00000000
00000100
00000000
00010000
00001000
00000000
01000000
00010000
00000000
10000000
,
00000000
01000000
00100000
00000000
01000000
10000000
00000000
00010000
00000000
01000000
00001000
00000000
00010000
00000100
00000000
00001000
,
00000000
00000001
00000100
00000000
00000010
00010000
00000000
00001000
00000000
00000010
00000100
00000000
00001000
00000001
00000000
00000100
,
00000000
00000010
00010000
00000000
00001000
00000000
00000000
00001000
00100000
00000000
00010000
00000000
10010000
00000000
00000000
10000000
,
01000000
00000000
00100000
00000000
01010000
00000000
00000000
00001000
00010000
00000000
00000100
00000000
00001100
00000000
00000000
00000001
,
00000100
00000000
00000010
00000000
00010010
00000000
00000000
00010000
00001000
00000000
00100000
00000000
10010000
00000000
00000000
00010000
,
01000000
00000000
00001000
00000000
00010000
00000100
00000000
00000000
00000010
00000001
00000010
00000001
00000100
00000001
00000010
00001000
,
00010000
00011000
00000000
00000000
;
