#TITLE:NEWGRAM;
#SUBTITLE:;
#ARTIST:BB4;
#TITLETRANSLIT:;
#SUBTITLETRANSLIT:;
#ARTISTTRANSLIT:;
#GENRE:;
#CREDIT:;
#MUSIC:NEWGRAM.mp3;
#BANNER:;
#BACKGROUND:;
#CDTITLE:;
#SAMPLESTART:29.263;
#SAMPLELENGTH:12.973;
#SELECTABLE:YES;
#OFFSET:-0.074;
#BPMS:0.000=148.000;
#STOPS:;
#BGCHANGES:;
#FGCHANGES:;

//--------------- dance-single - eataninja ----------------
#NOTES:
     dance-single:
     eataninja:
     Beginner:
     3:
     0,0,0,0,0:
0000
0000
0000
0000
,
0000
0000
0000
0000
,
0000
0000
0000
0000
,
0000
0000
0000
0000
,
1000
1000
1000
0000
,
0001
0001
0001
0000
,
1000
1000
1000
0000
,
0100
0000
0010
0000
,
0001
0001
0001
0000
,
1000
1000
1000
0000
,
0001
0001
0001
0000
,
0200
0000
0000
0300
,
0001
0001
0001
0000
,
1000
1000
1000
0000
,
0001
0001
0001
0000
,
1001
0000
0110
0000
,
1000
1000
1000
0000
,
0001
0001
0001
0000
,
1001
0000
0110
0000
,
0010
0100
0010
0000
,
0001
0000
0100
0000
,
1000
0000
0100
0000
,
0001
0000
0001
0000
,
1000
1000
1000
0000
,
0001
0000
0010
0000
,
1000
0000
0010
0000
,
0001
0000
0001
0000
,
1000
1000
1000
0000
,
1000
0000
0010
0000
,
0001
0000
0010
0000
,
1000
0000
1000
0000
,
0001
0001
0001
0000
,
1000
0000
0100
0000
,
0001
0000
0100
0000
,
1000
0000
0010
0000
,
0001
0000
0010
0000
,
0200
0000
0000
0300
,
1000
1000
1000
0000
,
0010
0010
0010
0000
,
0100
0100
0100
0000
,
1001
0000
1000
0000
,
0001
0001
0001
0000
,
0010
0010
0010
0000
,
0100
0100
0100
0000
,
1001
0000
0001
0000
,
1000
1000
1000
0000
,
0010
0010
0010
0000
,
0100
0100
0100
0000
,
0110
0000
1001
0000
,
0001
0001
0001
0000
,
0010
0010
0010
0000
,
1001
0000
0110
0000
,
0100
0010
0100
0000
,
1000
0000
0000
0000
,
0001
0000
0000
0000
,
0100
0000
0000
0000
,
0010
0000
0100
0100
;

//--------------- dance-single - eataninja ----------------
#NOTES:
     dance-single:
     eataninja:
     Easy:
     6:
     0,0,0,0,0:
0000
0000
0000
0000
,
0000
0000
0000
0000
,
0000
0000
0000
0000
,
0000
0000
0000
0000
,
1000
1000
0010
0100
,
0001
0001
0010
0100
,
1000
1000
0010
0100
,
0001
0010
0100
1000
,
0001
0001
0100
0010
,
1000
1000
0100
0010
,
0001
0001
0100
0010
,
0001
0020
2030
3001
,
1000
1000
0100
0001
,
0100
0100
0010
0001
,
1000
1000
0100
0001
,
0100
0010
0001
0100
,
0001
0001
0100
1000
,
0100
0100
0010
1000
,
1010
0000
0011
0000
,
2000
3002
0013
0100
,
1001
0000
1100
0000
,
1001
0000
0101
0000
,
0010
0010
0100
0001
,
0010
1000
0010
0001
,
1001
0000
1010
0000
,
1001
0000
0011
0000
,
0100
0100
0010
0001
,
0100
1000
0100
0001
,
1001
0000
0101
0000
,
1010
0000
1001
0000
,
0100
0100
0010
0001
,
0100
1000
0100
0001
,
1001
0000
0011
0000
,
1100
0000
1001
0000
,
0010
0010
0100
1000
,
0010
0001
0010
2000
,
0002
0000
0000
3003
,
1000
1000
0001
0101
,
1000
1000
0001
0011
,
1000
1000
0001
0101
,
0010
1000
0000
0100
0000
0010
0000
0001
,
1000
1000
0001
0011
,
1000
1000
0001
0101
,
1000
1000
0001
0011
,
0100
1000
0000
0010
0000
0100
0000
0001
,
1000
1000
1010
0101
,
0010
0010
0011
1100
,
1000
1000
1010
0101
,
1000
0100
0000
0001
0000
0100
0000
1000
,
0001
0001
0101
1010
,
0100
0100
1100
0011
,
1001
0000
0110
0000
,
1000
0100
0201
1300
,
0001
0000
0000
0100
0000
0010
1000
0000
,
0001
0000
0000
0010
0000
0100
1000
0000
,
0001
0000
0000
0100
0000
0010
1000
0000
,
0100
0001
0000
0100
0000
1000
0000
0000
;

//--------------- dance-single - eataninja ----------------
#NOTES:
     dance-single:
     eataninja:
     Medium:
     8:
     0,0,0,0,0:
0000
0000
0000
0000
,
0000
0000
0000
0000
,
0000
0000
0000
0000
,
0000
0000
0000
0000
,
1000
0000
0100
0000
0010
0000
0001
1000
,
0001
0000
0100
0000
0010
0000
1000
0001
,
1000
0100
0010
0001
,
1000
0010
0000
0001
0000
0010
0000
0100
,
0001
0000
0100
0000
0010
0000
1000
0001
,
1000
0000
0100
0000
0010
0000
0001
1000
,
0001
0000
0100
0000
0010
0000
1000
0001
,
1000
0200
0301
1100
,
1000
0000
0001
0000
0010
0000
0100
1000
,
0001
0000
1000
0000
0010
0000
0100
0001
,
1000
0001
0010
0100
,
1000
0001
0000
0100
0000
1000
0000
0100
,
0001
0000
1000
0000
0100
0000
0010
0001
,
1000
0000
0001
0000
0100
0000
0010
1000
,
0001
0010
1000
0000
1000
0010
0001
0000
,
1000
0100
1000
0000
0001
0000
0101
0000
,
1000
0000
0010
0000
0100
0000
0100
0001
,
0000
0010
0000
0100
0000
0100
1000
0000
,
0001
0001
0100
0000
1000
0100
0000
0010
,
1000
0010
0000
1000
0001
1000
0000
0000
,
0001
0000
0010
0000
0100
0000
0100
1000
,
0000
0010
0000
0100
0000
0100
0001
0000
,
1000
1000
0100
0000
0001
0100
0000
0010
,
0001
0010
0000
0001
1000
0001
0000
0000
,
1000
0000
0010
0000
0110
0000
0001
1000
,
0000
0100
0000
1001
0000
0100
1000
0000
,
0010
0010
0100
0000
0001
1000
0000
0100
,
0001
0100
0000
1000
0001
0100
0000
0000
,
0001
0000
0100
0000
0110
0000
1000
0001
,
0000
0010
0000
1001
0000
0010
0001
0000
,
0100
0100
0010
0000
1000
0001
0000
0010
,
1000
0010
0000
0001
1000
0001
0010
0000
,
0200
0000
0000
0300
,
1000
0001
1000
0100
0000
0001
0100
0000
,
1000
0001
1000
0010
0000
0001
0010
0000
,
1000
0001
1000
0100
0000
0001
0100
0000
,
0010
0001
0000
1000
0000
0010
0000
0100
,
0001
1000
0001
0100
0000
1000
0100
0000
,
0001
1000
0001
0010
0000
1000
0010
0000
,
0001
1000
0001
0100
0000
1000
0100
0000
,
0010
1000
0000
0100
0000
0010
0000
0001
,
1000
0100
1000
0001
0000
0100
0010
0000
,
1000
0010
1000
0001
0000
0010
0100
0000
,
1000
0100
1000
0001
0000
0100
0010
0000
,
0001
0010
0000
1000
0000
0001
0000
0010
,
0001
0100
0001
1000
0000
0100
0010
0000
,
0001
0010
0001
1000
0000
0010
0100
0000
,
1000
0100
0001
0000
1000
0100
0001
0000
,
0100
0010
0100
0000
0110
0000
1001
0000
,
1000
0010
1000
0010
0000
0100
0100
0000
,
0001
0010
0001
0010
0000
0100
0100
0000
,
1000
0010
1000
0010
0000
0100
0100
0000
,
0001
0010
0000
1000
0000
0001
0000
0000
,
1100
0000
0000
0000
;

//--------------- dance-single - eataninja ----------------
#NOTES:
     dance-single:
     eataninja:
     Hard:
     13:
     0,0,0,0,0:
0000
0000
0000
0000
,
0000
0000
0000
0000
,
0000
0000
0000
0000
,
0000
0000
0000
0000
,
1000
0000
0100
0010
0100
0000
0010
0000
0000
0000
0001
0000
0011
0000
0000
0000
,
0001
0000
0100
0010
0100
0000
0010
0000
0000
0000
1000
0000
1010
0000
0000
0000
,
1000
0000
0100
0010
0100
0000
0010
0000
0000
0000
0001
0000
1000
0000
0001
0100
,
0001
0100
0000
0010
0000
1000
0000
0100
,
1000
0000
0010
0100
0010
0000
0100
0000
0000
0000
0001
0000
0101
0000
0000
0000
,
0001
0000
0010
0100
0010
0000
0100
0000
0000
0000
1000
0000
1100
0000
0000
0000
,
1000
0000
0010
0100
0010
0000
0100
0000
0000
0000
0001
0000
1000
0000
0001
0010
,
0001
0010
0100
1000
0010
0001
0010
1000
,
0001
0000
0100
0010
0100
0000
0001
0000
0000
0000
1000
0000
1010
0000
0000
0000
,
1000
0000
0100
0010
0100
0000
1000
0000
0000
0000
0001
0000
0011
0000
0000
0000
,
0001
0000
0100
0010
0100
0000
0001
0000
0000
0000
1000
0000
0100
0000
1000
0001
,
1000
0010
0000
0100
0000
0001
0000
0010
,
0100
0000
1000
0001
1000
0000
0100
0000
0000
0000
1000
0000
1010
0000
0000
0000
,
0100
0000
0001
1000
0001
0000
0100
0000
0000
0000
0001
0000
0101
0000
0000
0000
,
0011
0100
1000
0000
1010
0100
0001
0000
,
1000
0010
0001
0010
1000
0100
0010
0000
,
0011
0000
0110
0000
1100
0000
1000
1010
,
0000
0110
0000
0001
1000
1000
0001
0000
,
0100
0100
0010
1000
0001
0010
0000
1000
,
0010
0001
0010
0100
1000
0010
0100
0000
,
0101
0000
0110
0000
1010
0000
1000
1100
,
0000
0110
0000
0001
1000
1000
0001
0000
,
0010
0010
0100
1000
0001
0100
0000
1000
,
0100
0010
1000
0100
0010
0001
0001
0000
,
1001
0000
0101
0000
1010
0000
0001
1001
,
0000
0011
0000
1000
0001
0001
1000
0000
,
0010
0010
0100
0001
1000
0100
0010
1000
,
0010
0001
1000
0010
0001
0010
1000
0000
,
1001
0000
1100
0000
0011
0000
1000
1001
,
0000
0101
0000
1000
0001
0001
1000
0000
,
0010
0010
1000
0100
0010
0001
0000
1000
,
0010
0001
1000
0100
0001
1000
0200
0000
,
0000
0000
0000
0300
,
1000
0000
0001
0100
0001
0000
1000
0000
0100
0000
0010
0000
0001
0000
1000
0000
,
0001
0000
1000
0100
1000
0000
0001
0000
0100
0000
0010
0000
1000
0000
0001
0000
,
1000
0000
0001
0100
0001
0000
1000
0000
0100
0000
0010
0000
0001
0000
0100
0010
,
0100
0001
0000
0101
0000
1100
0000
1000
,
0001
0000
1000
0010
1000
0000
0001
0000
0010
0000
0100
0000
1000
0000
0001
0000
,
1000
0000
0001
0010
0001
0000
1000
0000
0010
0000
0100
0000
0001
0000
1000
0000
,
0001
0000
1000
0010
1000
0000
0001
0000
0010
0000
0100
0000
1000
0000
0010
0100
,
0010
1000
0000
1100
0000
0101
0000
0010
,
0100
0000
0001
1000
0001
0000
0010
0000
1000
0000
0010
0000
0001
0000
0100
0000
,
0010
0000
1000
0001
1000
0000
0100
0000
0001
0000
0100
0000
1000
0000
0010
0000
,
0100
0000
0001
1000
0001
0000
0010
0000
1000
0000
0010
0000
0001
0000
1000
0100
,
1000
0001
0000
0011
0000
1010
0000
1000
,
0100
0000
1000
0001
1000
0000
0010
0000
0001
0000
0010
0000
1000
0000
0001
0000
,
0010
0000
0001
1000
0001
0000
0100
0000
1000
0000
0100
0000
0001
0000
1000
0000
,
1100
0010
0001
0000
0101
0010
1000
0000
,
0001
0100
1000
1000
0100
0001
1000
0000
,
1000
0000
0100
0010
0100
0000
0001
0000
0000
0000
0101
0000
1100
0000
0000
0000
,
0001
0000
0100
0010
0100
0000
1000
0000
0000
0000
1100
0000
0101
0000
0000
0000
,
1000
0000
0100
0010
0100
0000
0001
0000
0000
0000
0101
0000
1100
0000
0001
1000
,
0001
0100
0000
1000
0000
0010
0000
0001
,
1001
0000
0000
0000
;
