#TITLE:Muteki Onnanoko;
#SUBTITLE:;
#ARTIST:Keiichi Okabe feat. Maon Kurosaki;
#TITLETRANSLIT:;
#SUBTITLETRANSLIT:;
#ARTISTTRANSLIT:;
#GENRE:;
#CREDIT:;
#MUSIC:Muteki Onnanoko.mp3;
#BANNER:muteki onnanoko.png;
#BACKGROUND:muteki onnanoko-bg.png;
#CDTITLE:;
#SAMPLESTART:41.168;
#SAMPLELENGTH:12.000;
#SELECTABLE:YES;
#OFFSET:-0.072;
#BPMS:0.000=146.000;
#STOPS:;
#BGCHANGES:;
#FGCHANGES:;

//--------------- dance-single - eataninja ----------------
#NOTES:
     dance-single:
     eataninja:
     Beginner:
     3:
     0,0,0,0,0:
0000
0000
0000
0000
,
0000
0000
0000
0000
,
0000
0000
0000
0000
,
0000
0000
0000
0000
,
0000
0000
0000
0000
,
0000
0000
0000
0000
,
1001
0000
1000
0000
,
0010
0000
0100
0000
,
1000
1000
0100
0000
,
0002
0000
0003
0000
,
1001
0000
0001
0000
,
0010
0000
0100
0000
,
0001
0001
0100
0000
,
2000
3000
1000
0000
,
0001
1000
0001
0000
,
0010
0000
0100
0000
,
1000
0001
1000
0000
,
0010
0000
0100
0000
,
0001
0100
0001
0000
,
1000
0000
0100
0000
,
1000
0010
1000
0000
,
0001
0000
0001
0000
,
0010
0010
0010
0010
,
0200
0000
0000
0300
,
0000
0110
0000
0100
,
0000
1000
0000
0001
,
0000
0110
0000
0100
,
0000
0001
0000
1000
,
1000
0000
0010
0000
,
0001
0000
0010
0000
,
0100
0100
0001
0000
,
0001
0001
1000
0000
,
1001
0000
0000
0000
,
0010
0000
0100
0000
,
1000
0000
1000
0000
,
0001
0000
0100
0000
,
1001
0000
0000
0000
,
0010
0000
0100
0100
,
0001
0000
1000
0000
,
0100
0000
0010
0000
,
0001
0001
0001
0001
,
2000
0000
0000
3000
,
0000
1001
0000
0001
,
0000
0010
0000
0100
,
0000
1001
0000
1000
,
0000
0010
0000
0100
,
0100
0000
0010
0000
,
1000
0000
0001
0000
,
0010
0010
0100
0000
,
1000
1000
0001
0001
,
0000
1001
0000
1000
,
0000
0010
0000
0100
,
0000
0110
0000
0010
,
0000
1000
0000
0001
,
0001
0000
0010
0000
,
1000
0000
0010
0000
,
0100
0100
1000
0000
,
1000
1000
0001
0000
,
0001
0001
0100
0000
,
0100
0100
0010
0000
,
2000
0000
3000
0000
,
1001
0000
0000
0000
;

//--------------- dance-single - MEGAtive ----------------
#NOTES:
     dance-single:
     MEGAtive:
     Easy:
     6:
     0.292968,0.353831,0.163677,0.317726,0,213,196,17,33,0,0,0.292968,0.353831,0.163677,0.317726,0,213,196,17,33,0,0:
0000
0000
0000
0000
,
0000
0000
0000
0000
,
0000
0000
0000
0000
,
0000
0000
0000
0000
,
0000
0000
0000
0000
,
0000
0000
0000
0000
,
1000
0100
1000
0001
,
0100
0001
1000
0100
,
1000
0001
0100
0010
,
1000
0001
0010
0001
,
1000
0010
1000
0001
,
0010
0001
1000
0010
,
1000
0001
0010
0100
,
1000
0001
0100
0001
,
2000
0100
0100
0100
,
0100
0100
3100
1000
,
0002
0100
0103
0001
,
2000
0100
3100
1000
,
0002
0010
0010
0010
,
0010
0010
0013
0001
,
2000
0010
3010
1000
,
0002
0010
0013
0001
,
1000
0000
0000
0000
,
1000
0010
1000
0000
0001
0010
0001
0000
,
1000
1100
0100
1000
,
0001
0100
0010
1000
,
0001
0011
0010
0001
,
1000
0010
0100
0010
,
1000
0001
0010
0100
,
1000
0000
0001
0000
0100
0000
0000
0220
,
0000
0330
0000
2002
0000
3003
0000
0220
,
0000
0330
0000
0000
0001
0010
0000
0011
,
0000
0001
0010
0001
,
1000
0100
1000
0001
,
0100
0000
0001
0000
1000
0000
0010
0200
,
0000
0000
0310
0010
,
2000
0000
0000
0000
,
3002
0000
0000
0000
0000
0000
0000
0023
,
0000
0000
0000
0000
0000
0000
0000
0230
,
0000
0000
0000
0000
,
1300
0000
0000
0000
,
0001
0010
0001
0000
1000
0010
1000
0000
,
0001
0101
0100
0001
,
1000
0100
0010
0001
,
1000
1010
0010
1000
,
0001
0010
0100
0010
,
0001
1000
0010
0100
,
0001
1000
0100
0010
,
0100
1000
0001
0100
,
0010
1000
0001
0010
,
0001
0011
0010
0001
,
1000
0010
0100
0001
,
1000
1100
0100
1000
,
0001
0100
0010
0100
,
0001
1000
0100
0010
,
0001
0000
1000
0000
0010
0000
0000
0220
,
0000
0330
0010
0000
0010
0100
0000
2002
,
0000
3003
0001
0000
0001
1000
0000
2200
,
0000
3300
0000
0022
0000
0033
0000
2002
,
0000
3003
0010
0000
0010
1000
0000
2002
,
0000
0000
0000
0000
0000
3003
0000
0110
;

//--------------- dance-single - MEGAtive ----------------
#NOTES:
     dance-single:
     MEGAtive:
     Medium:
     9:
     0.398877,0.442289,0.192561,0.616196,0,290,270,20,64,0,0,0.398877,0.442289,0.192561,0.616196,0,290,270,20,64,0,0:
0000
0000
0000
0000
,
0000
0000
0000
0000
,
0000
0000
0000
0000
,
0000
0000
0000
0000
,
0001
0001
0001
0001
,
0001
0010
0001
1000
0100
0010
0001
1000
,
0001
0000
0100
0000
0010
2000
0000
3002
,
0000
0023
0000
0230
0000
2300
0000
3002
,
0000
0000
0103
0010
0100
0002
0000
2003
,
0000
0100
0000
3100
,
1000
0000
0100
0000
0010
0002
0000
2003
,
0000
3020
0000
0230
0000
0302
0000
2003
,
0000
0000
3100
0010
0100
2000
0000
3002
,
0000
0000
0100
0000
0103
0001
1000
0200
,
0000
0310
0200
0000
1000
0000
1000
0000
,
1000
0000
1000
0000
1300
0001
0100
0020
,
0000
0230
0000
0000
0301
1000
0100
0020
,
0000
0000
0100
0000
0130
1000
0001
0200
,
0000
0310
0200
0000
0001
0000
0001
0000
,
0001
0000
0001
0000
0301
1000
0100
0020
,
0000
0130
2000
0000
3010
0100
0010
2000
,
0000
0000
0100
0000
3100
0010
0001
1000
,
0001
0001
0001
0001
,
0001
0100
0001
1000
0010
0100
0001
1000
,
0001
0000
0022
0033
0001
0010
0001
0000
,
1000
0010
1000
0000
0001
0010
0100
1000
,
0001
0000
0202
0303
0001
0100
0001
0000
,
1000
0100
1000
0000
0001
0100
0010
1000
,
0001
0000
0010
0000
0001
1000
0100
0010
,
0001
0000
1000
0000
0001
0000
0000
0220
,
0000
0330
0000
2020
0000
3030
0000
2002
,
0000
0000
3003
0000
0011
0011
0000
2002
,
0000
3003
0001
0000
0100
0000
0010
0000
,
1000
0001
0010
0001
,
1000
0000
0100
0000
0010
0000
0001
1000
,
0000
0010
0100
0000
0000
0010
0100
0001
,
2000
0000
0000
0000
,
3200
0000
0000
0000
0000
0000
0300
1002
,
0000
0000
0000
0000
0000
0000
0003
0201
,
0000
0000
0000
0000
,
0301
0001
0001
0001
,
0001
0010
0001
1000
0100
0010
0001
1000
,
0001
0000
0202
0303
0001
0100
0001
0000
,
1000
0100
1000
0000
0001
0100
0010
1000
,
0001
0000
0022
0033
0001
0010
0001
0000
,
1000
0010
1000
0000
0001
0010
0100
1000
,
0001
0000
0100
0000
0001
1000
0010
0100
,
0000
0100
0001
0000
1000
0100
0010
0001
,
0000
0001
1000
0010
1000
0001
0000
2000
,
0000
3100
1000
0000
0010
0100
0001
1000
,
0001
0000
0022
0033
0001
0010
0001
0000
,
1000
0010
1000
0000
0001
0010
0100
1000
,
0001
0000
0202
0303
0001
0100
0001
0000
,
1000
0100
1000
0000
0001
0100
0010
1000
,
0001
0000
0010
0000
0001
1000
0100
0010
,
0000
0010
0100
0000
1000
0000
0000
2002
,
0000
3003
1000
0000
0010
1000
0000
2002
,
0000
3003
0001
0000
0010
0001
0000
2002
,
0000
3003
0000
0220
0000
0330
0000
2002
,
0000
3003
1000
0100
0010
0001
0000
2000
,
0000
0000
0000
0000
0000
0000
3000
1001
;

//--------------- dance-single - MEGAtive ----------------
#NOTES:
     dance-single:
     MEGAtive:
     Hard:
     11:
     0.436014,0.530747,0.202189,0.79913,0,317,296,21,83,0,0,0.436014,0.530747,0.202189,0.79913,0,317,296,21,83,0,0:
0000
0000
0000
0000
,
0000
0000
0000
0000
,
0000
0000
0000
0000
,
0000
0000
0000
0000
,
0001
0000
0001
0000
0001
1000
0001
1000
,
0001
0010
0100
0010
0001
1000
0010
0100
,
0001
0000
0101
0000
0001
0020
0000
0032
,
0000
2003
0000
3020
0000
0230
0000
2300
,
0000
0000
3100
0010
0100
0001
0000
2000
,
0000
0001
0001
3001
,
1100
0000
0100
0000
1000
0020
0000
2030
,
0000
3002
0000
0023
0000
0230
0000
0302
,
0000
0000
0103
0010
0100
1000
0000
0002
,
0000
0000
1000
0000
1003
0001
0100
0020
,
0000
0100
0100
0000
1000
0000
0100
0000
,
0001
0000
0100
0000
1030
0001
0010
0200
,
0000
0010
0000
0000
1300
0100
1000
0002
,
0100
0000
1000
0000
0103
0001
1000
0010
,
0200
0010
0010
0000
0001
0000
0010
0000
,
1000
0000
0010
0000
0301
1000
0100
0020
,
0000
0100
0100
0000
0031
0010
0001
2000
,
0010
0000
0001
0000
3100
1000
0001
0010
,
0200
0000
0010
0000
0010
0000
0310
0100
,
0010
0100
1000
0001
1000
0010
0100
0001
,
1000
0000
2200
3300
0100
0010
0100
0002
,
0000
0000
0203
0000
2300
0000
3010
0200
,
0000
0300
0202
0303
0100
0001
0100
2000
,
0000
0000
3200
0000
0320
0000
2030
0001
,
3001
0000
0011
0000
0010
0001
1000
0200
,
0000
0010
0310
0000
0001
0100
0010
2000
,
0000
0010
3010
1000
0001
0010
0000
0012
,
0000
0010
0013
0001
1000
0010
0000
0220
,
0000
0330
0010
0000
1000
0001
0000
0010
,
0100
0000
1000
0100
1000
0001
0000
0001
,
0200
0000
0310
0000
1000
0010
0000
0220
,
0300
0130
0010
0100
0001
0010
0100
1000
,
0002
0000
0000
0000
,
0203
0000
0000
0000
0310
1000
0001
0020
,
0000
0000
0000
0000
0000
0000
0000
0230
,
0000
0000
1000
0000
1300
0100
1000
0001
,
0200
0000
0010
0000
0010
0000
0310
0100
,
0010
0100
0001
1000
0001
0010
0100
1000
,
0001
0000
0202
0303
0100
0010
0100
2000
,
0000
0000
3200
0000
0302
0000
0013
0200
,
0000
0300
2200
3300
0100
1000
0100
0002
,
0000
0000
0203
0000
0320
0000
0032
1000
,
1003
0000
1010
0000
0010
1000
0001
0200
,
0000
0010
0310
0000
1000
0001
0010
0200
,
0000
1000
1300
0100
0010
0001
0000
0200
,
0000
1300
0100
0000
0010
1000
0001
0100
,
0001
0000
0022
0033
0010
0100
0010
2000
,
0000
0000
3020
0000
0032
0000
0103
0020
,
0000
0030
2020
3030
0010
1000
0010
0002
,
0000
0000
0023
0000
0230
0000
0302
1000
,
1003
0000
1100
0000
0100
1000
0001
0020
,
0000
0100
0130
0000
0010
0001
0100
0020
,
0000
1000
1030
0010
0100
0001
0000
0021
,
0000
0001
0031
0010
0100
1000
0000
2010
,
0000
3001
0001
0012
0000
1003
1000
2100
,
0000
3100
1000
0001
0100
0110
0000
2002
,
0000
0000
0000
0000
0000
0000
3003
0011
;
