#TITLE:MY GIFTS;
#SUBTITLE:;
#ARTIST:D-crew;
#TITLETRANSLIT:;
#SUBTITLETRANSLIT:;
#ARTISTTRANSLIT:;
#GENRE:;
#CREDIT:;
#MUSIC:MY GIFTS.mp3;
#BANNER:MY GIFTS.png;
#BACKGROUND:MY GIFTS-bg.png;
#CDTITLE:./CDTITLES/pop'n music.png;
#SAMPLESTART:33.816;
#SAMPLELENGTH:16.060;
#SELECTABLE:YES;
#OFFSET:1.176;
#BPMS:0.000=185.000;
#STOPS:;
#BGCHANGES:;
#FGCHANGES:;

//--------------- dance-single - about-blank ----------------
#NOTES:
     dance-single:
     about-blank:
     Beginner:
     4:
     0,0,0,0,0:
0000
0000
0000
0000
,
0000
0000
0000
0000
,
0000
0000
0000
0000
,
0000
0000
0000
0000
,
0000
0000
0000
0000
,
1000
0000
0000
0000
,
1000
0000
0000
0000
,
0001
0000
0010
0000
,
0100
0000
0100
0000
,
1000
0001
1000
0001
,
1000
0000
0010
0000
,
1000
0000
1000
0000
,
0001
0000
0001
0000
,
0001
1000
0001
1000
,
0001
0000
0010
0000
,
0001
0000
0001
0000
,
0100
0000
0010
0010
,
1000
0000
0100
0000
,
0001
0000
0010
0000
,
1000
0000
0010
0000
,
0001
0000
0000
0000
,
0001
0000
0100
0000
,
1000
0000
0010
0000
,
0001
0000
0001
0000
,
1000
0000
1000
0000
,
0010
0000
0010
0000
,
0110
0000
1001
0000
,
2000
0000
0000
0000
,
3000
0000
1000
0000
,
0010
0000
0001
0000
,
0010
0000
1000
0000
,
0200
0000
0000
0300
,
0100
0000
0001
0000
,
2000
0000
3000
0000
,
0001
0001
0001
0000
,
2000
0000
0000
0000
,
3000
0000
0100
0000
,
0010
0000
0000
0000
0002
0000
0000
0003
,
2000
0000
0000
3000
0020
0000
0000
0030
,
0200
0000
0000
0000
,
0320
0000
0000
0000
,
2030
0000
0000
0000
,
3002
0000
0000
0000
,
0013
0010
0010
0000
,
0100
0100
0100
0000
,
1001
0000
1001
0000
,
1000
1000
0001
0001
,
2000
0000
0000
0000
,
3000
0010
0010
0010
,
1000
0100
0010
0001
,
0010
0100
1000
0001
,
2000
0000
0000
0000
,
3002
0000
0000
0000
,
0203
0000
0000
0000
,
0310
0010
0010
0010
,
1000
0000
0001
0000
,
0010
0000
0010
0000
,
0100
0000
0100
0000
,
1000
0001
1000
0000
,
0010
0000
0100
0000
,
0001
0000
0001
0000
,
0010
0000
0010
0000
,
0100
0000
0100
0000
,
1000
0000
1000
0000
,
0001
1000
0001
0000
,
0220
0000
0000
0000
,
0000
0000
0000
0000
,
0000
0000
0000
0000
,
0000
0000
0000
0330
,
1000
0000
1000
0000
,
0001
0000
0001
0000
,
0010
0000
0010
0000
,
0100
1001
0000
0000
,
1000
0100
1000
0100
,
1000
0000
0001
0000
,
0100
0000
0010
0000
,
1000
0000
0001
0000
,
0010
0100
0010
0000
,
0001
1000
0001
0000
,
1100
0000
0011
0000
,
1010
0000
0101
0000
,
1000
0000
1000
0000
,
0001
0000
0001
0000
,
0010
0001
1000
0000
,
0110
0000
1001
0000
;

//--------------- dance-single - about-blank ----------------
#NOTES:
     dance-single:
     about-blank:
     Easy:
     7:
     0,0,0,0,0:
0000
0000
0000
0000
,
0000
0000
0000
0000
,
0000
0000
0000
0000
,
0000
0000
0000
0000
,
0000
0000
0000
0000
,
0000
0000
0000
0000
,
0000
0000
0000
0000
,
0000
0000
0000
0000
,
0000
0000
0000
0000
,
1000
0001
0100
0010
,
1000
0001
0010
0100
,
1000
0000
0100
1000
0100
0000
0010
0000
,
0001
0000
0100
0001
0100
0000
0010
0000
,
1000
0001
0010
0100
,
1000
0010
0100
0001
,
1000
0000
0010
1000
0010
0000
0100
0000
,
0001
0000
0010
0001
0010
0000
0100
0000
,
0020
0000
0031
0000
,
1000
0100
0010
0001
,
0200
0000
0301
0000
,
1000
0010
0100
0001
,
2000
0000
0000
0000
3100
0000
0000
0001
,
0000
1000
0000
0000
0100
0000
0000
0000
,
0010
0001
0100
1000
,
0001
0010
1000
0100
,
0010
0001
1000
0010
,
0100
0110
1001
0000
,
1000
0100
0100
0010
,
0001
1000
0010
0100
,
0001
0010
0100
0010
,
0001
0010
1000
0010
,
0001
0000
0100
0000
0010
0100
0010
0000
,
1000
0001
0100
0010
,
1000
0001
0010
0100
,
1000
0100
0010
0001
0000
0220
0000
0330
,
1000
0001
0010
0001
,
0100
0010
0001
0010
,
1000
0001
0010
0100
,
1000
0001
0100
0010
,
1000
0000
0001
0010
0001
0000
1000
0000
,
0001
0000
1000
0010
1000
0000
0001
0000
,
1000
0000
0001
0100
0001
0000
1000
0000
,
0001
0000
1000
0100
1000
0000
0010
0000
,
0100
0100
0001
0001
,
1000
0000
0010
0100
0001
0000
1000
0000
,
0100
0010
0001
1000
,
0010
0100
0010
0100
0010
0000
0110
0000
,
2000
0000
0000
0000
,
3010
0100
0001
1000
,
0100
0001
0100
1000
,
0001
0100
1000
0100
,
0002
0000
0000
1000
0000
0000
1000
0000
,
0100
0000
0000
0100
0000
0000
0103
0000
,
2000
0000
0001
0000
0001
0000
0000
0100
,
0000
0100
0000
0000
0100
0000
3001
0000
,
1000
0001
0100
0010
,
1000
0000
0001
0000
0010
0100
0010
0000
,
0001
1000
0010
0100
,
0001
0000
0010
0000
0100
0010
0100
0000
,
0010
0001
1000
0010
,
0001
0000
0010
0000
1000
0010
1000
0000
,
0001
0000
1000
0000
0010
1000
0010
0000
,
0100
0000
0001
0000
0010
0001
0010
0000
,
0100
1000
0010
0100
,
1001
0110
1001
0000
,
2000
0000
0000
0000
,
0001
0000
0000
0000
,
0010
0000
0000
0000
,
0100
0000
0010
0000
,
3002
0000
0000
0000
,
0100
0000
1000
0000
,
0103
0010
0100
0000
0010
0100
0010
0000
,
1000
0100
0010
0001
0000
0220
0000
0330
,
0001
1000
0001
0100
,
0010
0000
1000
0000
0001
0000
0010
0100
,
1000
0000
0010
0100
0001
0000
1000
0000
,
0001
0010
0001
1000
,
0010
1000
0100
0001
,
1000
0010
0001
0100
,
1000
0001
0010
0100
,
0001
1000
0100
0010
,
0100
0000
1000
0000
0001
0010
0100
0000
,
1000
0000
0010
0000
0100
0001
0100
0000
,
0010
1000
0001
0100
,
0010
0100
0010
0100
0010
0100
0010
0100
;

//--------------- dance-single - about-blank ----------------
#NOTES:
     dance-single:
     about-blank:
     Medium:
     12:
     0,0,0,0,0:
0000
0000
0000
0000
,
0000
0000
0000
0000
,
0000
0000
0000
0000
,
0000
0000
0000
0000
,
0000
0000
0000
0000
,
1000
0000
0000
1000
0000
0000
0100
0000
,
0001
0000
0000
0001
0000
0000
0100
0000
,
1000
0000
0000
1000
0000
0000
0010
0000
,
0001
1000
0001
1000
,
0010
1000
0010
1000
0010
1000
0010
1000
,
0001
0100
0010
1000
,
0100
0000
0010
0001
0100
0000
1000
0000
,
0100
0000
0010
1000
0100
0000
0010
0000
,
0001
0010
0001
0010
0001
0010
0001
0010
,
0001
0000
1000
0000
0001
0000
0100
0010
,
1000
0000
0001
0000
0010
0000
0100
0010
,
0001
0000
1000
0001
0100
0000
0110
0000
,
2000
0000
0000
0000
3100
0000
1000
0010
,
1000
0000
1000
0001
1000
0000
0110
0000
,
0002
0000
0013
0000
0001
0100
0001
0000
,
0001
0010
0001
0000
0010
0000
0100
0000
,
0200
1300
0200
0310
,
0001
1000
0001
0000
0100
0000
0010
0000
,
1000
0100
1000
0000
0001
0100
0001
0000
,
1000
0010
1000
0000
0001
0010
0001
0000
,
1000
0100
0010
0001
0010
0100
1000
0010
,
0100
0110
1001
0000
,
0001
0100
0001
0100
0001
0100
0001
0100
,
1000
0100
0010
1000
,
1000
0000
1000
0100
0020
0000
0031
1000
,
0200
0000
0310
0000
0001
1000
0001
0000
,
0100
0000
0010
0100
2000
0000
3100
0010
,
0200
0301
1000
0100
,
0010
0000
0001
1000
0001
0100
0010
0000
,
1010
0010
0100
0101
0000
2002
0000
3003
,
0001
1000
0001
1000
0001
1000
0001
1000
,
0001
0000
1000
0000
0100
0010
0001
0000
,
1000
0000
0010
0100
0002
0000
1003
0100
,
0020
0000
0130
0000
1000
0001
1000
0000
,
0010
0100
0010
0100
1000
0100
0010
0000
,
1000
0100
1000
0100
0010
0001
1000
0000
,
0001
0010
0001
0010
0100
1000
0010
0000
,
0100
0010
0100
0010
1000
0001
1000
0000
,
0110
0000
0001
1000
1000
0100
0010
0010
,
0001
0000
1000
0010
0100
0001
0010
0100
,
1000
0000
0001
1000
0001
0000
0110
0000
,
1000
1000
0001
0001
0010
0010
0100
0100
,
2000
0000
3000
0100
0000
0000
0100
0000
,
0010
0000
0001
1000
0001
0000
0100
0000
,
0010
1000
0010
1000
0001
0100
0001
0100
,
0010
1000
0010
0100
0001
0100
0010
1000
,
0002
0000
0000
0013
0000
0001
0000
1000
,
0001
0000
1000
0100
0000
0010
0001
0000
,
1000
0000
0001
0010
0100
0010
0001
1000
,
0100
0010
0001
0010
0100
1000
0100
0010
,
0001
0100
0001
0100
0010
1000
0010
1000
,
0001
0000
1000
0100
0010
0000
1001
0000
,
1000
0010
1000
0010
0100
0001
0100
0001
,
1000
0100
0010
0000
0001
0010
0100
0000
,
1000
0001
1000
0001
0100
0010
0100
0010
,
1000
0001
0010
0000
0100
1000
0001
0000
,
1000
0100
1000
0100
0010
0001
0010
0001
,
1000
0010
1000
0010
0100
0001
0100
0001
,
1000
0100
0010
0001
1000
0001
0010
0100
,
1000
0110
1001
0000
,
0002
0000
0000
0000
0000
0000
0000
0003
,
0010
0100
1000
0010
,
0100
0000
0000
0100
0002
0000
0000
0000
,
2003
0000
3010
0100
,
0002
0000
0000
0000
,
0023
0000
0230
0000
,
1300
0001
1000
0001
0100
0010
0100
0010
,
1000
0100
0010
0001
0000
2002
0000
3003
,
1000
0010
1000
0010
0001
0010
0001
0010
,
1000
0100
0010
0001
1000
0001
0100
0010
,
1000
0010
0001
1000
0100
0010
1000
0100
,
1000
0001
0100
0010
1000
0001
0010
0100
,
1000
0000
0100
0010
0001
0010
0100
0000
,
1000
0000
0010
0100
0001
0100
0010
0000
,
1000
0000
0001
0001
0010
0100
1000
0000
,
1000
0100
0001
0100
1000
0010
0001
0010
,
1000
0000
1000
0001
0100
0010
1000
0001
,
0010
0100
1000
0010
0100
0001
1000
0100
,
0010
0001
0100
0010
1000
0100
0001
0100
,
1000
1000
0010
0010
0100
0100
0001
0001
;

//--------------- dance-single - about-blank ----------------
#NOTES:
     dance-single:
     about-blank:
     Hard:
     15:
     0,0,0,0,0:
0000
0000
0000
0000
,
0000
0000
0000
0000
,
0000
0000
0000
0000
,
0000
0000
0000
0000
,
0000
0000
0000
0000
,
2000
0000
0000
0100
0000
0000
0010
3010
,
0002
0000
0000
0100
0000
0000
0013
0000
,
2000
0000
3002
0000
,
2003
0000
0000
0000
0100
0000
0000
0000
3000
0000
0001
0010
0001
0010
0001
0000
,
0100
0010
1000
0010
0100
0010
1000
0001
,
0010
0100
1000
0100
0010
0001
1000
0001
,
2000
0000
0000
0000
3000
0000
0001
0010
0001
0000
0100
0000
0010
0000
0100
0000
,
0002
0000
0000
0000
0003
0000
1000
0010
1000
0000
0001
0000
0100
0000
0000
0000
,
1000
0100
0010
0100
0001
0010
0100
0010
,
0001
0100
0010
1000
0001
0010
0100
1000
,
0020
0000
0000
0000
0030
0000
0100
0001
0100
0000
0010
0000
1000
0000
0000
0000
,
0000
0010
1000
0001
0100
0100
0010
0000
,
1100
0000
1000
0100
0001
0000
0001
0100
,
1000
0000
0001
1000
0100
0000
0110
0000
,
0011
0000
0001
0100
1000
0000
1000
0100
,
0001
0000
0001
0010
0001
0100
0010
0000
,
0101
0000
0001
0100
0010
0000
0010
1000
,
0001
1000
0100
0100
0010
0001
0010
0000
,
0001
1000
0010
0010
0100
0001
1000
0100
,
0010
0001
0100
0100
0001
1000
0001
0100
,
0001
0000
0010
0000
0100
0000
1000
0000
0010
0000
1000
0000
0001
1000
0001
1000
,
0001
0000
0101
0000
1010
0000
0010
0100
,
0002
0010
0013
0100
1000
0001
0010
0100
,
1000
0010
0100
0001
1000
0010
0100
0001
,
2000
0000
3100
0100
0010
0010
0001
0000
,
0001
0100
1000
0100
0010
1000
0100
0010
,
0002
0000
0103
0100
0010
0010
1000
0000
,
1000
0100
0001
0100
1000
0010
0001
0010
,
1000
0000
0001
0000
1000
0100
1000
0000
0001
0000
1000
0000
0001
0100
0001
0000
,
1000
0010
0100
0001
0000
2002
0000
3003
,
2000
0100
3100
0010
0001
1000
0100
0010
,
0001
1000
0010
0100
0001
1000
0010
0100
,
0002
0000
0013
0001
0001
0100
0010
0000
,
1000
0100
0010
0100
1000
0010
0100
0001
,
1000
0100
1000
0000
0010
0000
1000
0000
0001
0000
0100
0000
0001
0000
0010
0000
,
0001
0100
0001
0000
1000
0000
0001
0000
1000
0000
0010
0000
1000
0000
0100
0000
,
1000
0100
0010
0000
0001
0000
1000
0000
0001
0100
0010
0000
1000
0000
0001
0000
,
1000
0010
0100
0000
0001
0000
1000
0000
0001
0010
0100
0000
1000
0000
0001
0000
,
1000
0100
1000
0000
0010
0000
0010
0000
1000
0000
0100
0000
0010
0000
0001
0000
,
0100
0001
0100
0000
0100
0000
0010
0000
1000
0000
0010
0000
0100
0000
0001
0000
,
1000
1000
0001
1000
0001
0001
1000
0001
,
0100
0010
0100
0010
0100
0010
0100
0010
1000
0001
1000
0000
0001
1000
0001
0000
,
2000
0000
0000
0100
0000
0000
3100
0000
,
0001
1000
0100
0010
0001
0010
0100
1000
,
0010
0010
0100
0001
1000
0100
0001
0100
,
1000
1000
0001
0100
0010
1000
0010
0100
,
0002
0000
0013
0100
0100
1000
0001
0001
,
0100
1000
1000
0100
0001
0000
0110
0000
,
0002
0000
1003
0010
0001
0010
1000
0100
,
0010
0000
0100
0000
1000
0000
0001
0000
1000
0000
0010
0000
0100
0001
0100
0001
,
2000
0000
3010
0010
0001
0010
1000
0100
,
0001
0100
1000
0001
1000
0000
1100
0000
,
0012
0000
1003
0100
0002
0000
1003
0010
,
0001
0010
0100
0001
0100
0010
0001
0000
,
0201
0000
1300
0001
0020
0000
1030
0100
,
0010
0010
0001
1000
0001
0001
1000
1000
,
0010
0100
0010
0100
0001
1000
0001
1000
,
0100
0010
0100
0010
0001
1000
0001
1000
,
0010
0000
0010
0000
0100
0000
0100
0000
0001
0010
0001
0010
0001
0010
0001
0010
,
0001
0000
1001
0000
1100
0001
1000
0000
,
0200
0000
0000
0000
,
0300
0010
0001
1000
,
0010
0000
0020
0000
,
0130
0001
1000
0100
,
2000
0000
0001
0000
,
3002
0000
0100
0000
,
0103
0000
0001
0000
1000
0000
0010
0000
0100
0001
0100
0001
0100
0001
0100
0001
,
1000
0100
0010
0001
0000
2002
0000
3003
,
1000
0000
0010
0000
0100
0010
0100
0000
0001
0000
1000
0000
0001
0000
0001
0000
,
0010
0000
0100
0000
1000
0001
1000
0000
0001
0000
0100
0000
0010
0000
1000
0000
,
0002
0000
0000
0000
0013
0000
0100
0010
0100
0000
0010
0000
0001
0000
0001
0000
,
1000
0001
0100
0010
1000
0001
0010
0100
,
0010
0001
0010
0000
0001
0000
1000
0000
0010
0000
0100
0000
0001
0000
1000
0000
,
0100
0010
0100
0000
1000
0000
0010
0000
1000
0000
0001
0000
0100
0000
0001
0000
,
1000
0001
1000
0000
0010
0000
0100
0000
0001
1000
0001
0000
0010
0000
0100
0000
,
1000
0010
0100
0001
0010
0100
1000
0001
,
0100
0000
0100
0000
0010
0000
0010
0000
1000
0001
1000
0000
0001
1000
0001
0000
,
0010
0010
0100
1000
0010
0100
0001
1000
,
0100
0010
0001
0000
1000
0000
0001
0000
0100
0010
1000
0000
0001
0000
1000
0000
,
0010
1000
0010
1000
0001
1000
0001
0000
1000
0100
1000
0000
0001
0100
0001
0000
;
