#TITLE:MOON;
#SUBTITLE:;
#ARTIST:dj TAKA feat.Erika;
#TITLETRANSLIT:;
#SUBTITLETRANSLIT:;
#ARTISTTRANSLIT:;
#GENRE:;
#CREDIT:;
#MUSIC:MOON.ogg;
#BANNER:MOON.png;
#BACKGROUND:MOON-bg.png;
#CDTITLE:./CDTITLES/Pop'n Music.png;
#SAMPLESTART:40.790;
#SAMPLELENGTH:15.000;
#SELECTABLE:YES;
#OFFSET:0.000;
#BPMS:0.000=156.000;
#STOPS:;
#BGCHANGES:;
#FGCHANGES:;

//--------------- dance-single - KONAMI ----------------
#NOTES:
     dance-single:
     KONAMI:
     Beginner:
     3:
     0,0,0,0,0:
0000
0000
0000
0000
,
0000
0000
0000
0000
,
0000
0000
0000
0000
,
0000
0000
0000
0000
,
0010
0000
0000
0000
,
0100
0000
0000
0000
,
0001
0000
1000
0000
,
0001
0000
1000
0000
,
0010
0000
0000
0000
,
1000
0000
0000
0000
,
0001
0000
0001
0000
,
0010
0000
0000
0000
,
0100
0000
0100
0000
,
1000
0000
0000
0000
,
0001
0000
0100
0000
,
1000
0000
0100
0000
,
0010
0000
0000
0000
,
0100
0000
0000
0000
,
0001
0000
0001
0000
,
1000
0000
1000
0000
,
0010
0000
0010
0000
,
0100
0000
0100
0000
,
1000
0000
0000
0000
,
0001
0000
0000
0000
,
0100
0000
0000
0000
,
0010
0000
0000
0000
,
1001
0000
0000
0000
,
0100
0000
1000
0000
,
0100
0000
0001
0000
,
1000
0000
0010
0000
,
1000
0000
0001
0000
,
1000
0000
0000
0000
,
0100
0000
0000
0000
,
0010
0000
0001
0000
,
0100
0000
1000
0000
,
0001
0000
0100
0000
,
0001
0000
0010
0000
,
0100
0000
0010
0000
,
0001
0000
0100
0000
,
1000
0000
0000
0000
,
0001
0000
0000
0000
,
0010
0000
1000
0000
,
0001
0000
0100
0000
,
0010
0000
0000
0000
,
0100
0000
0000
0000
,
0001
0001
0001
0000
,
1000
1000
1000
0000
,
0010
0000
0100
0000
,
0010
0000
0100
0000
,
0001
0000
0010
0000
,
0100
0000
1000
0000
,
0010
0000
1000
0000
,
0100
0000
1000
0000
,
0001
0001
0001
0000
,
1000
1000
1000
0000
,
0010
0000
0100
0000
,
0010
0000
1000
0000
,
0001
0000
1000
0000
,
0100
0000
0010
0000
,
1000
0000
0001
0000
,
0100
0000
0010
0000
,
1001
0000
0000
0000
;

//--------------- dance-single - KONAMI ----------------
#NOTES:
     dance-single:
     KONAMI:
     Easy:
     3:
     0,0,0,0,0:
0000
0000
0000
0000
,
0000
0000
0000
0000
,
0000
0000
0000
0000
,
0000
0000
0000
0000
,
0010
0000
0000
0000
,
0100
0000
0000
0000
,
0001
0000
1000
0000
,
0001
0000
1000
0000
,
0010
0000
0000
0000
,
2000
0000
0000
3000
,
0001
0000
0001
0000
,
0010
0000
0000
0000
,
0100
0000
0100
0000
,
1000
0000
0000
0000
,
0001
0000
0100
0000
,
1000
0000
0100
0000
,
0010
0000
0000
0000
,
0100
0000
0000
0000
,
0001
0000
0001
0000
,
1000
0000
1000
0000
,
0010
0000
0010
0000
,
0100
0000
0100
0000
,
2000
0000
0000
3000
,
0002
0000
0000
0003
,
0200
0000
0000
0300
,
0020
0000
0000
0030
,
2002
0000
0000
3003
,
0100
0000
1000
0000
,
0100
0000
0001
0000
,
1000
0000
0010
0000
,
1000
0000
0001
0000
,
1000
0000
0000
0000
,
0100
0000
0000
0000
,
0010
0000
0001
0000
,
0100
0000
1000
0000
,
0001
0000
0100
0000
,
0001
0000
0010
0000
,
0100
0000
0010
0000
,
0001
0000
0100
0000
,
2000
0000
0000
3000
,
0002
0000
0000
0003
,
0010
0000
1000
0000
,
0001
0000
0100
0000
,
0020
0000
0000
0030
,
0200
0000
0000
0300
,
0001
0001
0001
0000
,
1000
1000
1000
0000
,
0010
0000
0100
0000
,
0010
0000
0100
0000
,
0001
0000
0010
0000
,
0100
0000
1000
0000
,
0010
0000
1000
0000
,
0100
0000
1000
0000
,
0001
0001
0001
0000
,
1000
1000
1000
0000
,
0010
0000
0100
0000
,
0010
0000
1000
0000
,
0001
0000
1000
0000
,
0100
0000
0010
0000
,
1000
0000
0001
0000
,
0100
0000
0010
0000
,
1001
0000
0000
0000
;

//--------------- dance-single - KONAMI ----------------
#NOTES:
     dance-single:
     KONAMI:
     Medium:
     7:
     0,0,0,0,0:
0000
0000
0000
0000
,
0000
0000
0000
0000
,
0000
0000
0000
0000
,
0000
0000
0000
0000
,
1000
0100
0010
0001
,
1010
0000
0101
0000
0010
0010
0010
0000
,
0001
0100
1000
0100
,
1000
0010
0001
0100
,
1000
0001
1000
0010
,
0100
0000
0000
0001
0000
0000
1000
0000
0000
0000
0100
0000
0010
0000
0000
0000
,
0001
0100
1000
0001
,
1000
0000
0010
0000
0001
0010
0100
0000
,
0001
1000
0100
0001
,
0010
0000
0100
0000
0001
1000
0100
0000
,
0010
0001
0010
0000
1100
0000
0000
0000
,
0010
1000
0010
0000
0101
0000
0000
0000
,
1000
0010
0100
0001
,
0010
0000
1000
0001
0000
0010
0100
0000
,
0001
0010
1000
0100
,
0010
0000
0001
0000
0100
0001
0010
0000
,
1000
0100
0010
0100
,
1000
0000
0010
0000
0001
0100
1000
0000
,
0001
0100
1000
0100
,
0010
0000
1000
0000
0001
0010
0100
0000
,
0002
0000
0200
0303
,
0010
0000
1000
0100
0000
0001
0100
0000
,
2002
0000
0000
3003
,
1010
0000
0100
0000
0001
0000
0010
0100
,
0000
0001
0000
0000
1000
0000
0010
0000
,
0001
0000
0100
0000
1000
0000
0001
0010
,
0000
0100
0000
0000
1000
0000
0010
0000
,
0001
0100
1000
0010
,
1000
0100
0010
0001
,
1010
0100
0011
0100
,
1000
0000
0001
1000
0000
0010
0100
0000
,
1000
0000
0100
0000
0010
0000
1000
0010
,
0000
0100
0000
0000
0001
0000
0100
0000
,
0010
0000
0001
0000
1000
0000
0001
0100
,
0000
0010
0000
0000
0100
0000
0001
0000
,
0010
1000
0010
0001
,
1000
0100
0010
0100
,
0001
0100
1000
0010
,
0001
0000
0100
1000
0000
0010
0100
0000
,
0002
0000
2000
3003
,
0010
0000
0000
0001
0000
0000
0200
0000
0000
0000
0000
0000
0300
0000
0000
0000
,
0010
1000
0001
0010
,
0100
0001
1000
0010
,
1000
1000
1000
0000
0001
0001
0001
0000
,
1001
0110
0001
0100
,
1000
0100
0010
0100
,
0001
1000
0100
1001
,
0100
0010
0001
0100
,
0001
0100
0010
1000
,
0001
0000
0000
0001
0000
0000
0001
0000
0000
0000
1000
0000
0100
0000
0000
0000
,
1000
0000
0000
1000
0000
0000
1000
0000
0000
0000
0001
0000
0100
0000
0000
0000
,
1000
0100
0001
0100
,
1001
0000
0110
0000
1000
1000
1000
0000
,
0100
0001
0010
1000
,
0010
0100
0001
1100
,
0001
0010
0001
0000
1000
0010
1000
0000
,
0010
0000
0000
0010
0000
0000
0010
0000
0000
0000
0100
0000
0001
0000
0000
0000
,
1001
0000
0000
0000
;

//--------------- dance-single - KONAMI ----------------
#NOTES:
     dance-single:
     KONAMI:
     Hard:
     10:
     0,0,0,0,0:
0000
0000
0000
0000
,
0000
0000
0000
0000
,
0000
0000
0000
0000
,
0000
0000
0000
0000
,
1000
0001
0100
0000
0010
0001
0100
0000
,
1010
0000
0101
0000
0001
0010
0100
0000
,
0010
1000
0100
0000
1000
0001
0100
0010
,
1000
0000
0000
0100
0000
0000
0010
0000
0000
0000
0001
0000
0100
0000
0000
0000
,
1000
0100
0001
0000
1000
0001
0100
0000
,
0010
0000
0000
0001
0000
0000
1000
0000
0000
0000
0100
0000
0010
0000
0001
0000
,
0010
0000
0100
0000
1000
0010
0100
0000
,
1000
0000
0010
0100
0001
0010
0100
0000
,
0001
0000
1000
0000
0100
0010
0001
0000
,
0010
0000
0100
1000
0001
1000
0100
0000
,
0010
0000
0000
0100
0000
0000
0001
0000
0001
0000
0000
0000
1100
0000
0000
0000
,
0010
0000
0000
0100
0000
0000
1000
0000
1000
0000
0000
0000
0101
0000
0000
0000
,
1000
0001
0010
0000
0100
1000
0010
0000
,
0110
0000
1000
0001
0000
0010
0100
1000
,
0010
0000
0100
0000
1000
0001
0100
0000
,
0010
0000
0001
0010
0100
0010
0001
0000
,
1000
0000
0100
0000
0010
0100
1000
0000
,
0010
0000
0100
0001
0010
0100
1000
0000
,
0001
0000
0100
0000
0001
1000
0100
0000
,
0010
0000
1000
0000
0001
0010
0100
0000
,
0001
0000
1000
0010
0100
0010
1000
0000
,
0001
0000
1000
0010
0000
0001
0100
0010
,
2002
0000
0000
3003
,
1010
0000
1100
0000
0001
1000
0010
0200
,
0000
1000
0000
0010
0300
0001
0010
0000
,
0001
1000
0100
0000
1000
0001
0010
0002
,
0000
0100
0000
1000
1003
0000
0010
0100
,
0001
0000
0100
0000
0010
1000
0010
0000
,
1000
0000
0100
0010
0000
0001
0010
0000
,
1000
0010
0100
0000
0001
0010
0100
0000
,
1000
0000
0001
1000
0000
0010
0100
0010
,
1000
0000
0100
0000
0010
0001
1000
0020
,
0000
0100
0000
0001
0030
1000
0100
0000
,
0010
0001
0100
0000
0010
1000
0001
0200
,
0000
1000
0000
0010
0310
0000
0001
1000
,
0010
0000
1000
0000
0010
0100
0001
0000
,
1000
0000
0100
0010
0000
0001
0100
0000
,
1000
0001
0100
0000
0010
1000
0010
0000
,
0011
0000
0100
1000
0000
0010
0100
0001
,
2000
0000
0200
3300
,
0010
0000
0000
0001
0000
0000
0100
0000
1000
0000
0100
0000
0001
0000
0010
0000
,
0100
0000
0000
1000
0000
0000
0001
0000
1000
0000
0010
0000
1000
0000
0000
0000
,
0100
0000
0000
0001
0000
0000
1000
0000
0001
0000
0010
0000
0001
0000
0000
0000
,
0010
1000
0100
0000
0010
0001
0100
0000
,
1001
0000
0110
0000
0001
0010
0100
0000
,
1000
0001
0100
0000
0010
0100
0010
0100
,
0001
0000
0000
1000
0000
0000
0100
0000
0000
0000
1000
0000
0010
0000
0000
0000
,
0001
0010
1000
0000
0001
0100
1000
0000
,
0011
0000
0101
0000
1010
0000
1100
0001
,
0100
0000
0000
0001
0000
0000
1000
0000
0010
0000
1000
0000
0100
0000
0000
0000
,
1000
0000
0000
0001
0000
0000
0100
0000
0001
0000
0010
0000
0001
0000
0000
0000
,
1000
0100
1000
0000
0001
0100
0001
0000
,
1001
0000
0110
0000
0001
1000
0010
0000
,
0100
0001
0010
0000
0100
1000
0100
1000
,
0001
0000
0000
0010
0000
0000
0100
0000
0000
0000
1000
0000
0100
0000
0000
0000
,
0001
0010
1000
0000
0010
0001
1000
0000
,
0011
0000
0000
0110
0000
0000
1100
0000
0000
0000
0001
0000
1000
0000
0010
0000
,
0101
0000
0000
0000
;

//--------------- dance-single - eataninja ----------------
#NOTES:
     dance-single:
     eataninja:
     Challenge:
     13:
     0,0,0,0,0:
0000
0000
0000
0000
,
0000
0000
0000
0000
,
0000
0000
0000
0000
,
0000
0000
0000
0000
,
0000
0000
0000
0000
,
0000
0000
0000
0000
,
1000
0000
0001
0000
0001
0000
0000
0000
0010
0100
0010
0000
0100
1000
0001
0000
,
0100
0000
0000
0010
0000
0000
2000
0000
0000
0000
3001
0000
0001
0010
0000
0000
,
0100
0000
0010
0000
0001
1000
0001
0000
0100
0000
0010
0000
1000
0001
1000
0000
,
0010
0000
0000
0100
0000
0000
0110
0000
0000
0010
1000
0000
0001
0000
0010
0000
,
0100
1000
0100
1000
0001
1000
0001
1000
,
0010
0100
0010
1000
0100
0010
0001
1000
,
0001
0100
0001
0100
0001
1000
0001
1000
,
0100
0001
0100
0010
0001
1000
0010
0100
,
1000
0000
0000
0100
0000
0000
0001
0000
0002
0000
0000
0000
0000
0000
0013
0000
,
0100
0100
0010
1000
0000
0010
0100
1000
,
0001
0000
1000
0010
0100
0010
1000
0000
,
1001
0000
0011
1001
0000
1000
0010
1000
,
0100
0000
0010
0000
0001
1000
0001
0000
0100
0000
0010
0000
1000
0001
1000
0000
,
0010
0001
0010
1000
0001
0010
0100
0000
,
1000
0000
0001
0000
0010
0001
0010
0000
0001
0000
1000
0000
0010
0100
0010
0000
,
0001
0010
0100
0001
1000
1000
0001
0000
,
0011
0010
0100
0000
1000
0001
1000
0000
,
0010
0021
0100
1030
,
0001
1000
0100
0100
0010
0001
0100
0010
,
1001
0000
1010
1001
0000
0001
0010
0100
,
1000
0000
0000
0000
0100
0001
1000
0010
,
0001
0000
0001
0010
0001
1000
0010
0100
,
1000
0100
0001
0010
0100
0100
1000
0001
,
0100
0010
0001
0010
0001
0010
0100
0001
,
0010
0100
1000
0001
1000
0010
0100
0000
,
0100
0000
0001
0000
1000
0000
0001
0000
0010
0100
2000
0000
0000
0000
3000
0000
,
0010
0000
1000
0000
0001
0000
1000
0000
0100
0010
0002
0000
0000
0000
0003
0000
,
1000
0010
1000
0010
0001
1000
0100
0001
,
1001
0000
1100
1001
0000
0001
0010
0100
,
1000
0000
1000
0010
0100
0100
0010
0001
,
0010
0100
0001
0010
0100
0001
0100
1000
,
0001
1000
0100
0001
0100
0001
0100
0010
,
0001
1000
0010
0100
0001
0001
1000
0000
,
0100
0000
0010
0000
0001
0000
0001
0000
1000
0001
0200
0000
0000
0000
0300
0000
,
0010
0000
0100
0000
0001
0000
0001
0000
1000
0001
0020
0000
0000
0000
0030
0000
,
0100
1000
0100
0001
1000
0010
0001
1000
,
0010
0100
0010
0002
0000
1003
0100
0001
,
1000
0100
1000
0000
0001
0010
0001
0000
,
0101
0000
0000
0101
0000
0000
0101
0000
0000
0000
1000
0000
0001
0010
0100
0000
,
1000
0000
0000
0001
0000
0000
2001
0000
0000
0000
3010
0000
0100
0001
0100
0000
,
0010
0000
0000
1000
0000
0000
1002
0000
0000
0000
0013
0000
0100
0010
0100
0000
,
1000
0000
0001
0000
0100
0000
0010
0000
1000
0001
0010
0000
0100
0000
1000
0000
,
0002
0000
0000
0000
2003
0000
0000
0000
3010
0000
0010
0100
0001
0000
0000
0000
,
1000
0000
1001
0000
1001
0000
0000
0000
0001
0010
0100
0000
1000
0000
0010
0000
,
0001
0000
0000
0010
0000
0000
0210
0000
0000
0000
0301
0000
0001
1000
0000
0000
,
0100
0000
0100
0000
1000
0001
1000
0000
0100
0000
0100
0000
1000
0001
1000
0000
,
0001
0100
0001
0100
0020
0000
0000
0000
1030
0000
0001
0000
0010
0000
0100
0000
,
1000
0000
0000
1001
0000
0000
0201
0000
0000
0000
0310
0000
1000
0000
0001
0000
,
0011
0000
0000
0110
0000
0000
2100
0000
0000
0000
3001
0000
1000
0000
0010
0000
,
0100
0010
0100
0000
0001
0000
0010
0000
0100
1000
0001
0000
1000
0000
0010
0000
,
0200
0000
0000
0000
0320
0000
0000
0000
1030
0000
1000
0001
0010
0000
0000
0000
,
0100
0000
1100
0000
1100
0000
0000
0000
0001
1000
0001
0000
1000
0010
0100
0000
,
1000
0000
0000
0100
0000
0000
0002
0000
0000
0000
1003
0000
1000
0001
0000
0000
,
0010
0000
0010
0000
0001
1000
0001
1000
0010
0000
0010
0000
1000
0001
1000
0001
,
0010
0000
0000
0100
0000
0000
1000
0000
0000
0010
0100
0000
0001
0000
1000
0000
,
1100
0000
0000
0000
;

//--------------- dance-double - KONAMI ----------------
#NOTES:
     dance-double:
     KONAMI:
     Easy:
     1:
     0,0,0,0,0:
00000000
00000000
00000000
00000000
,
00000000
00000000
00000000
00000000
,
00000000
00000000
00000000
00000000
,
00000000
00000000
00000000
00000000
,
00001000
00000000
00000000
00000000
,
00010000
00000000
00000000
00000000
,
00100000
00000000
00000000
00000000
,
01000000
00000000
00000000
00000000
,
00010000
00000000
00000000
00000000
,
10000000
00000000
00000000
00000000
,
01000000
00000000
01000000
00000000
,
00010000
00000000
00000000
00000000
,
00001000
00000000
00001000
00000000
,
00000010
00000000
00000000
00000000
,
00000002
00000000
00000000
00000003
,
00002000
00000000
00000000
00003000
,
00000200
00000000
00000000
00000300
,
00000010
00000000
00000010
00000000
,
00000001
00000000
00000001
00000000
,
00000100
00000000
00000100
00000000
,
00001000
00000000
00001000
00000000
,
00010000
00000000
00010000
00000000
,
00100000
00000000
00100000
00000000
,
01000000
00000000
01000000
00000000
,
00010000
00000000
10000000
00000000
,
00010000
00000000
10000000
00000000
,
00200000
00000000
00000000
00300000
,
10000000
00000000
01000000
00000000
,
00010000
00000000
00001000
00000000
,
00000100
00000000
00000001
00000000
,
00002000
00000000
00000000
00003000
,
00000010
00000010
00000010
00000000
,
00000100
00000100
00000100
00000000
,
00000001
00000000
00001000
00000000
,
00000010
00000000
00000000
00000000
,
00000001
00000000
00000010
00000000
,
00001000
00000000
00010000
00000000
,
00100000
00000000
10000000
00000000
,
01000000
00000000
00000000
00000000
,
00010000
00010000
00010000
00000000
,
10000000
10000000
10000000
00000000
,
00100000
00000000
01000000
00000000
,
10000000
00000000
00010000
00000000
,
02000000
00000000
00000000
03000000
,
00100000
00100000
00100000
00000000
,
10000000
00000000
10000000
00000000
,
00010000
00000000
00010000
00000000
,
00100000
00000000
01000000
00000000
,
00010000
00000000
00001000
00000000
,
00000010
00000000
00000010
00000000
,
00000100
00000000
00000100
00000000
,
00000001
00000000
00001000
00000000
,
00000001
00000000
00001000
00000000
,
00000001
00000000
00000010
00000000
,
00002000
00000000
00000000
00003000
,
00010000
00000000
00100000
00000000
,
20000000
00000000
00000000
30000000
,
00010000
00010000
00010000
00000000
,
10000000
10000000
10000000
00000000
,
00100000
00000000
01000000
00000000
,
00010000
00000000
00001000
00000000
,
00010000
00000000
00000000
00000000
;

//--------------- dance-double - KONAMI ----------------
#NOTES:
     dance-double:
     KONAMI:
     Medium:
     8:
     0,0,0,0,0:
00000000
00000000
00000000
00000000
,
00000000
00000000
00000000
00000000
,
00000000
00000000
00000000
00000000
,
00000000
00000000
00000000
00000000
,
00001000
00010000
01000000
10000000
,
00100000
00000000
00010000
00000000
00100000
00100000
00100000
00000000
,
00010000
00001000
00000010
00000001
,
00000010
00000000
00000000
00000010
00000000
00000000
00000010
00000000
00000000
00000000
00000100
00000000
00000100
00000000
00000000
00000000
,
00001000
00001000
00000001
00000000
00000001
00000001
00001000
00000000
,
00000010
00000000
00000000
00000100
00000000
00000000
00000001
00000000
00000000
00000000
00001000
00000000
00000100
00000000
00000000
00000000
,
00000010
00001000
00000100
00001000
,
00000001
00000000
00000010
00000000
00000001
00001000
00000100
00000000
,
00001000
00010000
00100000
01000000
,
10000000
00000000
00100000
00000000
01000000
00010000
10000000
00000000
,
00100000
00100000
00100000
00000000
01010000
00000000
00000000
00000000
,
10000000
10000000
10000000
00000000
01100000
00000000
00000000
00000000
,
10000000
01000000
00010000
00001000
,
00000010
00000000
00000001
00001000
00000000
00000010
00000100
00000000
,
00001000
00010000
00100000
00010000
,
00001000
00000000
00000100
00000000
00000001
00000100
00000010
00000000
,
00001000
00010000
00100000
10000000
,
00100000
00000000
00010000
00000000
00001000
00000100
00000010
00000000
,
00010000
00001000
01000000
00010000
,
00100000
10000000
00100000
01000000
,
00010000
01000000
00010000
00000000
10000000
01000000
10000000
00000000
,
00100000
00000000
10000000
00100000
00000000
01000000
00010000
00000000
,
00022000
00000000
00000000
00033000
,
00001000
00000100
00000001
00000010
,
00000101
00001010
00000101
00001010
,
00001000
00010000
00100000
10000000
,
01100000
10010000
01100000
10010000
,
00010000
00010000
00010000
00000000
11000000
00000000
00000000
00000000
,
10000000
10000000
10000000
00000000
01010000
00000000
00000000
00000000
,
00100000
00001000
00010000
00000100
,
00000010
00000000
00000001
00000100
00000000
00001000
00000100
00000000
,
00001000
00000001
00000010
00000100
,
00001010
00000011
00001010
00000011
,
00000100
00001000
00010000
00100000
,
11000000
00110000
10100000
01010000
,
00100000
00100000
00100000
00000000
10010000
00000000
00000000
00000000
,
01000000
01000000
01000000
00000000
10100000
00000000
00000000
00000000
,
01000000
10000000
00100000
00010000
,
00001000
00000000
00010000
00001000
00000000
00000100
00000001
00000000
,
00000020
00000000
00000000
00000030
,
00000001
00000000
00000000
00001000
00000000
00000000
00000200
00000000
00000000
00000000
00000000
00000000
00000300
00000000
00000000
00000000
,
00001000
00000000
00000000
00000010
00000000
00000000
00001000
00000000
00000000
00000000
00000001
00000000
00000100
00000000
00000000
00000000
,
00000001
00000000
00000000
00000010
00000000
00000000
00000001
00000000
00000000
00000000
00001000
00000000
00000100
00000000
00000000
00000000
,
00001000
00010000
00100000
10000000
,
00100000
00000000
00010000
00000000
10000000
10000000
10000000
00000000
,
00100000
01000000
10000000
01000000
,
00010000
00000000
00000000
00010000
00000000
00000000
00010000
00000000
00000000
00000000
00100000
00000000
00010000
00000000
00000000
00000000
,
01000000
00001000
00010000
00000010
,
00010000
00000100
00000000
00011000
,
00001000
00000000
00000000
00001000
00000000
00000000
00001000
00000000
00000000
00000000
00000100
00000000
00000001
00000000
00000000
00000000
,
00000010
00000000
00000000
00000010
00000000
00000000
00000010
00000000
00000000
00000000
00000100
00000000
00001000
00000000
00000000
00000000
,
00000010
00001000
00010000
01000000
,
00010000
00000000
00100000
00000000
01000000
01000000
01000000
00000000
,
10000000
00100000
00010000
10000000
,
00010000
00000000
00000000
00010000
00000000
00000000
00010000
00000000
00000000
00000000
10000000
00000000
01000000
00000000
00000000
00000000
,
00010000
00010000
00010000
00000000
00001000
00001000
00001000
00000000
,
00000010
00000000
00000000
00000010
00000000
00000000
00000010
00000000
00000000
00000000
00001000
00000000
00010000
00000000
00000000
00000000
,
00011000
00000000
00000000
00000000
;

//--------------- dance-double - KONAMI ----------------
#NOTES:
     dance-double:
     KONAMI:
     Hard:
     10:
     0,0,0,0,0:
00000000
00000000
00000000
00000000
,
00000000
00000000
00000000
00000000
,
00000000
00000000
00000000
00000000
,
00000000
00000000
00000000
00000000
,
00100000
10000000
01000000
00000000
00100000
00010000
10000000
00000000
,
01100000
00000000
10010000
00000000
00010000
00100000
01000000
00000000
,
00010000
00001000
00000010
00000000
00000001
00000100
00000001
00000100
,
00000010
00000000
00000000
00001000
00000000
00000000
00000100
00000000
00000000
00000000
00010000
00000000
00001000
00000000
00000000
00000000
,
00010000
01000000
00010000
00000000
00100000
00010000
01000000
00000000
,
10100000
00000000
00000000
01010000
00000000
00000000
10010000
00000000
00000000
00000000
01000000
00000000
00100000
00000000
00010000
00000000
,
10000000
00000000
01000000
01000000
10000000
00100000
00000000
00010000
,
00000000
00001000
00000000
00000010
00000001
00001000
00000100
00000000
,
00001000
00000000
00000010
00000010
00000100
00000001
00000000
00000010
,
00000000
00000001
00000000
00000010
00000100
00010000
00001000
00100000
,
00010000
00000000
00000000
01000000
00000000
00000000
00010000
00000000
00000000
00000000
00000000
00000000
00000000
00000000
10000000
00000000
,
00100000
01000000
00100000
10000000
00000000
10000000
01000000
00100000
,
00010000
00000000
00001000
00000100
00000001
00000000
00001001
00000000
,
00000110
00000000
00000001
00001000
00000000
00000010
00000100
00000001
,
00000010
00000000
00001000
00010000
00000000
00100000
10000000
00000000
,
00100000
00000000
00010000
00000000
01000000
00100000
10000000
00000000
,
00010000
00000000
10000000
01000000
00000000
00100000
01000000
10000000
,
00000000
00010000
01000000
00000000
00100000
10000000
01000000
00010000
,
00001000
00000000
00001000
00000100
00000010
00000000
00001000
00000010
,
00000000
00000001
00000100
00000000
00000010
00001000
00000100
00000000
,
00000001
00000001
00001000
00001000
00000100
00000010
00000100
00010000
,
00001000
00000000
00010000
01000000
00000000
00100000
00001000
01000000
,
00022000
00000000
00033000
00000000
00000010
00010000
00001000
00100000
,
00010000
00000000
01000000
00000000
00010000
00100000
01000000
10000000
,
00000000
00010000
00000000
01000000
00010000
00100000
00010000
00100000
,
00001000
00000000
00000010
00000001
00000100
00001000
00000000
00000100
,
00000000
00000001
00000000
00001000
00000001
00000100
00000001
00001000
,
00000000
00000100
00000010
00000000
00000001
00000000
00000100
00001000
,
00000000
00010000
01000000
10000000
00000000
00010000
00100000
00000000
,
00000000
00100000
01000000
00010000
00010000
10000000
01000000
10000000
,
00100000
00000000
00010000
10000000
00000000
01000000
00010000
00001000
,
00000010
00000000
00000100
00000000
00000001
00000010
00000100
00001000
,
00000000
00000100
00000100
00000000
00000010
00000100
00001000
00000100
,
00000000
00000001
00000010
00000000
00000100
00001000
00010000
00001000
,
00000000
00010000
01000000
00000000
00100000
00100000
00010000
10000000
,
00000000
00100000
10000000
00000000
00100000
00000000
00010000
01000000
,
00000000
10000000
01000000
00100000
00000000
00010000
01000000
00000000
,
00000000
00001000
00010000
00000100
00001000
00000001
00000010
00000000
,
00001100
00000000
00000001
00000100
00000000
00000010
00000001
00000100
,
00000002
00000000
00002000
00003003
,
00001010
00000000
00000000
00000110
00000000
00000000
00000101
00000000
00000010
00000000
00000100
00000000
00000001
00000000
00000100
00000000
,
00001000
00000000
00000000
00010000
00000000
00000000
01000000
00000000
10000000
00000000
00100000
00000000
00010000
00000000
00000000
00000000
,
00100000
00000000
00000000
10000000
00000000
00000000
01000000
00000000
10000000
00000000
00010000
00000000
01000000
00000000
00000000
00000000
,
00100000
00010000
00001000
00000000
00010000
00001000
00000010
00000000
,
00001001
00000000
00000110
00000000
00001000
00000100
00000001
00000000
,
00001000
00000001
00000100
00000000
00000001
00000010
00000001
00000100
,
00001000
00000000
00000000
00010000
00000000
00000000
00100000
00000000
00000000
00000000
10000000
00000000
00100000
00000000
00000000
00000000
,
00010000
00100000
01000000
00000000
10000000
00100000
01000000
00000000
,
10000000
00010000
00100000
00000000
01000000
00010000
00001000
00000100
,
00000001
00000000
00000000
00001000
00000000
00000000
00000100
00000000
00000010
00000000
00000001
00000000
00000100
00000000
00000000
00000000
,
00000001
00000000
00000000
00001000
00000000
00000000
00000100
00000000
00010000
00000000
00001000
00000000
00100000
00000000
00000000
00000000
,
00010000
00100000
01000000
00000000
00010000
01000000
00100000
00000000
,
10010000
00000000
01100000
00000000
00010000
00100000
01000000
00000000
,
01000000
10000000
00100000
00000000
01000000
00010000
01000000
00010000
,
10000000
00000000
00000000
00100000
00000000
00000000
00010000
00000000
00000000
00000000
00001000
00000000
00000010
00000000
00000000
00000000
,
00000100
00001000
00000010
00000000
00000100
00000001
00000010
00000000
,
00001100
00000000
00000000
00001001
00000000
00000000
00000101
00000000
00000000
00000000
00000010
00000000
00001000
00000000
00010000
00000000
,
00011000
00000000
00000000
00000000
;
