#TITLE:MOMENT 40;
#SUBTITLE:;
#ARTIST:MOSHIC;
#TITLETRANSLIT:;
#SUBTITLETRANSLIT:;
#ARTISTTRANSLIT:;
#GENRE:;
#CREDIT:;
#MUSIC:MOMENT 40.ogg;
#BANNER:MOMENT 40.png;
#BACKGROUND:MOMENT 40-bg.png;
#CDTITLE:./CDTITLES/DANCE DANCE REVOLUTION ULTRAMIX 3.png;
#SAMPLESTART:55.010;
#SAMPLELENGTH:15.000;
#SELECTABLE:YES;
#OFFSET:0.000;
#BPMS:0.000=133.000;
#STOPS:;
#DISPLAYBPM:132.000;
#BGCHANGES:;
#FGCHANGES:;

//--------------- dance-single - KONAMI ----------------
#NOTES:
     dance-single:
     KONAMI:
     Beginner:
     2:
     0,0,0,0,0:
0000
0000
0000
0000
,
0000
0000
0000
0000
,
0000
0000
0000
0000
,
0000
0000
0000
0000
,
0000
0000
0000
0000
,
1000
1000
0000
0001
,
0001
0000
0100
0100
,
0000
0000
0100
0000
,
0001
0000
0000
0000
,
1000
1000
0000
0001
,
0001
0000
0010
0010
,
0000
0000
0010
0000
,
0001
0000
0000
0000
,
1000
0000
0001
0000
,
1000
0000
0100
0000
,
0100
0000
0010
0000
,
0010
0000
0001
0000
,
0001
0000
1000
0000
,
1000
0000
0100
0000
,
0100
0000
0010
0000
,
0010
0000
0001
0000
,
0001
0000
1000
0000
,
1000
0000
0001
0000
,
0000
0010
0000
0000
,
0100
0000
0000
1000
,
0000
0000
0001
0000
,
0000
1000
1000
0000
,
0000
0010
0000
0000
,
0100
0000
0000
0001
,
0000
0000
1000
0000
,
0000
0001
0001
0000
,
0100
0000
0100
0000
,
0000
0000
0010
0000
,
1000
0000
1000
0000
,
0000
0000
0010
0000
,
1000
0000
1000
0000
,
0001
0000
0001
0000
,
0100
0000
0100
0000
,
0010
0000
0010
0000
,
0100
0000
0100
0000
,
0001
0000
1000
0000
,
0001
0000
0000
0000
,
0100
0000
0010
0000
,
0100
0000
0000
0000
,
0001
0000
0001
0000
,
1000
0000
1000
0000
,
0100
0000
0100
0000
,
0000
1000
1000
0000
,
0000
0000
0010
0000
,
0010
0000
0100
0000
,
0100
0000
0000
0000
,
1001
0000
0000
0000
;

//--------------- dance-single - KONAMI ----------------
#NOTES:
     dance-single:
     KONAMI:
     Easy:
     6:
     0,0,0,0,0:
0000
0000
0000
0000
,
0000
0000
0000
0000
,
0000
0000
0000
0000
,
0000
0000
0000
0000
,
0000
0000
0000
0000
,
1000
0100
0000
0001
,
0100
0000
1000
0200
,
0000
0000
0000
0300
,
0002
0000
0000
0003
,
0100
1000
0000
0001
,
0100
0000
1000
0200
,
0000
0000
0000
0302
,
0000
0000
0000
0003
,
0001
0001
1000
1000
,
0001
0001
1000
0000
,
0100
0100
0100
0000
,
0010
0010
0010
0000
,
0100
0100
1001
0000
,
0000
0000
1000
0100
,
1000
0100
0010
0001
,
0010
0001
1000
0000
,
0100
0000
0010
0000
,
0001
0000
1001
0000
,
0000
0110
0000
0000
,
1001
0000
0000
1100
,
0000
0000
0101
0000
,
0000
0001
0001
0000
,
0000
0110
0000
0000
,
1001
0000
0000
0101
,
0000
0000
1100
0000
,
0000
1000
1000
0000
,
1000
0000
0001
0000
,
1000
0000
0100
0010
,
0001
0000
0001
0000
,
0010
0000
0001
0010
,
0100
1000
0001
1000
,
0001
0000
1000
0100
,
0010
0001
1000
0100
,
1000
0001
0100
0001
,
0010
0100
1000
0000
,
0001
0001
0001
0000
,
1000
1000
1000
0000
,
0010
0010
0010
0000
,
0100
0100
1001
0000
,
0001
0000
1000
0100
,
0010
0001
1000
0001
,
0010
0100
2000
3000
,
0020
0030
0200
0300
,
0002
0003
0001
1000
,
1001
0000
1000
0001
,
1001
0000
0200
0300
,
1001
0000
0000
0000
;

//--------------- dance-single - KONAMI ----------------
#NOTES:
     dance-single:
     KONAMI:
     Medium:
     8:
     0,0,0,0,0:
0000
0000
0000
0000
,
0000
0000
0000
0000
,
0000
0000
0000
0000
,
0000
0000
0000
0000
,
0000
0000
0000
0000
,
0001
0020
0000
0031
,
2000
0000
3010
0100
,
0020
0000
0000
0000
0000
0000
0030
0100
,
0000
0001
0000
0100
0000
0010
1000
0000
,
0001
2000
0000
3010
,
0200
0000
0301
0010
,
0020
0000
0000
0000
0030
0001
0000
1000
,
0000
0010
0000
0100
0000
0001
0000
0001
,
1000
0100
1000
0000
0001
0100
0001
0000
,
0010
0100
0010
0100
0010
0000
1001
0000
,
0001
0100
1000
0100
,
0000
0001
0100
1000
0100
0000
0001
0000
,
0020
0000
0230
0000
,
2300
0000
0000
0000
3001
0100
0001
0000
,
0010
0200
0000
2300
,
3000
0001
0010
0001
0000
0000
0100
0000
,
0100
0001
1000
0010
,
1000
0100
0001
0100
2002
0000
3003
0000
,
0001
0202
0303
1000
,
2200
3300
0100
0220
,
0330
0010
0022
0033
,
0001
1001
2002
3003
,
1000
2200
3300
0001
,
0202
0303
0100
0220
,
0330
0010
2020
3030
,
1000
1001
0001
1000
,
0100
0010
0100
1000
,
0001
0010
1000
0100
,
0001
0010
0001
1000
,
0001
0000
0100
0000
0001
1000
0001
1000
,
0001
1000
0000
0000
1000
0100
1000
0100
,
2000
0000
3020
0000
,
0230
0000
0301
1001
,
1000
0110
0001
1001
,
1000
0100
0001
0100
1000
0000
0000
0001
,
0100
0001
0100
0001
0100
0000
0000
0100
,
1000
0100
1000
0100
1000
0000
0000
0010
,
0100
0010
0100
0010
0100
0000
0000
0001
,
0010
0001
0010
0001
0020
0000
0000
0000
,
0230
0000
0000
0000
1300
0001
1000
0000
,
0100
0010
0100
0000
0010
0001
0010
0000
,
0001
1000
0001
0000
2000
0000
0000
0000
,
3020
0000
0230
0000
,
0302
0000
0000
0000
1003
0000
0001
1000
,
0100
0000
2000
0000
3002
0000
1003
0100
,
1000
0002
2003
3000
,
1001
0000
0000
0000
;

//--------------- dance-single - KONAMI ----------------
#NOTES:
     dance-single:
     KONAMI:
     Hard:
     12:
     0,0,0,0,0:
0000
0000
0000
0000
,
0000
0000
0000
0000
,
0000
0000
0000
0000
,
0000
0000
0000
0000
,
0000
0000
0000
0000
,
0011
1001
0000
1001
,
0110
0000
1100
1001
,
0001
0010
0100
1000
0010
1000
0001
0100
,
0001
1000
0100
0010
0001
1000
0100
0000
,
0011
1001
0000
1001
,
0110
0000
0000
0110
0000
0010
0001
0200
,
0000
1000
0000
0001
0000
1000
0000
0301
,
0000
0001
0010
0100
1000
0010
1000
0001
,
0100
0001
1000
0100
0010
0001
1000
0100
,
0010
0001
0100
0001
1001
0000
0110
0000
,
0000
0010
0001
0000
0101
0000
1001
0000
,
0000
1000
0100
0000
0010
0100
1000
0000
,
0010
0100
0001
0000
0010
0100
1000
0000
,
0010
0100
0001
0000
1100
0000
1001
0000
,
0000
1000
0100
0000
0011
0000
1001
0000
,
0000
0001
0100
0000
0010
1000
0100
0000
,
0010
0001
0100
0000
0010
1000
0100
0001
,
0100
1000
0010
0001
0010
0000
1000
0100
,
0010
0000
1001
0000
0001
0010
0100
0000
,
1001
0000
1000
0100
0010
0000
1001
0000
,
0001
0010
0100
0000
1001
0000
1000
0100
,
0010
0000
1001
0000
0110
0000
0100
0001
,
0010
0000
0110
0000
0100
1000
0010
0000
,
0110
0000
0100
0001
0010
0000
0110
0000
,
0100
1000
0010
0000
0110
0000
0100
0001
,
0010
0000
0110
0000
0100
1000
0100
0010
,
0001
0010
0000
0001
0010
0100
1000
0001
,
1000
0010
0000
1000
0100
0010
0001
1000
,
0001
0010
0000
0001
0100
1000
0100
0001
,
0010
0000
0100
0000
0000
0000
1000
0100
1000
0000
0100
0000
0010
0000
0001
0000
,
1000
0000
0001
0000
0000
0000
0001
0100
0001
0000
0100
0000
0010
0000
1000
0000
,
0001
1000
0100
0010
0002
0000
0000
0000
,
2003
0000
3020
0100
,
0230
1000
2300
0100
,
3100
0001
0010
0100
1000
0000
0000
0001
,
0010
0000
0100
1000
0100
0000
1000
0001
1000
0000
0100
0000
0000
0000
0010
0000
,
0001
0100
1000
0100
0001
0010
0000
0001
,
0010
0000
0100
1000
0100
0000
1000
0001
1000
0000
0100
0000
0000
0000
0010
0000
,
0001
0100
1000
0100
0002
0000
0000
0000
,
0203
0000
0000
0000
0310
1000
0100
0000
,
0010
0001
0100
0000
0010
1000
0100
0001
,
0100
1000
0010
0000
1000
0100
0010
0001
,
1000
0001
0100
0001
0010
0100
1000
0001
,
1000
0100
1000
0010
0200
0000
0301
0010
,
0200
0000
1000
0000
0320
0000
0031
0100
,
0002
0000
1000
0000
0203
0000
0310
1000
,
1001
0000
0000
0000
;

//--------------- dance-single - blank ----------------
#NOTES:
     dance-single:
     blank:
     Challenge:
     14:
     0,0,0,0,0:
0000
0000
0000
0000
,
0000
0000
0000
0000
,
0000
0000
0000
0000
,
0000
0000
0000
0000
,
0000
0000
0000
0000
,
1001
0000
0000
0000
0001
1000
0001
0000
0100
0000
0010
0000
1000
0100
1000
0000
,
1000
0100
1000
0000
0000
0000
0001
1000
0001
0000
0001
1000
0001
0000
0010
0000
,
0000
0010
0100
1000
0100
0001
0100
1000
,
0010
0000
0001
0000
0010
0000
1000
0000
0010
0100
0010
0100
0010
0100
0010
0000
,
1000
0000
0001
0000
0100
0000
0001
0000
0000
0000
0001
0000
0010
0001
0010
0000
,
0010
0001
0010
0000
0000
0000
0100
1000
0100
0000
0100
1000
0100
0000
0010
0000
,
0000
0001
0100
1000
0100
0001
0100
1000
,
0001
0000
0010
0000
1000
0000
0010
0000
0001
0010
0001
0010
1000
0100
1000
0000
,
1000
0100
1000
0100
0010
0001
0010
0000
0100
0010
0100
0010
0001
1000
0001
1000
,
0010
0100
0010
0100
0001
1000
0001
0000
1000
0100
0010
0000
0010
0001
1000
0000
,
0000
0010
0001
0010
0000
0100
0010
0100
,
0001
0101
0110
1010
0000
0001
0010
0100
,
1000
0010
0100
0001
0000
1000
0100
0100
,
1000
0000
0010
0000
0100
0000
0001
0000
0010
0001
0010
0000
0010
0100
1000
0000
,
0000
0010
0100
0001
0000
1000
0001
0100
,
0000
0001
1010
0001
0001
0010
1000
0010
,
0001
0010
0100
1000
0010
0010
0100
0100
,
0001
1000
0001
1000
0001
1000
0001
1000
0001
0000
0000
0000
0001
0000
0100
0000
,
2000
3000
0110
0000
1000
0100
0002
0003
,
0110
0000
0001
0010
2000
3000
0110
0000
,
1000
0010
0002
0003
0110
0000
1000
0001
,
2000
3000
0110
0000
0110
0000
0001
1000
,
0002
0003
1001
0000
0010
1000
0200
0300
,
1001
0000
0010
0001
0200
0300
1001
0000
,
1000
0000
0100
0000
0010
0000
0001
0000
0100
0010
0100
0010
0100
0010
0100
0010
,
1000
0001
1000
0001
1000
0000
1000
0100
0010
0000
0010
0100
1000
0000
1000
0100
,
0010
0000
0001
0000
0000
0000
0001
0100
0010
0000
0010
0100
0001
0000
0001
0100
,
0010
0000
1000
0000
0000
0000
1000
0010
0100
0000
0100
0010
1000
0000
1000
0010
,
0100
0000
0001
0000
0000
0000
0001
0010
0100
0000
0100
0010
0001
0000
0001
0010
,
0100
0000
1000
0000
0000
0000
0010
1000
0100
0000
0001
0000
0100
0000
1000
0000
,
0100
0000
0010
0000
0000
0000
0010
0001
0100
0000
1000
0000
0100
0000
0001
0000
,
0100
0000
0010
0000
1000
0001
1000
0001
1000
0000
0010
0000
0100
0000
0100
0000
,
0001
0010
0001
0001
1000
0001
1010
0000
,
0101
0011
1100
1010
,
0101
0000
0001
0000
1010
0000
1000
0000
0022
0000
0033
0000
0001
1000
0001
1000
,
0001
0000
0001
0100
0010
0000
0010
1000
0100
0000
0110
0000
0000
0000
1000
0010
,
0100
0000
0100
0001
0010
0000
0010
0001
0100
0000
0110
0000
0000
0000
1000
0100
,
0010
0000
0010
0001
1000
0000
1000
0100
0001
0000
0110
0000
0000
0000
0001
0010
,
0100
0000
0100
1000
0001
0000
0001
0100
1000
0000
0110
0000
0000
0000
0001
0000
,
0010
0001
0100
0010
0100
0100
1100
0000
,
0010
0000
0010
0000
0011
0000
0001
1000
0001
0000
0100
0000
0010
0000
1000
0000
,
0100
0000
0010
0000
0001
0000
1000
0000
0010
0100
0010
0100
0001
1000
0001
0000
,
0010
0100
0010
0100
1000
0001
1000
0000
0001
0100
0001
0100
0010
1000
0010
0000
,
1000
0100
1000
0100
0010
0001
0010
0000
0110
0000
0000
0000
1001
0000
0010
0000
,
0110
0000
0000
0000
1001
0000
0100
0000
0110
0000
0000
0000
0001
0010
0001
0010
,
0100
1000
0100
1000
0010
0100
0010
0100
0001
1000
0001
1000
0001
1000
0001
0000
,
1001
0000
0000
0000
;

//--------------- dance-double - KONAMI ----------------
#NOTES:
     dance-double:
     KONAMI:
     Easy:
     5:
     0,0,0,0,0:
00000000
00000000
00000000
00000000
,
00000000
00000000
00000000
00000000
,
00000000
00000000
00000000
00000000
,
00000000
00000000
00000000
00000000
,
00000000
00000000
00000000
00000000
,
00000001
00000100
00000000
00001000
,
00010000
00000000
01000000
20000000
,
00000000
00000000
00000000
30000000
,
02000000
00000000
00000000
03000000
,
10000000
01000000
00000000
00010000
,
00001000
00000000
00000100
00000002
,
00000000
00000000
00000000
00000003
,
00000200
00000000
00000000
00000300
,
00000001
00000100
00001000
00001000
,
00010000
01000000
10000000
00000000
,
00100000
00100000
00100000
00000000
,
10000000
10000000
10000000
00000000
,
00010000
00010000
00020000
00000000
,
00000000
00030000
10000000
01000000
,
00010000
00010000
00001000
00001000
,
00000100
00000001
00000010
00000000
,
00000001
00000000
00000100
00000000
,
00001000
00000000
00011000
00000000
,
00000000
01010000
00000000
00000000
,
10010000
00000000
00000000
01100000
,
00000000
00000000
00110000
00000000
,
00000000
00001000
00001000
00000000
,
00000000
00011000
00000000
00000000
,
00001100
00000000
00000000
00001001
,
00000000
00000000
00000110
00000000
,
00000000
00000001
00000001
00000000
,
00000100
00000000
00001000
00000000
,
00010000
00000000
00010000
01000000
,
10000000
00000000
10000000
00000000
,
00100000
00000000
10000000
01000000
,
00010000
00010000
00001000
00000100
,
00000001
00000000
00000010
00000001
,
00000010
00000001
00000100
00001000
,
00001000
00010000
01000000
10000000
,
00100000
10000000
00100000
00000000
,
10000000
10000000
10000000
00000000
,
00010000
00010000
00010000
00000000
,
01000000
01000000
01000000
00000000
,
00100000
00100000
00100000
00000000
,
10010000
00000000
10000000
01000000
,
00010000
00010000
00001000
00001000
,
00000100
00000001
00000020
00000030
,
00000002
00000003
00002000
00003000
,
00000002
00000003
00000100
00001000
,
00011000
00000000
00001000
00010000
,
00011000
00000000
00000200
00000300
,
00001001
00000000
00000000
00000000
;

//--------------- dance-double - KONAMI ----------------
#NOTES:
     dance-double:
     KONAMI:
     Medium:
     8:
     0,0,0,0,0:
00000000
00000000
00000000
00000000
,
00000000
00000000
00000000
00000000
,
00000000
00000000
00000000
00000000
,
00000000
00000000
00000000
00000000
,
00000000
00000000
00000000
00000000
,
00000001
00000200
00000000
00000310
,
00002000
00000000
00003100
00010000
,
00002000
00000000
00000000
00000000
00000000
00000000
00003000
00010000
,
00000000
01000000
00000000
10000000
00000000
10000000
00010000
00000000
,
00010000
20000000
00000000
30100000
,
02000000
00000000
03010000
00100000
,
00002000
00000000
00000000
00000000
00003000
00010000
00000000
00001000
,
00000000
00000100
00000000
00000001
00000000
00001000
00000000
00000010
,
00001000
00000100
00001000
00000000
00000001
00000100
00000001
00000000
,
00001000
00000100
00001000
00000000
00001001
00000000
00000101
00000000
,
00000001
00000100
00001000
00010000
,
00000000
00010000
00001000
00010000
00001000
00000000
00011000
00000000
,
00020000
00030000
02000000
03000000
,
20000000
00000000
30000000
00000000
00100000
10000000
01000000
00000000
,
00010000
02000000
00000000
03020000
,
00030000
00001000
00000100
00000001
00000000
00000000
00000010
00000000
,
00000001
00001000
00000100
00001000
,
00000001
00000100
00000001
00000100
00002002
00000000
00003003
00000000
,
00000000
00000220
00000330
00000000
,
00002020
00003030
00000000
00020200
,
00030300
00000000
00022000
00033000
,
00000000
00101000
00202000
00303000
,
00000000
20020000
30030000
00000000
,
02200000
03300000
00000000
00202000
,
00303000
00000000
00022000
00033000
,
00010000
00011000
00001000
00000100
,
00000001
00001000
00000001
00000100
,
00001000
00000100
00001000
00010000
,
01000000
10000000
10000000
01000000
,
00100000
00000000
00010000
00000000
10000000
01000000
10000000
01000000
,
00010000
00000000
00001000
00000000
00010000
00001000
00010000
00001000
,
00000100
00000001
00000100
00000001
,
00000010
00000001
00001000
00001001
,
00000100
00000110
00000001
00001001
,
00000001
00000100
00000001
00000100
00001000
00000000
00000000
00001000
,
00010000
00001000
00010000
01000000
10000000
00000000
00000000
10000000
,
00100000
10000000
00100000
01000000
00010000
00000000
00000000
00100000
,
01000000
00100000
01000000
10000000
00010000
00000000
00000000
10000000
,
01000000
10000000
01000000
00010000
00002000
00000000
00000000
00000000
,
00023000
00000000
00000000
00000000
00031000
00000100
00000001
00000000
,
00000001
00000010
00000001
00000000
00000001
00000100
00001000
00000000
,
00000100
00001000
00010000
00000000
02000000
00000000
00000000
00000000
,
23000000
00000000
32000000
00000000
,
03020000
00000000
00000000
00000000
01030000
00000000
10000000
01000000
,
00010000
00000000
00002000
00000000
00023000
00000000
00031000
00000100
,
00000001
00000200
00000302
00000003
,
00001001
00000000
00000000
00000000
;

//--------------- dance-double - KONAMI ----------------
#NOTES:
     dance-double:
     KONAMI:
     Hard:
     12:
     0,0,0,0,0:
00000000
00000000
00000000
00000000
,
00000000
00000000
00000000
00000000
,
00000000
00000000
00000000
00000000
,
00000000
00000000
00000000
00000000
,
00000000
00000000
00000000
00000000
,
00011000
00010100
00000000
00001100
,
00000011
00000000
00001001
00001100
,
00000001
00000010
00000001
00000100
00001000
00010000
01000000
10000000
,
00010000
10000000
00100000
01000000
00010000
00100000
01000000
00000000
,
10010000
01100000
00000000
00101000
,
00011000
00000000
00000000
00011000
00000000
00010000
00001000
00000100
,
00000000
00000001
00000000
00000010
00000000
00000001
00000000
00001000
,
00000000
00000001
00000010
00000100
00001000
00000001
00000100
00001000
,
00010000
01000000
10000000
01000000
00100000
00010000
10000000
00100000
,
10000000
01000000
00010000
00001000
00011000
00000000
00011000
00000000
,
00000000
00001000
00000100
00000000
00001001
00000000
00000110
00000000
,
00000000
00000010
00000100
00000000
00001000
00000100
00000010
00000000
,
00000010
00000001
00000100
00000000
00000100
00001000
00010000
00000000
,
00010000
01000000
10000000
00000000
10010000
00000000
01010000
00000000
,
00000000
00100000
00010000
00000000
00110000
00000000
11000000
00000000
,
00000000
00010000
01000000
00000000
00100000
10000000
01000000
00000000
,
01000000
00010000
00001000
00000000
00010000
00001000
00000100
00000001
,
00000010
00000001
00000100
00001000
00000100
00000000
00000001
00000010
,
00000100
00000000
00001001
00000000
00000010
00000100
00001000
00000000
,
00001100
00000000
00000100
00001000
00010000
00000000
00011000
00000000
,
00001000
00010000
01000000
00000000
01010000
00000000
00010000
01000000
,
10000000
00000000
10010000
00000000
10010000
00000000
10000000
01000000
,
00100000
00000000
10010000
00000000
01000000
00100000
00010000
00000000
,
00110000
00000000
00100000
00010000
00001000
00000000
00011000
00000000
,
00010000
00001000
00000100
00000000
00001100
00000000
00001000
00000100
,
00000010
00000000
00001001
00000000
00000010
00000001
00000100
00001000
,
00010000
01000000
00000000
00010000
01000000
10000000
00100000
00010000
,
00001000
00000010
00000000
00001000
00000010
00000001
00000100
00001000
,
00000100
00000001
00000000
00001000
00000001
00001000
00000001
00000100
,
00001000
00010000
00000000
00001000
00010000
00001000
00010000
01000000
,
10000000
00100000
00000000
10000000
01000000
10000000
01000000
00100000
,
00010000
10000000
01000000
00010000
00002000
00000000
00000000
00000000
,
00023000
00000000
00031000
00001100
,
00000100
00000101
00000010
00001010
,
00001000
00000100
00000010
00000001
00001001
00000000
00000000
00000010
,
00000001
00000000
00000100
00000000
00001000
00000000
00010000
00001000
00010000
00000000
00001000
00000000
00000000
00000000
00010000
00000000
,
01000000
10000000
00100000
01000000
00010000
00100000
00000000
00010000
,
00100000
00000000
01000000
00000000
10000000
00000000
01000000
10000000
01000000
00000000
10000000
00000000
00000000
00000000
01000000
00000000
,
00010000
00001000
00010000
01000000
00020000
00000000
00000000
00000000
,
00032000
00000000
00000000
00000000
00013000
00001000
00000100
00000000
,
00001000
00010000
01000000
00000000
00010000
00001000
00000100
00000001
,
00000010
00000001
00000010
00000000
00000001
00001000
00000001
00000010
,
00001000
00010000
00100000
10000000
01000000
10000000
00010000
10000000
,
01000000
00010000
00001000
00010000
00002000
00000000
00013000
00001000
,
00000200
00000000
00001300
00000000
00020000
00000000
00031000
00000100
,
00000002
00000000
00000013
00000000
00000002
00000000
00001003
00000010
,
00000110
00000000
00000000
00000000
;

//--------------- dance-double - forcednature ----------------
#NOTES:
     dance-double:
     forcednature:
     Challenge:
     15:
     0,0,0,0,0:
00000000
00000000
00000000
00000000
,
00000000
00000000
00000000
00000000
,
00000000
00000000
00000000
00000000
,
00000000
00000000
00000000
00000000
,
00000000
00000000
00000000
00000000
00000000
00000000
00000000
00000000
00010000
00001000
00010000
00001000
00010000
00001000
00010000
00001000
,
00010000
00000000
00010000
00000000
00000100
00001000
00000010
00000000
,
00000010
00000000
00000000
00000000
00000100
00000000
00001000
00010000
00001000
00000000
00010000
00001000
00010000
00000000
00100000
00000000
,
01000000
00000000
00000000
00000000
00010000
00000000
00000000
00000000
10000000
00000000
01000000
00000000
00010000
00001000
00000000
00000000
,
00001000
00000000
00000010
00000000
00000001
00000000
00001000
00000000
00000001
00000100
00000001
00000100
00000001
00000100
00000001
00000000
,
00000010
00000000
00000010
00000000
00000100
00010000
00001000
01000000
,
00010000
00000000
10000000
01000000
00010000
00001000
01000000
00000000
,
00010000
00000000
10000000
00000000
00100000
01000000
00000000
00000000
10000000
00000000
01000000
00000000
00010000
00000000
00000000
00000000
,
00100000
00000000
00001000
00000000
00010000
00000000
00000010
00000000
00001000
00000100
00001000
00000100
00001000
00000100
00001000
00000000
,
00000001
00000100
00000001
00000100
00000001
00000100
00000001
00000000
00000010
00000100
00000010
00000100
00001000
00000100
00001000
00000100
,
00010000
00000100
00010000
00000100
00010000
00001000
00010000
00000000
00100000
00000000
10000000
00000000
00100000
00000000
00010000
00000000
,
00001000
00000000
00000000
00000000
00000010
00000000
00000100
00000000
00001000
00000000
00000000
00001000
00000001
00000000
00000100
00000000
,
00001000
00000000
00010000
01000000
00100000
00001000
00010000
00100000
,
01000000
00000000
00001000
00000000
00010000
00000000
01000000
00000000
10000000
00000000
00000000
10000000
00100000
00000000
00010000
00000000
,
00001000
00000000
00000010
00000000
00000100
00000000
00000000
00000000
00001000
00000001
00001000
00000000
00000001
00001000
00000001
00000000
,
00000100
00000000
00001000
00000000
00010000
00000000
00000000
00000000
00100000
00000000
10000000
01000000
00100000
00000000
00010000
01000000
,
00100000
10000000
00010000
00001000
00000010
00000000
00001000
00000100
,
00000010
00000100
00000000
00000010
00000001
00000000
00000100
00000000
00001000
00000000
00010000
00000000
00100000
00000000
10000000
00000000
,
01000000
00100000
01000000
00100000
00010000
00100000
00010000
00100000
00001000
00000000
00000000
00000000
00010000
00000000
00001000
00000000
,
00010000
00000000
00000110
00000000
00001000
00010000
00001000
00000000
,
01100000
00000000
00010000
00001000
00010000
00000000
00000110
00000000
,
00001000
00010000
00001000
00000000
01100000
00000000
00010000
00001000
,
00010000
00000000
00000110
00000000
00000110
00000000
00001000
00010000
,
00001000
00000000
01100000
00000000
00010000
00001000
00010000
00000000
,
00000110
00000000
00001000
00010000
00001000
00000000
01100000
00000000
,
00001000
00010000
00001000
00000000
00000110
00000000
00001000
00010000
,
00001000
00010000
00001000
00010000
00001000
00010000
00001000
00010000
00100000
00000000
00100000
10000000
01000000
00000000
01000000
00100000
,
00010000
00000000
01000000
00000000
00000000
00000000
00001000
00010000
00000100
00000000
00000100
00010000
00001000
00000000
00001000
00000100
,
00000001
00000000
00000010
00000000
00000000
00000000
00000100
00010000
00001000
00000000
00001000
00100000
00010000
00000000
00010000
01000000
,
00100000
00000000
10000000
00000000
00000000
00000000
01000000
00010000
00001000
00000000
00001000
00000010
00000001
00000000
00000001
00000100
,
00001000
00000000
00001000
00000000
00000000
00000000
00010000
00100000
01000000
00000000
10000000
00000000
01000000
00000000
00010000
00000000
,
00100000
00000000
01000000
00000000
00010000
00000000
00001000
00000010
00000001
00000000
00001000
00000000
00000001
00000000
00000100
00000000
,
00001000
00000000
00010000
00000000
00100000
01000000
10000000
01000000
00010000
00000000
00000000
00010000
00100000
00000000
00001000
00000000
,
00020000
00000000
00000000
00000000
00030010
00000000
00001000
00000000
00010000
00000000
00000000
00000000
01000000
00001000
01000000
00001000
,
01000000
00000000
00000000
00000000
00000100
00010000
00000100
00010000
00000100
00000000
00000000
00000000
01000000
00001000
01000000
00001000
,
01000000
00000000
10000000
00000000
01000000
00000000
00010000
00000000
01000000
00000000
00001000
00010000
00001000
00010000
00001000
00010000
,
00001000
00000000
00001000
00000010
00000001
00000000
00000001
00000100
00001000
00000000
00010000
00000000
00100000
00000000
10000000
00010000
,
10000000
00000000
10000000
01000000
00010000
00000000
00010000
00001000
00000010
00000000
00000100
00000000
00001000
00000000
00000001
00000100
,
00001000
00000000
00001000
00010000
00100000
00000000
00100000
10000000
01000000
00000000
00100000
00000000
00001000
00000000
00010000
00100000
,
10000000
00000000
10000000
01000000
00010000
00000000
00010000
00001000
00000010
00000000
00000100
00000000
00001000
00000000
00000001
00000100
,
00000001
00000000
00000000
00000001
00000100
00000000
00001000
00000000
00010000
00000000
00100000
00000000
20000000
00000000
00000000
00000000
,
31000000
00010000
00002000
00000000
00003010
00000100
00001000
00000001
,
00000100
00000000
00000000
00000100
00001000
00000000
00010000
00000000
00100000
10000000
00010000
10000000
01000000
00010000
00001000
00000000
,
00000010
00000001
00001000
00000001
00000100
00001000
00010000
00000000
00100000
10000000
00010000
10000000
01000000
00010000
00001000
00000000
,
00000010
00000001
00001000
00000001
00000100
00001000
00010000
00000000
00100000
00000000
01000000
00010000
01010000
00000000
00010000
00000000
,
10000000
00000000
01000000
00100000
01100000
00000000
00000000
00000000
00011000
00000000
00000000
00000100
00001000
00000000
00000010
00000000
,
00000110
00000000
00000001
00000100
00001000
00010000
00001000
00010000
01000000
00100000
01000000
00100000
00010000
01000000
10000000
01000000
,
00100000
00000000
00000000
00000000
;
