#TITLE:Love is here;
#SUBTITLE:;
#ARTIST:Studio Bongo Mango feat. ChiyoTia;
#TITLETRANSLIT:;
#SUBTITLETRANSLIT:;
#ARTISTTRANSLIT:;
#GENRE:;
#CREDIT:;
#BANNER:;
#BACKGROUND:;
#LYRICSPATH:;
#CDTITLE:;
#MUSIC:Love is here.mp3;
#OFFSET:-0.055000;
#SAMPLESTART:50.581001;
#SAMPLELENGTH:14.436000;
#SELECTABLE:YES;
#BPMS:0.000000=133.000000
;
#STOPS:207.500000=0.902000
;
#BGCHANGES:;
#KEYSOUNDS:;
#ATTACKS:;

//---------------dance-single - eataninja----------------
#NOTES:
     dance-single:
     eataninja:
     Beginner:
     1:
     0.103018,0.183140,0.087942,0.043971,0.000000,82.000000,72.000000,10.000000,5.000000,0.000000,0.000000,0.103018,0.183140,0.087942,0.043971,0.000000,82.000000,72.000000,10.000000,5.000000,0.000000,0.000000:
0000
0000
0000
0000
,
0000
0000
0000
0000
,
0000
0000
0000
0000
,
0000
0000
0000
0000
,
0001
0000
0000
0000
,
0100
0000
0000
0000
,
0001
0000
0000
0000
,
0100
0000
0010
0000
,
1000
0000
0000
0000
,
0100
0000
0000
0000
,
1000
0000
0000
0000
,
0010
0000
0100
0000
,
0001
0000
0001
0000
,
0010
0000
0000
0000
,
0100
0000
0100
0000
,
0100
0000
0000
0000
,
1000
0000
1000
0000
,
0010
0000
0000
0000
,
0100
0000
0100
0000
,
0100
0000
0000
0000
,
0020
0000
0000
0030
,
0010
0000
0000
0000
,
0010
0000
1000
0000
,
0100
0000
0000
0000
,
0020
0000
0000
0030
,
0010
0000
0000
0000
,
0001
0000
1000
0000
,
0020
0000
0030
0000
,
0110
0000
0000
0000
,
0110
0000
0000
0000
,
0100
0000
0001
0000
,
1000
0000
0000
0000
,
1001
0000
0000
0000
,
1001
0000
0000
0000
,
1000
0000
0100
0000
,
0010
0000
0000
0000
,
0002
0000
0000
0000
,
0003
0000
0000
0000
,
2000
0000
0000
0000
,
3000
0000
0000
0000
,
1000
0000
0000
0000
,
0100
0000
0000
0000
,
0010
0000
0000
0000
,
0001
0000
0000
0000
,
0001
0000
0000
0000
,
0100
0000
0000
0000
,
0010
0000
0000
0000
,
1000
0000
0000
0000
,
1000
0000
1000
0000
,
0001
0000
0010
0000
,
0100
0000
0100
0000
,
0100
0100
0000
0000
,
0110
0000
0000
0000
,
1001
0000
0000
0000
,
0001
0000
1000
0000
,
0010
0000
0000
0000
,
0110
0000
0000
0000
,
1001
0000
0000
0000
,
1001
0000
0110
0000
,
0010
0010
0010
0000
;

//---------------dance-single - eataninja----------------
#NOTES:
     dance-single:
     eataninja:
     Easy:
     4:
     0.207292,0.290209,0.070354,0.131913,0.000000,165.000000,157.000000,8.000000,15.000000,0.000000,0.000000,0.207292,0.290209,0.070354,0.131913,0.000000,165.000000,157.000000,8.000000,15.000000,0.000000,0.000000:
0000
0000
0000
0000
,
0000
0000
0000
0000
,
0000
0000
0000
0000
,
0000
0000
0000
0000
,
1000
0010
1000
0000
,
1000
0010
1000
0000
,
0001
0010
0001
0000
,
0001
0010
0100
1000
,
0001
0100
0001
0000
,
0001
0100
0001
0000
,
1000
0100
1000
0000
,
0001
1000
0010
0100
,
0001
0000
0001
0000
,
1000
1000
0100
0000
,
1000
0000
1000
0000
,
0001
0100
1000
0100
,
0001
0000
0001
0000
,
1000
1000
0010
0000
,
1000
0000
1000
0000
,
0001
0010
1000
0010
,
0200
0000
0300
0100
,
2000
0000
3000
1000
,
0020
0000
0230
0000
,
0301
0000
1000
0001
,
0020
0000
0030
0010
,
0200
0000
0300
0100
,
2000
0000
3002
0000
,
0203
0000
0300
0000
,
0110
0100
0001
0000
,
0110
0100
0001
0000
,
0010
0100
1000
1000
,
0010
0100
0001
0000
,
1001
1000
0010
0000
,
1001
0001
0010
0000
,
0100
0100
0010
0001
,
0100
0010
1000
0000
,
0002
0000
0100
0000
,
0100
0000
0103
0000
,
2000
0000
0100
0000
,
0100
0000
3100
0000
,
0020
0000
0000
0001
,
0100
0000
0130
0000
,
2000
0000
0000
0010
,
0001
0000
3001
0000
,
0200
0000
0000
0001
,
0010
0000
0310
0000
,
2000
0000
0000
0100
,
0001
0000
3001
0000
,
0100
0100
0010
0000
,
1000
0001
0010
0000
,
1000
1000
0010
0010
,
0001
0001
0100
0000
,
0110
0010
1000
0000
,
0110
0010
1000
0000
,
0010
0010
0100
0001
,
0010
0100
1000
0000
,
1001
0001
1000
0010
,
0110
0100
0001
1000
,
0100
0100
0010
0010
,
0001
1000
0010
0100
,
0001
0000
0000
0000
;

//---------------dance-single - eataninja----------------
#NOTES:
     dance-single:
     eataninja:
     Medium:
     7:
     0.351769,0.367818,0.061560,0.184679,0.000000,280.000000,273.000000,7.000000,21.000000,0.000000,0.000000,0.351769,0.367818,0.061560,0.184679,0.000000,280.000000,273.000000,7.000000,21.000000,0.000000,0.000000:
0000
0000
0000
0000
,
0000
0000
0000
0000
,
0000
0000
0000
0000
,
0000
0000
0000
0000
,
1000
0000
0010
0000
1000
0010
0100
0000
,
0001
0000
0010
0000
0001
0010
0100
0000
,
1000
0000
0010
0000
1000
0010
0100
0000
,
0200
0000
2300
0000
3100
0100
0001
0000
,
0001
0000
0100
0000
0001
0100
0010
0000
,
1000
0000
0100
0000
1000
0100
0010
0000
,
0001
0000
0100
0000
0001
0100
0010
0000
,
0020
0000
0032
0000
0013
0010
1000
0000
,
0001
0000
0001
0000
0010
0000
0000
0100
,
0000
0001
0000
0100
0000
1000
1000
0000
,
0010
0000
0010
0000
0100
0000
0001
0010
,
0000
0100
0000
1000
0000
0010
0000
0000
,
1000
0000
1000
0000
0010
0000
0000
0100
,
0000
1000
0000
0100
0000
0001
0001
0000
,
0010
0000
0010
0000
0100
0000
1000
0001
,
0000
0100
0010
0100
0000
0000
0110
0000
,
0002
0000
0100
0000
1000
1000
1003
0000
,
2000
0000
0100
0000
0001
0001
3001
0000
,
2001
3020
0230
0301
,
0010
0000
0100
0000
1000
1000
1000
0000
,
0002
0000
0010
0000
1000
1000
1003
0000
,
2000
0000
0010
0000
0001
0001
3001
0000
,
0201
0310
1020
1030
,
1200
0000
0310
0000
0001
1000
0001
0000
,
1000
0010
0001
0000
0010
0000
0100
0000
,
0001
0010
1000
0000
0010
0000
0100
0000
,
1000
0001
0100
0000
0010
0000
1000
0100
,
0000
1000
0001
1000
0000
0010
0010
0000
,
1000
0100
0001
0000
0100
0000
0010
0000
,
0001
0100
1000
0000
0100
0000
0010
0000
,
0100
0001
0100
0000
0010
0000
1000
0000
,
0100
0010
0001
1000
0000
0010
0010
0000
,
0200
0000
0302
0000
,
0023
0000
0130
0000
,
2000
0000
3002
0000
,
0203
0000
0000
0000
0010
0010
0310
0000
,
1000
0001
0000
0100
0000
0010
0000
0100
,
0001
1000
0000
0001
0000
0010
0000
0100
,
1000
0100
0000
1000
0000
0001
0000
0100
,
0001
0100
0000
0001
0000
1000
0000
0100
,
0100
0010
0000
0001
0000
1000
0000
0010
,
1000
0010
0000
0100
0000
0001
0000
1000
,
0100
1000
0000
0100
0000
0010
0000
0001
,
1000
0001
0000
1000
0010
0010
0010
0000
,
0100
0010
0100
0000
0100
0001
0100
0000
,
0010
1000
0100
0000
0010
0001
0100
0000
,
0010
1000
0010
0000
0010
0100
0010
0000
,
1000
0001
1000
0001
1000
0001
0020
0030
,
0000
0010
1000
0000
0010
0000
0100
0000
,
1000
0010
0001
0000
0010
0000
0100
0000
,
0001
0001
1000
0000
1000
1000
0100
0000
,
0010
0001
0010
0001
0000
1000
1000
0000
,
0001
0001
0100
0000
0100
0010
0100
0000
,
1000
1000
0100
0000
0100
0010
0100
0000
,
0001
0001
1000
1000
0001
0000
0010
0000
,
0110
0000
1001
0000
0100
0100
0100
0000
;

//---------------dance-single - eataninja----------------
#NOTES:
     dance-single:
     eataninja:
     Hard:
     11:
     0.458556,0.474888,0.052765,0.237444,0.118722,365.000000,359.000000,6.000000,27.000000,0.000000,0.000000,0.458556,0.474888,0.052765,0.237444,0.118722,365.000000,359.000000,6.000000,27.000000,0.000000,0.000000:
// measure 0
0000
0000
0000
0000
,  // measure 1
0000
0000
0000
0000
,  // measure 2
0000
0000
0000
0000
,  // measure 3
0000
0000
0000
0000
,  // measure 4
1000
0000
0000
0000
0010
0000
0000
2000
0000
0000
3001
0000
0010
0000
0100
0000
,  // measure 5
1000
0000
0000
0000
0001
0000
0000
2000
0000
0000
3010
0000
0100
0000
0000
0000
,  // measure 6
0001
0000
0000
0000
0100
0000
0000
0002
0000
0000
1003
0000
0100
0000
0010
0000
,  // measure 7
0001
0000
0000
0100
0000
0000
2000
0000
0000
0000
3100
0000
0001
0000
1000
0000
,  // measure 8
0001
0000
0000
0000
0010
0000
0000
0002
0000
0000
1003
0000
0010
0000
0100
0000
,  // measure 9
0001
0000
0000
0000
1000
0000
0000
0002
0000
0000
0013
0000
0100
0000
0000
0000
,  // measure 10
1000
0000
0000
0000
0100
0000
0000
2000
0000
0000
3001
0000
0100
0000
0010
0000
,  // measure 11
1000
0000
0000
0100
0000
0000
0002
0000
0000
0000
0103
0000
0010
0000
0001
0000
,  // measure 12
1000
0000
1000
0000
0010
0100
0010
0000
,  // measure 13
1000
0000
0100
0000
0001
0100
1000
0000
,  // measure 14
0001
0100
0001
0000
1000
0010
1000
0000
,  // measure 15
0100
0000
0000
0000
0001
0000
0000
0000
0100
0000
0100
0000
0010
0001
0000
1000
,  // measure 16
0001
0000
0001
0000
0100
0010
0100
0000
,  // measure 17
0001
0000
0010
0000
1000
0010
0001
0000
,  // measure 18
1000
0010
1000
0000
0001
0100
0001
0000
,  // measure 19
1000
0100
0010
0001
0000
0000
0001
0000
,  // measure 20
2000
0000
3020
0000
0031
0010
0100
0100
,  // measure 21
0002
0000
0023
0000
1030
0010
0100
1000
,  // measure 22
0002
0103
2000
3010
,  // measure 23
0002
0000
0000
0000
1003
0000
0000
0000
0001
0000
0001
0000
1000
0100
0000
1000
,  // measure 24
0002
0000
0203
0000
1300
0100
0010
0010
,  // measure 25
2000
0000
3200
0000
0301
0100
0010
0001
,  // measure 26
2000
3010
0002
0103
,  // measure 27
2000
0000
0000
0000
3001
0000
0000
0000
1000
0000
1000
0000
0001
0010
0000
0001
,  // measure 28
0010
0000
0100
0000
1000
0000
0000
0010
0000
0000
0100
0000
0110
0000
0000
0000
,  // measure 29
0010
0000
0100
0000
0001
0000
0000
0010
0000
0000
0100
0000
0110
0000
0000
0000
,  // measure 30
1000
0000
0001
0000
1000
0000
0000
1000
0000
0000
0010
0000
0100
0000
2000
0000
,  // measure 31
0000
3100
0001
1000
0000
0001
0001
0000
,  // measure 32
0100
0000
0010
0000
1000
0000
0000
0100
0000
0000
0010
0000
0110
0000
0000
0000
,  // measure 33
0100
0000
0010
0000
0001
0000
0000
0100
0000
0000
0010
0000
0110
0000
0000
0000
,  // measure 34
0001
0000
1000
0000
0001
0000
0000
0001
0000
0000
0010
0000
0100
0000
0002
0000
,  // measure 35
0000
0103
1000
0001
0000
1000
1000
0000
,  // measure 36
0020
0000
0001
0000
1000
1000
1030
0000
,  // measure 37
0200
0000
0001
0000
1000
1000
1300
0000
,  // measure 38
0100
0010
0001
1000
0010
0100
0001
0000
,  // measure 39
1000
0000
0100
0000
1000
0000
0000
0000
0001
0000
0001
0000
0010
0100
0000
0010
,  // measure 40
0100
1000
0001
1000
0000
0010
0100
0010
,  // measure 41
1000
0001
0010
0100
0000
0100
0001
0100
,  // measure 42
1000
0001
1000
0010
0000
0100
0010
0100
,  // measure 43
0001
0010
0100
1000
0001
0001
0001
0000
,  // measure 44
1000
0010
1000
0001
0100
0010
0100
0100
,  // measure 45
0001
1000
0001
0010
0100
1000
0001
0001
,  // measure 46
1000
0010
0001
0010
0100
0001
1000
1000
,  // measure 47
0001
0010
0100
1000
0010
0010
0100
0000
,  // measure 48
0001
0100
0001
0100
0010
1000
0010
1000
,  // measure 49
0001
0010
0100
1000
0010
0100
0001
1000
,  // measure 50
0010
0001
0010
0001
0010
1000
0010
1000
,  // measure 51
0100
0010
0001
0100
0010
1000
0001
0001
,  // measure 52
0000
0000
0100
0000
0100
0000
0000
0101
0000
0000
1000
0000
0001
0000
1000
0000
,  // measure 53
0100
0000
0010
0000
0001
0000
0000
0011
0000
0000
1000
0000
0001
0000
1000
0000
,  // measure 54
0010
0000
0010
0000
0100
0000
0000
0001
0000
0000
0010
0000
0100
0000
0002
0000
,  // measure 55
0000
0103
1000
0001
0000
1000
1000
0000
,  // measure 56
0001
0100
1000
0100
0010
1000
0001
0001
,  // measure 57
1000
0100
0001
0100
0010
0001
1000
1000
,  // measure 58
0001
0100
0001
0100
0010
1000
0010
0100
,  // measure 59
0001
0000
0010
0000
0100
0000
1000
0000
0001
0000
0001
0000
1000
0010
0000
0010
,  // measure 60
0100
0000
0000
0000
;
