#TITLE:Love Will Be Waiting;
#SUBTITLE:;
#ARTIST:Smashtrax;
#TITLETRANSLIT:;
#SUBTITLETRANSLIT:;
#ARTISTTRANSLIT:;
#GENRE:;
#CREDIT:;
#MUSIC:Love Will Be Waiting.mp3;
#BANNER:;
#BACKGROUND:;
#CDTITLE:;
#SAMPLESTART:27.504;
#SAMPLELENGTH:13.714;
#SELECTABLE:YES;
#OFFSET:2.210;
#BPMS:0.000=105.000;
#STOPS:;
#LASTBEATHINT:2.117500;
#BGCHANGES:;
#FGCHANGES:;

//--------------- dance-single - aboutblank ----------------
#NOTES:
     dance-single:
     aboutblank:
     Beginner:
     2:
     0,0,0,0,0:
0000
0000
0000
0000
,
0000
0000
0000
0000
,
0000
0000
0000
0000
,
0000
0001
0000
0001
,
0000
1000
0000
1000
,
0010
0000
0000
0000
,
0100
0000
0000
0000
,
0001
0000
0000
0000
,
1000
0000
0000
0000
,
0100
0000
0000
0000
,
0010
0000
0000
0000
,
0001
0000
0000
0000
,
1000
0000
0000
0000
,
0001
0000
0001
0000
,
1000
0000
0000
0000
,
1000
0000
1000
0000
,
0001
0000
0000
0000
,
0100
0000
0100
0000
,
0010
0000
0000
0000
,
0010
0000
0010
0000
,
0100
0000
0000
0000
,
1001
0000
0000
0000
,
0100
0000
0000
0000
,
0001
0010
0000
0010
,
0000
0000
0000
0000
,
0000
1000
0000
1000
,
0000
0010
0000
0010
,
0000
0100
0000
0100
,
0000
0001
0000
0001
,
0010
0010
0000
0000
,
0100
0100
0000
0000
,
1000
1000
0000
0000
,
0001
0001
0000
0000
,
0100
0100
0000
0000
,
0010
0010
0000
0000
,
1000
1000
0000
0000
,
0001
0001
0000
0000
,
0000
0000
0000
0000
,
0000
0000
0000
0000
,
0000
0010
0000
0010
,
0000
0100
0000
1001
,
0000
0010
0000
0010
,
0000
0100
0000
1001
;

//--------------- dance-single - aboutblank ----------------
#NOTES:
     dance-single:
     aboutblank:
     Easy:
     6:
     0,0,0,0,0:
0000
0000
0000
0000
,
0000
0000
0000
0000
,
0000
0000
0000
0000
,
1000
0001
0000
0001
,
0100
0001
0000
0001
,
0010
1001
0000
0001
,
1000
0010
0100
0001
0000
0000
0011
0000
,
0100
0000
0010
0100
0000
0000
1000
0000
,
0010
0100
1000
0100
0000
0000
1001
0000
,
0100
0000
0001
1000
0000
0000
0100
0000
,
0010
0001
0100
0010
0000
0000
1001
0000
,
1000
0000
0010
0100
0000
0000
0001
0000
,
0100
1000
0100
0001
0000
0000
1001
0000
,
0001
1000
0001
1000
0001
0100
0001
0000
,
1000
0001
1000
0001
1000
0010
1000
0000
,
0010
0100
0001
0000
0010
0100
1000
0000
,
1001
1100
1001
0011
,
0001
0000
0100
0001
0100
0010
1000
0000
,
0100
1000
0100
1000
0001
0010
0001
0000
,
1000
0010
0001
0000
0001
0010
1000
0000
,
1000
0100
0001
0000
0001
0100
1000
0000
,
0010
0010
0010
0010
,
0020
0000
0000
0030
0000
0000
0000
0000
,
1001
0000
1000
0001
0000
0000
0100
0000
,
0000
0010
0000
0010
0000
0010
0010
0000
,
1000
0000
0010
0100
0000
0000
0001
0000
,
1000
0100
0010
0000
0000
0000
1001
0000
,
0001
0000
0100
0001
0000
0000
1000
0000
,
0010
0100
0001
0000
0000
0000
1100
0000
,
0001
0100
0001
0100
0010
1000
0010
0000
,
1000
0100
1000
0100
0010
0001
0010
0000
,
0100
1000
0010
0000
0100
0001
0010
0000
,
1000
0010
0001
0000
0001
0100
1000
0000
,
0110
0000
0001
1000
0010
0100
0010
0000
,
1000
0001
1000
0001
0010
0100
0010
0000
,
0010
0001
1000
0000
0010
1000
0001
0000
,
0100
0001
1000
0000
0100
1000
0001
0000
,
0000
0000
0000
0000
,
0000
0000
0000
0000
,
1000
0001
0000
0001
,
0010
0100
0000
0100
,
1000
0010
0000
0010
,
0000
0100
0000
0100
0000
0001
1000
0000
;

//--------------- dance-single - aboutblank ----------------
#NOTES:
     dance-single:
     aboutblank:
     Medium:
     8:
     0,0,0,0,0:
0000
0000
0000
0000
,
0000
0000
0000
0000
,
0000
0000
0000
0000
,
1001
0000
1000
0010
0000
0000
0100
0000
,
0101
0000
0001
0010
0000
0000
0010
0010
,
0110
0000
0000
0000
1000
0100
0000
0000
0000
0000
0000
0000
1000
0010
0000
0000
,
0001
0010
1000
0100
0000
0000
2002
3003
,
0100
0000
0000
0000
0001
0010
0000
0000
0000
0000
0000
0000
0100
1000
0000
0000
,
0010
0100
0001
1000
0000
0000
0202
0303
,
0001
0000
0000
0000
1000
0010
0000
0000
0000
0000
0000
0000
1000
0100
0000
0000
,
0001
0100
1000
0100
0000
0000
0022
0033
,
0001
0000
0000
0000
1000
0001
0000
0000
0000
0000
0000
0000
0100
0001
0000
0000
,
1000
0010
0100
0001
0020
0000
0130
0000
,
1000
0100
0010
0001
0100
0001
1000
0010
,
0001
0010
1000
0200
0000
0000
0310
0000
,
0001
0010
0100
0000
1000
0010
0100
0000
,
0001
0010
1000
0010
0001
0100
1000
0100
,
0002
0000
1003
0010
0100
0000
0101
0000
,
0001
0010
0001
1000
0000
1000
0010
0100
,
1000
0100
0001
0000
1000
0010
0001
0010
,
1000
0100
0001
0100
2000
0000
3001
0000
,
2001
3200
0302
0023
,
2030
0001
0000
3001
,
1010
0000
0000
0000
0100
0001
0000
0000
0000
0000
0000
0000
0010
0100
0000
0000
,
0000
1000
0000
1000
0000
1000
1000
0000
,
1001
0000
0000
0000
0001
0010
0000
0000
0000
0000
0000
0000
0100
0010
0000
0000
,
0001
0000
1000
0010
0100
0000
0001
0000
0000
0000
0000
0000
0202
0000
0303
0000
,
0001
0000
0000
0000
0010
0001
0000
0000
0000
0000
0000
0000
1000
0100
0000
0000
,
0010
0000
0001
1000
0001
0000
0100
0000
0000
0000
0000
0000
0220
0000
0330
0000
,
0001
0000
1000
0010
0100
0001
0010
0100
,
0010
0001
1000
0002
0000
0000
0103
0000
,
0010
1000
0010
0100
0001
0010
0100
1000
,
0001
0100
0010
1000
0001
1000
0100
0010
,
0001
0000
1000
0010
0001
0010
1000
0100
,
0010
0001
0100
0020
0000
0000
0130
0000
,
0001
1000
0001
0100
0010
1000
0010
0100
,
0001
0010
0100
1000
0100
0001
0100
1000
,
0020
0100
0100
0100
,
0130
0000
1000
0001
0000
0000
0000
0000
,
1001
0000
0001
0100
1000
0001
0010
1000
,
0000
0100
0000
0100
0000
0100
0100
0000
,
1001
0000
1000
0100
0001
1000
0010
0001
,
0000
0100
0000
0100
0000
0100
0100
0000
;

//--------------- dance-single - aboutblank ----------------
#NOTES:
     dance-single:
     aboutblank:
     Hard:
     11:
     0.00555,0.010441,0,0.009712,0.004856,4,4,0,1,0,0,0.00555,0.010441,0,0.009712,0.004856,4,4,0,1,0,0:
0000
0000
0000
0000
,
0000
0000
0000
0000
,
0000
0000
0000
0000
,
0000
0000
0000
0000
,
0000
0000
0000
0000
,
1001
0000
0000
0000
0001
1000
0001
0000
0000
0000
0000
0000
0100
0010
0000
0000
,
1000
0000
0100
0010
0001
0010
0001
0000
0000
0000
0000
0000
0202
0000
0303
0000
,
1001
0000
0000
0000
1000
0010
1000
0000
0000
0000
0000
0000
1000
0001
0000
0000
,
0100
0000
0001
0010
0001
0010
0100
0000
0000
0000
0000
0000
1000
0000
0001
0000
,
1100
0000
0000
0000
1000
0100
1000
0000
0000
0000
0000
0000
0010
1000
0000
0000
,
0001
0000
1000
0100
0010
0001
0010
0000
0000
0000
0000
0000
0220
0000
0330
0000
,
1001
0000
0000
0000
1000
0010
0100
0000
0000
0000
0000
0000
0001
0100
0000
0000
,
0001
0000
1000
0010
0100
0001
0000
0000
0000
0000
0000
0000
1000
0000
0001
0000
,
0010
0000
0000
0010
1000
0000
0010
0000
0001
0000
0100
0000
1000
0000
0000
0000
,
0001
0000
0010
0100
0010
0000
2000
0000
0000
0000
0001
0000
3001
0000
0000
0000
,
1000
0000
0000
1000
0100
0000
0001
0000
0100
0000
0010
0000
0010
0000
0001
0000
,
1000
0000
0010
0100
0010
0000
1000
0000
0010
0000
0100
0000
0101
0000
0000
0000
,
0001
0000
0000
0001
1000
0000
0100
0000
0001
0000
0100
0000
0010
0000
0001
0000
,
1000
0010
0001
0020
0000
0100
0130
0001
,
1000
0010
0110
0000
0001
0010
0110
0100
,
1000
0100
0001
0100
1000
0010
0001
0010
,
2000
3100
0002
0013
,
1001
0000
0000
0000
0100
0000
0010
0000
0100
0000
0001
2000
0002
0000
3003
0000
,
0011
0010
0001
0100
1000
0100
0001
0010
,
0000
0010
0000
0010
0000
0010
0010
0110
,
1001
0000
0000
0000
1000
0010
1000
0000
0000
0000
0000
0000
0001
0100
0000
0000
,
0001
0000
1000
0010
0100
0010
1000
0000
0000
0000
0000
0000
2002
0000
3003
0000
,
0101
0000
0000
0000
0001
0100
0001
0000
0000
0000
0000
0000
1000
0100
0000
0000
,
0010
0000
0001
0010
0100
0010
0001
0000
0000
0000
0000
0000
1000
0000
0010
0000
,
0101
0000
0100
0001
1000
0000
0010
0000
0001
0000
0010
0000
1000
0000
0100
0000
,
0010
0010
0001
2000
0000
0010
3010
1000
,
0001
0000
0010
0001
1000
0000
0100
0000
0010
0000
0001
0000
0100
0000
2000
0000
,
0001
3001
0010
2000
0100
3100
0010
0001
,
1001
0000
0000
1000
0001
0000
0001
0000
0010
0000
0100
0000
0010
0000
0001
0000
,
1000
0010
0100
0002
0000
1000
1003
0001
,
0100
0000
0100
0010
1000
0000
0001
0000
0010
0000
0100
0000
0010
0000
0002
0000
,
0000
1003
0001
0010
1000
0001
0100
1000
,
0020
0000
0000
0000
,
0000
0000
0000
0030
,
0101
1000
0100
0001
0010
0001
0100
1000
,
0000
0000
0010
0000
0000
0000
0010
0000
0000
0000
0010
0100
0010
0000
0000
0000
,
1100
0001
0010
1000
0100
1000
0010
0001
,
0000
0000
0100
0000
0000
0000
0100
0000
0000
0000
0100
0010
0100
0000
0000
0000
;
