#TITLE:Love Me Tonight;
#SUBTITLE:;
#ARTIST:Smashtrax;
#TITLETRANSLIT:;
#SUBTITLETRANSLIT:;
#ARTISTTRANSLIT:;
#GENRE:;
#CREDIT:;
#MUSIC:Love Me Tonight.mp3;
#BANNER:;
#BACKGROUND:;
#CDTITLE:;
#SAMPLESTART:0.000;
#SAMPLELENGTH:0.000;
#SELECTABLE:YES;
#OFFSET:-0.075;
#BPMS:0.000=120.000;
#STOPS:;
#BGCHANGES:;
#FGCHANGES:;

//--------------- dance-single - ----------------
#NOTES:
     dance-single:
     :
     Beginner:
     1:
     0,0,0,0,0:
0000
0000
0000
0000
,
0000
0000
0000
0000
,
1001
0000
0000
0000
,
0000
0000
0000
0000
,
0110
0000
0000
0000
,
0000
0000
0000
0000
,
1001
0000
0000
0000
,
0000
0000
0000
0000
,
0110
0000
0000
0000
,
1001
0000
0000
0000
,
0000
0000
0000
0000
,
1000
0000
0000
0000
,
1000
0000
0000
0000
,
0001
0000
0000
0000
,
0001
0000
0000
0000
,
0010
0000
0000
0000
,
0010
0000
0000
0000
,
0100
0000
0000
0000
,
0100
0000
0000
0000
,
2000
0000
0000
0000
,
3000
0000
0000
0000
,
1001
0000
0000
0000
,
0000
0000
0000
0000
,
0110
0000
0000
0000
,
0000
0000
0000
0000
,
1001
0000
0000
0000
,
0000
0000
0000
0000
,
0110
0000
0000
0000
,
1001
0000
0000
0000
,
0000
0000
0000
0000
,
0000
0000
0000
0000
,
0000
0000
0000
0000
,
0000
0000
0000
0000
,
1000
0000
0000
0000
,
1000
0000
0000
0000
,
0001
0000
0000
0000
,
0001
0000
0000
0000
,
0200
0000
0000
0000
,
0300
0000
0000
0000
,
0110
0000
0000
0000
,
1001
0000
0000
0000
,
0110
0000
0000
0000
,
0000
0000
0000
0000
,
1001
0000
0000
0000
,
0110
0000
0000
0000
,
1001
0000
0000
0000
;

//--------------- dance-single - ----------------
#NOTES:
     dance-single:
     :
     Easy:
     4:
     0,0,0,0,0:
0000
0000
0000
0000
,
0000
0000
0000
0000
,
1000
0000
0000
0020
0000
0000
0030
0000
,
0001
0000
0000
0200
0000
0000
0300
0000
,
1000
0000
0000
0002
0000
0000
0003
0000
,
0010
0100
1001
0000
,
0002
0000
0000
0100
0000
0000
0003
0000
,
2000
0000
0000
0010
0000
0000
3000
0000
,
0002
0000
0000
1000
0000
0000
0003
0000
,
0100
0010
1001
0000
,
0010
0000
1000
0000
0000
0100
0010
0000
,
0001
0000
0001
0000
0001
0000
0000
1000
,
0000
0001
0010
0100
,
1000
0000
1000
0000
0010
0000
0000
0100
,
0000
0001
1000
0001
,
0010
0000
0010
0000
0100
0000
0000
1000
,
0000
0100
0001
0100
,
1000
0000
1000
0000
0010
0000
0000
0001
,
0000
0010
0100
0001
,
0020
0000
0000
0030
,
0200
0000
0000
0300
,
1000
0000
0100
2000
0000
0000
3000
0000
,
0001
0000
0100
0002
0000
0000
0003
0000
,
1000
0000
0010
2000
0000
0000
3000
0000
,
0010
0100
0010
0000
0110
0000
0000
0000
,
0001
0000
0100
0002
0000
0000
0003
0000
,
1000
0000
0010
2000
0000
0000
3000
0000
,
0100
0000
0010
0200
0000
0000
0300
0000
,
1000
0010
0101
0000
,
0000
0000
0000
0000
,
0000
0000
0000
0000
,
0000
0000
0000
0000
,
0000
0000
0000
0000
,
0001
0000
0010
0000
1100
0000
0000
0001
,
0000
0100
0010
1000
,
0001
0000
0010
0000
0110
0000
0000
1000
,
0000
0010
0100
0001
,
2000
0000
0000
3000
,
0002
0000
0000
0003
,
0100
0000
0001
0100
0000
0000
0101
0000
,
1000
0000
0010
1000
0000
0000
1010
0000
,
1000
0000
0100
1000
0000
0000
1100
0000
,
0001
1000
0010
0000
,
0100
0000
0001
0100
0000
0000
0101
0000
,
0001
0000
0010
0001
0000
0000
0011
0000
,
1000
0000
0010
1000
0000
0000
1010
0000
,
0001
1000
1001
0000
;

//--------------- dance-single - ----------------
#NOTES:
     dance-single:
     :
     Medium:
     7:
     0,0,0,0,0:
0000
0000
0000
0000
,
0000
0000
0000
0000
,
0001
0000
0010
0100
0000
0100
0000
0000
,
1000
0000
0001
0100
0000
0100
0000
0000
,
0001
0000
0010
0100
0000
1000
0000
0000
,
0010
1000
0010
0000
0101
0000
0000
0000
,
1000
0000
0100
0010
0000
0010
0000
0000
,
0001
0000
1000
0010
0000
0010
0000
0000
,
0100
0000
0001
0010
0000
0110
0000
0000
,
1000
0001
1000
0000
1001
0000
0000
0000
,
0001
0100
0001
0000
0010
1000
0010
0000
,
0001
0000
0110
0000
1001
0000
0000
1000
,
0000
0010
0100
0000
1000
0001
1000
0000
,
0100
0000
0001
0000
0011
0000
0000
0001
,
0000
1000
0001
0000
0100
0100
0010
0000
,
1000
0000
0010
0000
0101
0000
0000
1000
,
0000
0100
0010
0000
0001
1000
0001
0000
,
0100
0000
0011
0000
1001
0000
0000
1000
,
0000
0010
0100
0000
0001
0100
0001
0000
,
0020
0000
0100
0130
,
2000
0000
0001
3001
,
0100
0000
0001
1000
0000
1000
0000
0000
,
0010
0000
1000
0001
0000
0001
0000
0000
,
0100
0000
0001
1000
0000
1000
0000
0000
,
0110
1010
0101
0000
,
0010
0000
0001
0100
0000
0100
0000
0000
,
0010
0000
1000
0100
0000
0100
0000
0000
,
1000
0010
0100
0001
0000
1001
0000
0000
,
0011
0110
1100
0000
,
0000
0000
0000
0000
,
0000
0000
0000
0000
,
0000
0000
0000
0000
,
0000
0000
0000
0000
,
1100
0000
0101
0000
1001
0000
0000
0010
,
0000
1000
0001
0000
0100
0100
0010
0000
,
1000
0000
0011
0000
1100
0000
0000
0001
,
0000
0010
0100
0000
1000
0100
0010
0000
,
0002
0000
0100
0003
,
2000
0000
0010
3000
,
0001
0000
0010
0100
0000
1000
0000
0000
,
1000
0000
0010
0100
0000
0001
0000
0000
,
1000
0000
0001
0100
0000
0010
0000
0000
,
1010
1100
0101
0000
,
1000
0000
0001
0010
0000
0100
0000
0000
,
1000
0000
0010
0100
0000
0001
0000
0000
,
1000
0001
0010
0100
0000
1100
0000
0000
,
0001
0010
0001
0000
0101
0000
0000
0000
;

//--------------- dance-single - ----------------
#NOTES:
     dance-single:
     :
     Hard:
     9:
     0,0,0,0,0:
0000
0000
0000
0000
,
0000
0000
0000
0000
,
0002
0000
0000
0200
0000
0000
0303
0000
,
2000
0000
0000
0020
0000
0000
3030
0000
,
0002
0000
0000
0020
0000
0000
0033
0000
,
1010
0101
1100
0000
,
2010
0000
0000
0200
0000
0000
3300
0000
,
0012
0000
0000
0200
0000
0000
0303
0000
,
0001
0010
0100
1000
0000
0110
0000
0000
,
0001
1000
0001
0000
0101
0000
1100
0000
,
0001
0001
0100
0000
1000
0100
0001
0000
,
0010
0000
0010
0000
1001
0000
0100
0001
,
0000
1000
0010
0000
1000
1000
0100
0000
,
1000
0000
1010
0000
0101
0000
0001
0010
,
0000
0010
0100
1000
0100
0010
0001
0000
,
1000
0000
0101
0000
0011
0000
1000
0001
,
0000
0010
0001
0000
0100
0100
0010
0000
,
0100
0000
0110
0000
1001
0000
0001
1000
,
0000
0100
1000
0010
0100
0001
0010
0000
,
0001
0001
0100
1000
0000
0100
0010
0000
,
1000
1000
0100
0010
0000
0001
0100
0000
,
0001
0010
0100
2000
0000
0010
3000
0000
,
1000
0100
0010
0002
0000
0100
0003
0000
,
0001
1000
0010
0200
0000
0010
0300
0000
,
0001
1000
0001
0000
0110
0000
0000
0000
,
1000
0010
0100
0020
0000
1000
0030
0000
,
0001
0010
0100
0020
0000
0001
0030
0000
,
0100
1000
0010
0001
0000
1001
0000
0000
,
0001
1000
0001
0000
0011
0000
0000
0000
,
1000
0100
1000
0100
0010
0001
0000
1001
,
0000
0001
0100
0001
0010
0100
1000
0000
,
1000
0010
1000
0010
0100
0001
0000
0011
,
0000
0010
0100
1000
0010
0100
0001
0000
,
1001
0000
1001
0000
0110
0000
0001
0010
,
0000
0010
0100
1000
0010
0100
0001
0000
,
1001
0000
0110
0000
1001
0000
1000
0010
,
0000
0010
0100
0001
0010
0100
1000
0000
,
0000
0000
0010
2000
0000
3200
0000
0300
,
0000
0010
0001
0020
0000
0230
0000
0300
,
1000
0001
1000
0020
0000
0100
0030
0000
,
0001
1000
0001
0020
0000
0100
0030
0000
,
1000
0100
0010
0200
0000
1000
0300
0000
,
0001
0100
0010
0000
1001
0000
0000
0000
,
0001
0010
1000
0020
0000
0001
0030
0000
,
1000
0100
0001
0200
0000
1000
0300
0000
,
0010
1000
0100
0001
0000
0101
0000
0000
,
0001
1000
0001
0000
0110
0000
0000
0000
;
