#TITLE:Love Actually;
#SUBTITLE:;
#ARTIST:Cady Groves;
#TITLETRANSLIT:;
#SUBTITLETRANSLIT:;
#ARTISTTRANSLIT:;
#GENRE:;
#CREDIT:;
#MUSIC:Love Actually.mp3;
#BANNER:;
#BACKGROUND:;
#CDTITLE:;
#SAMPLESTART:43.787;
#SAMPLELENGTH:15.360;
#SELECTABLE:YES;
#OFFSET:-1.547;
#BPMS:0.000=125.000
,56.000=62.500
,68.000=125.000
;
#STOPS:71.500=1.920
,195.500=1.920
;
#BGCHANGES:;
#FGCHANGES:;

//--------------- dance-single - eataninja ----------------
#NOTES:
     dance-single:
     eataninja:
     Beginner:
     1:
     0,0,0,0,0:
0000
0000
0000
0000
,
0000
0000
0000
0000
,
0000
0000
0000
0000
,
0000
0000
0000
0000
,
0000
0000
0000
0000
,
0000
0000
0000
0000
,
1000
0000
0000
0000
,
0010
0000
0000
0000
,
0100
0000
0000
0000
,
0001
0000
0000
0000
,
0010
0000
0000
0000
,
0100
0000
0000
0100
,
0100
0000
0000
0000
,
1000
0000
0000
0000
,
0002
0000
0003
0000
,
2000
0000
3000
0000
,
0020
0000
0030
0000
,
0200
0000
0000
0000
0000
0000
0000
0300
,
1001
0000
0000
0000
,
1000
0000
0100
0000
,
0010
0000
0000
0000
,
0001
0000
1000
0000
,
0001
0000
0000
0000
,
0100
0000
0010
0000
,
1000
0000
0000
0000
,
0010
0000
0000
0000
,
1001
0000
0000
0000
,
0001
0000
0010
0000
,
0100
0000
0000
0000
,
1000
0000
0001
0000
,
1000
0000
0000
0000
,
0010
0000
0100
0000
,
0001
0000
0000
0000
,
0001
0000
0000
0000
,
0020
0000
0130
0000
,
0020
0000
0130
0000
,
1000
0000
0000
0000
,
0001
0000
0000
0000
,
0100
0000
0000
0000
,
0010
0000
0000
0000
,
0100
0000
0000
0000
,
0001
0001
0001
0000
,
1000
0000
0000
0000
,
0001
0000
0000
0000
,
0010
0000
0000
0000
,
0100
0000
0000
0000
,
1000
0000
0000
0000
,
0010
0000
0010
0020
,
0000
0000
0000
0000
0000
0000
0000
0030
,
1001
0000
0000
0000
,
1000
0000
0100
0000
,
0010
0000
0000
0000
,
0001
0000
1000
0000
,
0001
0000
0000
0000
,
0100
0000
0010
0000
,
1000
0000
0000
0000
,
0010
0000
0000
0000
,
1001
0000
0000
0000
,
0001
0000
0010
0000
,
0100
0000
0000
0000
,
1000
0000
0001
0000
,
1000
0000
0000
0000
,
0010
0000
0100
0000
,
0001
0000
0000
0000
,
0001
0000
0000
0000
,
1001
0000
0000
0000
,
0010
0000
0100
0000
,
0001
0000
0000
0000
,
0010
0000
0010
0000
,
1001
0000
0000
0000
,
0010
0000
0100
0000
,
1000
0000
0000
0000
,
0001
0001
0001
0000
,
0100
0000
0000
0000
;

//--------------- dance-single - eataninja ----------------
#NOTES:
     dance-single:
     eataninja:
     Easy:
     3:
     0,0,0,0,0:
0000
0000
0000
0000
,
0000
0000
0000
0000
,
0000
0000
0000
0000
,
0000
0000
0000
0000
,
0000
0000
0000
0000
,
0000
0000
0000
0000
,
1000
0010
0100
0000
,
0010
0100
0010
0000
,
1000
0001
0010
0000
,
0100
0010
0001
0000
,
2000
0000
3000
0000
,
0001
0100
0001
0001
,
1000
0000
0000
0000
,
0100
0000
0000
0000
,
0100
0010
0001
0001
,
0100
0010
1000
0000
,
0001
0100
0010
1000
,
0200
0000
0000
0000
0000
0000
0000
0300
,
2002
0000
3003
0000
,
1000
0010
1000
0010
,
0100
0000
0000
0000
,
0001
0010
0100
0000
,
2002
0000
3003
0000
,
0001
1000
0001
1000
,
0010
0000
0000
0000
,
0100
0100
0100
0000
,
2002
0000
3003
0000
,
0001
0100
0001
0100
,
0010
0000
0000
0000
,
1000
0001
0010
0000
,
2002
0000
3003
0000
,
1000
0100
0010
0001
,
1000
0000
0000
0000
,
0020
0230
0320
0230
,
0301
0000
1000
0100
,
1000
0000
0001
1001
,
1000
0000
0100
0000
,
0001
0000
0100
0000
,
0010
0000
0001
0000
,
0100
0000
1000
0000
,
0100
0000
0010
0000
,
0010
0010
1000
0000
,
0001
1000
0001
0000
,
0010
0100
1000
0000
,
1000
0001
1000
0000
,
0010
0100
0001
0000
,
2000
0000
3000
0000
,
0001
0010
0001
0010
,
0200
0000
0000
0000
0000
0000
0000
0300
,
2002
0000
3003
0000
,
0001
0100
0001
0100
,
0010
0000
0000
0000
,
1000
0100
0010
0000
,
2002
0000
3003
0000
,
1000
0001
1000
0001
,
0100
0000
0000
0000
,
0010
0010
0010
0000
,
2002
0000
3003
0000
,
1000
0010
1000
0010
,
0100
0000
0000
0000
,
0001
1000
0100
0000
,
2002
0000
3003
0000
,
0001
0010
0100
1000
,
0001
0000
0000
0000
,
0200
0320
0230
0320
,
1030
0000
1001
0000
,
0001
0010
0100
0000
,
1000
0000
1001
0000
,
0100
0100
0010
1000
,
0001
0000
1001
0000
,
1000
0100
0010
0000
,
0001
0000
1001
0000
,
1000
0010
1000
0010
,
0100
0000
0000
0000
;

//--------------- dance-single - eataninja ----------------
#NOTES:
     dance-single:
     eataninja:
     Medium:
     6:
     0,0,0,0,0:
0000
0000
0000
0000
,
0000
0000
0000
0000
,
0000
0000
0000
0000
,
0000
0000
0000
0000
,
0000
0000
0000
0000
,
0000
0000
0000
0000
,
1000
0001
0100
0110
,
0001
1000
0100
0010
,
0001
1000
0010
0110
,
1000
0010
0001
0010
,
0200
0000
0301
0000
,
1000
0000
0100
0000
0010
0100
0010
0000
,
0001
0000
0000
0000
1000
0000
0010
0100
,
0010
0000
1000
0001
,
0020
0000
0100
0000
0001
0001
0031
0000
,
0100
0110
1000
1001
,
0020
0000
1000
0000
0100
0001
0130
0000
,
0200
0000
0000
0000
0000
0000
0000
0300
,
1001
1000
0010
0100
,
0001
0000
0001
0000
0010
0100
0010
0000
,
0001
1000
0010
0100
,
1000
0100
0001
1000
,
1001
0001
0010
0100
,
1000
0001
1000
0000
0010
0100
0010
0000
,
1000
0001
0010
0100
,
0001
0100
1000
0100
,
0110
0001
1000
1000
,
0010
0100
0010
0000
1000
0000
0001
0000
,
0010
0100
1000
1000
,
0001
0000
1000
0010
1000
0000
0001
0000
,
0100
0010
1000
0001
,
0010
0001
0010
0000
0100
0010
0100
0000
,
1000
0002
0100
0103
,
1000
0100
0001
0010
,
0100
0010
0000
0100
0020
0000
0031
0000
,
0100
0010
0000
0100
0010
0000
1001
0000
,
1000
0000
0000
0000
0001
0010
0001
0000
,
1000
0000
0000
0000
0010
0100
0001
0000
,
1000
0000
0000
0000
0001
0100
0001
0000
,
1000
0100
0001
0100
,
0020
0000
0001
0130
,
1000
0000
0001
0000
0100
0010
0100
0000
,
0001
0000
0001
0000
1000
0010
1000
0000
,
0001
0000
0010
0000
0100
0010
0100
0000
,
1000
0000
1000
0000
0001
0100
0001
0000
,
1000
0010
0001
0010
,
0200
0000
0001
0310
,
1000
1001
0010
0200
,
0000
0000
0000
0000
0000
0000
0000
0300
,
1001
0001
0100
0010
,
1000
0000
1000
0000
0100
0010
0100
0000
,
1000
0001
0100
0010
,
0001
0010
1000
0001
,
1001
1000
0100
0010
,
0001
1000
0001
0000
0100
0010
0100
0000
,
0001
1000
0100
0010
,
1000
0010
0001
0010
,
0110
1000
0001
0001
,
0100
0010
0100
0000
0001
0000
1000
0000
,
0100
0010
0001
0001
,
1000
0000
0001
0100
0001
0000
1000
0000
,
0010
0100
0001
1000
,
0100
1000
0100
0000
0010
0100
0010
0000
,
0001
2000
0010
3010
,
0001
0010
1000
0100
,
0010
0010
1001
1001
,
0020
0000
0130
0002
0000
1000
1003
0000
,
0100
0100
1001
1001
,
0010
0001
0010
0000
0100
1000
0001
0000
,
0100
0100
1001
1001
,
0020
0000
1030
0002
0000
0100
0103
0000
,
0010
0010
1001
1001
,
0010
0001
0010
0000
0100
0000
1000
0001
,
0000
0000
0100
0000
0020
0030
0000
0000
0000
0000
0000
0000
0000
0000
0000
0000
;

//--------------- dance-single - eataninja ----------------
#NOTES:
     dance-single:
     eataninja:
     Hard:
     9:
     0,0,0,0,0:
0000
0000
0000
0000
,
0000
0000
0000
0000
,
0000
0000
0000
0000
,
0000
0000
0000
0000
,
0000
0000
0000
0000
,
0000
0000
0000
0000
,
1000
0000
0100
0010
0001
1000
0100
0000
,
1000
0000
0001
0010
0100
1000
0000
0020
,
0000
0130
0001
0001
1000
0001
0000
0020
,
0000
0130
0001
0000
0100
1000
0000
1002
,
0000
0000
1000
0000
0010
0010
0013
0000
,
0100
0000
1000
0000
0010
0100
0001
0000
,
1000
0010
0000
1000
0001
0000
0011
0000
,
1000
0100
0000
1000
0001
0000
0100
0000
,
0010
0000
0000
0010
0110
0000
0000
0000
0100
0000
0001
0000
1001
0000
0000
0000
,
0100
0000
0000
0100
0110
0000
0000
0000
0010
0000
1000
0000
1001
0000
0000
0000
,
1000
0000
0100
0000
0010
0010
0010
0000
0001
0000
1000
0000
0020
0000
0000
0000
,
0100
0000
0100
0000
0100
0000
0100
0030
,
1001
0000
0000
0000
1000
0000
0000
0000
0010
0000
0000
0100
0000
0000
0010
0000
,
1000
0000
0000
0000
0001
0000
0000
0000
0010
0000
0000
0100
0000
0000
1000
0000
,
0001
0000
0000
0000
0001
0000
0000
0000
0100
0000
0000
0010
0000
0000
0100
0000
,
0001
0000
0000
0000
1000
0000
0000
0000
0100
0000
0000
0010
0000
0000
0001
0000
,
0100
0000
0000
0000
0100
0000
0000
0000
0010
0000
0000
0100
0000
0000
0001
0000
,
1000
0100
0001
0100
0010
0100
1000
0001
,
0000
0100
0020
0000
1000
0000
0130
0000
,
0001
0010
0100
1000
0010
0100
0001
0000
,
1001
0000
0000
0000
0100
0000
0000
0000
0010
0000
0000
0100
0000
0000
0001
0000
,
1000
0000
0000
0000
1000
0000
0000
0000
0100
0000
0000
0001
0000
0000
0100
0000
,
1000
0000
0000
0000
0010
0000
0000
0000
0100
0000
0000
0010
0000
0000
1000
0000
,
0001
0000
0000
0000
0001
0000
0000
0000
0100
0000
0000
1000
0000
0000
0100
0000
,
0001
0000
0000
0000
1000
0000
0000
0000
0100
0000
0000
0010
0000
0000
0001
0000
,
1000
0010
0100
0010
0001
0010
1000
0001
,
0000
0010
0200
0000
1000
0000
0310
0000
,
0001
1000
0010
0100
0010
1000
0001
0000
,
1000
0010
0000
0100
2000
0000
3100
0000
,
0010
1000
0000
0100
0010
0001
1001
0000
,
1000
0010
1000
0010
0100
0001
1000
0000
,
0001
0010
0100
1000
0001
1000
0010
0000
,
0100
0010
0100
0001
0010
0100
1000
0000
,
0001
0100
2000
0000
3100
0010
1000
0000
,
0001
0010
0000
0001
1000
0001
0100
0000
,
2000
0000
3200
0000
0301
0010
0100
0000
,
1000
0100
1100
0000
0001
1000
0010
0000
,
0100
0010
0110
0000
0001
1000
0001
0000
,
0010
0001
0011
0000
1000
0001
0100
0000
,
0010
0100
2000
0000
3100
0001
1000
0010
,
0100
0000
0101
0000
0001
1000
0100
0000
,
0010
0001
0010
0001
1000
0010
0200
0000
,
0010
0000
0010
0000
0010
0000
0010
0300
,
0001
0000
0000
0000
0001
0000
0000
0000
1000
0000
0000
0100
0000
0000
0010
0000
,
0001
1000
0001
0001
0100
0010
1000
0000
,
0001
0000
0000
0000
0001
0000
0000
0000
1000
0000
0000
0010
0000
0000
0100
0000
,
1000
0000
0100
0001
0010
0100
1000
0000
,
0100
0000
0000
0000
0100
0000
0000
0000
0010
0000
0000
0001
0000
0000
1000
0000
,
0010
0100
1000
0100
0010
0100
0001
1000
,
0000
0100
0020
0000
0001
0000
0130
0000
,
1000
0100
0010
0001
0100
0010
1000
0000
,
0001
0000
0000
0000
0001
0000
0000
0000
1000
0000
0000
0010
0000
0000
0100
0000
,
0010
1000
0100
0010
0001
1000
0100
0000
,
1000
0000
0000
0000
1000
0000
0000
0000
0001
0000
0000
0100
0000
0000
0010
0000
,
0001
0000
0010
1000
0100
0010
0001
0000
,
0100
0000
0000
0000
0100
0000
0000
0000
0010
0000
0000
1000
0000
0000
0001
0000
,
0010
0100
0001
0100
0010
0100
1000
0001
,
0000
0100
0020
0000
1000
0000
0130
0000
,
0001
1000
0100
0010
0100
1000
0001
0100
,
0000
0000
0010
0000
1000
0000
0000
0000
0100
0000
0000
0100
0000
0000
0100
0000
,
0002
0000
0103
0020
0000
0031
2000
0000
,
3010
0000
0000
0000
0010
0000
0000
0000
0100
0000
0000
0001
0000
0000
0100
0000
,
0010
1000
0100
0010
0001
0100
0010
1000
,
0000
0000
0001
0000
0100
0000
0000
0000
0010
0000
0000
0010
0000
0000
0010
0000
,
0002
0000
0013
2000
0000
3100
0020
0000
,
0031
0000
0000
0000
1000
0000
0000
0000
0010
0000
0000
0100
0000
0000
0001
0000
,
1000
0100
0001
0100
1000
0100
0010
0001
,
0000
0000
0100
0000
0200
0300
0000
0000
0000
0000
0000
0000
0000
0000
0000
0000
;
