#TITLE:Liliputians' Dance;
#SUBTITLE:;
#ARTIST:oo39.com;
#TITLETRANSLIT:;
#SUBTITLETRANSLIT:;
#ARTISTTRANSLIT:;
#GENRE:;
#CREDIT:;
#MUSIC:Liliputians' Dance.mp3;
#BANNER:;
#BACKGROUND:;
#CDTITLE:;
#SAMPLESTART:24.074;
#SAMPLELENGTH:12.000;
#SELECTABLE:YES;
#OFFSET:1.926;
#BPMS:0.000=120.000;
#STOPS:;
#BGCHANGES:;
#FGCHANGES:;

//--------------- dance-single - OrangeRight ----------------
#NOTES:
     dance-single:
     OrangeRight:
     Beginner:
     2:
     0,0,0,0,0:
0000
0000
0000
0000
,
0000
0000
0000
0000
,
0000
0000
0000
0000
,
0000
0000
0000
0000
,
0000
0000
0000
0000
,
1000
0000
0000
0000
,
1000
0000
0001
0000
,
1000
0000
0000
0000
,
1000
0000
0001
0000
,
1000
0000
0000
0000
,
1000
0000
0100
0000
,
0010
0000
0000
0000
,
0010
0000
0001
0000
,
1000
0000
0000
0000
,
1000
0000
0010
0000
,
0100
0000
0000
0000
,
0100
0000
0001
0000
,
1000
0000
1000
0000
,
1000
0000
0001
0000
,
1000
0000
1000
0000
,
1000
0000
0001
0000
,
1000
0000
0000
0000
,
0010
0000
0100
0000
,
0001
0000
0000
0000
,
0010
0000
0100
0000
,
1000
0000
0000
0000
,
0100
0000
0010
0000
,
0001
0000
0000
0000
,
0100
0000
0010
0000
,
1000
0000
1000
0000
,
0001
0000
0001
0000
,
1000
0000
1000
0000
,
0001
0000
1000
0000
,
0001
0000
0100
0000
,
0010
0000
1000
0000
,
0100
0000
0010
0000
,
0001
0000
1000
0000
,
1001
0000
0000
0000
,
1000
0000
0001
0000
,
1001
0000
0000
0000
,
0001
0000
1000
0000
,
0001
0000
0001
0000
,
0001
0000
1000
0000
,
0001
0000
0001
0000
,
0001
0000
1000
0000
,
0001
0000
0100
0000
,
0010
0000
1000
0000
,
1000
0000
0100
0000
,
0010
0000
0001
0000
,
1000
0000
0010
0000
,
0100
0000
0001
0000
,
0001
0000
0010
0000
,
0100
0000
1000
0000
,
0001
0000
1000
0000
,
0010
0000
0100
0000
,
0001
0000
0001
0000
,
0001
0000
0100
0000
,
0010
0000
1000
0000
,
0001
0000
1000
0001
;

//--------------- dance-single - OrangeRight ----------------
#NOTES:
     dance-single:
     OrangeRight:
     Easy:
     5:
     0,0,0,0,0:
0000
0000
0000
0000
,
0000
0000
0000
0000
,
0000
0000
0000
0000
,
0000
0000
0000
0000
,
0000
0000
0000
0000
,
1000
0100
1000
0001
,
1000
0010
0200
0300
,
0001
0010
0001
1000
,
0001
0100
0020
0030
,
1000
0100
1000
0010
,
0100
0001
0001
0000
,
1000
1000
0001
0100
,
0010
1000
1000
0000
,
0001
0010
0001
0100
,
0010
1000
1000
0000
,
0001
0001
1000
0010
,
0100
0001
0001
0000
,
2000
0000
0001
0000
,
0001
0000
3100
0000
,
1002
0000
1000
0000
,
1000
0000
0103
0000
,
0001
0100
0010
1000
,
0100
0010
0010
0000
,
0100
0100
1000
0001
,
0100
0010
0010
0000
,
1000
0010
0100
0001
,
0010
0100
0100
0000
,
0010
0010
0001
1000
,
0010
0001
0010
0000
,
2000
3000
0002
0003
,
1000
0001
0100
0010
,
0200
0300
0020
0030
,
0100
0010
1000
0001
,
1000
0100
0010
0001
,
1000
1000
0001
0001
,
1000
0010
0100
0001
,
0010
0010
0100
0100
,
1000
0010
1000
0001
,
0100
0010
2000
3000
,
0001
0100
0001
0010
,
0100
1000
0020
0030
,
2000
0000
0100
0000
,
0010
0000
3001
0000
,
0002
0000
0100
0000
,
0010
0000
1003
0000
,
1000
0001
0100
0001
,
1000
0000
0100
0100
0100
0000
0000
0000
,
0010
0010
0001
0100
,
0010
0000
1000
1000
1000
0000
0000
0000
,
0001
1000
0010
1000
,
0001
0000
0010
0010
0010
0000
0000
0000
,
0100
0100
1000
0010
,
0100
0000
0001
0001
0001
0000
0000
0000
,
1000
1000
1000
0000
0001
0001
0001
0000
,
1000
0001
1001
0000
,
1200
0000
1000
0000
,
1000
0000
0310
0000
,
0012
0000
0010
0000
,
0203
0000
0310
1000
;

//--------------- dance-single - OrangeRight ----------------
#NOTES:
     dance-single:
     OrangeRight:
     Medium:
     8:
     0,0,0,0,0:
0000
0000
0000
0000
,
0000
0000
0000
0000
,
0000
0000
0000
0000
,
0000
0000
0000
0000
,
0000
0000
0000
0000
,
1000
0100
1000
0001
,
1000
0000
0000
0000
0010
0000
0000
0100
0000
0000
0000
0000
0100
0000
0000
0000
,
0001
0010
0001
1000
,
0001
0000
0000
0000
0100
0000
0000
0010
0000
0000
0000
0000
0010
0000
0000
0000
,
1000
0000
0100
0000
1000
0000
0000
0000
0001
0000
0000
0100
0000
0000
0001
0000
,
0000
0000
1000
0000
0010
0000
0000
0100
0000
0000
0000
0000
0100
0000
0000
0000
,
0001
0000
0010
0000
0001
0000
0000
0000
1000
0000
0000
0010
0000
0000
1000
0000
,
0000
0000
0001
0000
0100
0000
0000
0010
0000
0000
0000
0000
1000
0000
0000
0000
,
0001
0000
0100
0000
0001
0000
0000
0000
1000
0000
0000
0010
0000
0000
1000
0000
,
0000
0000
0100
0000
0010
0000
0000
0001
0000
0000
0000
0000
0001
0000
0000
0000
,
1000
0010
1000
0010
0100
0001
0100
0000
,
0001
0000
1000
0000
0001
1000
0000
0001
0000
0000
0000
0000
1000
0000
0000
0000
,
0002
1000
1000
0100
,
0100
0000
0000
0000
0013
0000
0000
1001
0000
0000
0000
0000
0001
0000
0000
0000
,
2000
0001
0001
0010
,
0010
0000
0000
0000
3100
0000
0000
1001
0000
0000
0000
0000
0001
0000
0000
0000
,
1000
0000
0100
0000
0010
0000
0000
0000
0001
0000
0000
0100
0000
0000
0010
0000
,
0000
0000
1000
0000
0001
0000
0000
1000
0000
0000
0000
0000
1000
0000
0000
0000
,
0001
0000
0100
0000
0010
0000
0000
0000
1000
0000
0000
0100
0000
0000
0010
0000
,
0000
0000
0001
0000
1000
0000
0000
0100
0000
0000
0000
0000
0100
0000
0000
0000
,
1000
0000
0010
0000
0100
0000
0000
0000
0001
0000
0000
1000
0000
0000
0001
0000
,
0000
0000
1000
0000
0100
0000
0000
0010
0000
0000
0000
0000
0010
0000
0000
0000
,
0001
0100
0010
0100
0001
1000
0001
0000
,
1000
0000
0001
0000
1000
0001
0000
1000
0000
0000
0000
0000
0001
0000
0000
0000
,
1000
0000
0000
0100
1000
0000
0000
0000
0001
0000
0100
0000
0001
0000
0000
0000
,
1000
0010
0100
0001
1000
0001
0010
0000
,
0001
0000
0000
0010
0001
0000
0000
0000
1000
0000
0010
0000
1000
0000
0000
0000
,
0010
0000
0000
0100
0010
0000
0000
0000
1000
0000
0001
0000
1000
0000
0001
0000
,
1000
0100
1000
0100
1000
0010
1000
0010
,
0100
0000
0000
0001
0000
0000
0010
0000
0100
0000
1000
0000
0100
0000
1000
0000
,
0010
1000
0010
1000
0001
0100
0001
0100
,
0001
1000
0000
0001
0000
0000
1000
0000
0000
0000
0001
0000
1000
0000
0100
0000
,
0010
0001
0100
0001
,
1000
0000
0000
0000
0001
0000
0000
1001
0000
0000
0000
0000
1000
0000
0000
0000
,
0010
1000
0100
1000
,
0001
0000
0000
0000
1000
0000
0000
1001
0000
0000
0000
0000
0001
0000
0000
0000
,
2000
0010
0010
0100
,
0100
0000
0000
0000
3001
0000
0000
0101
0000
0000
0001
0000
0010
0000
0000
0000
,
0002
0010
0010
0100
,
0100
0000
0000
0000
1003
0000
0000
1010
0000
0000
1000
0000
0100
0000
0000
0000
,
1000
0000
0100
0000
1000
0000
0100
0000
0010
0000
0000
0001
0000
0000
0010
0000
,
0000
0000
0001
0000
0100
0000
0001
0100
0000
0000
0010
0000
0110
0000
0000
0000
,
0010
0000
1000
0000
0010
0000
1000
0000
0001
0000
0000
0100
0000
0000
0001
0000
,
0000
0000
1000
0000
0100
0000
1000
0100
0000
0000
1000
0000
1001
0000
0000
0000
,
0001
0000
0100
0000
0001
0000
0100
0000
0010
0000
0000
1000
0000
0000
0010
0000
,
0000
0000
1000
0000
0001
0000
1000
0001
0000
0000
0100
0000
0110
0000
0000
0000
,
0010
1000
0100
1000
0010
0100
0010
0000
,
0100
0001
0010
0100
1000
0000
1001
0000
,
1000
0000
0010
0000
1000
0000
0001
0000
0010
0000
0001
0000
1000
0001
0000
0000
,
0100
0000
0010
0000
1000
0001
0000
1001
0000
0000
0000
0000
0001
0000
0000
0000
,
1000
0000
0000
0100
1000
0000
0000
0000
0001
0000
0000
0100
0001
0000
0000
0000
,
1000
0000
0000
0001
1000
0000
0000
1001
0000
0000
0000
0000
1010
0000
0000
0000
,
1000
0000
0000
0010
1000
0000
0000
0000
0001
0000
0000
0010
0001
0000
0000
0000
,
1000
0000
0000
0001
1000
0000
0000
1001
0000
0000
0000
0000
0100
0000
0000
0000
;

//--------------- dance-single - OrangeRight ----------------
#NOTES:
     dance-single:
     OrangeRight:
     Hard:
     12:
     0,0,0,0,0:
0000
0000
0000
0000
,
0000
0000
0000
0000
,
0000
0000
0000
0000
,
0000
0000
0000
0000
,
0000
0000
0000
0000
,
1000
0000
0000
0001
1000
0000
0010
0000
1000
0000
0000
0001
1000
0000
0100
0000
,
1000
0000
0000
0001
1000
0000
0010
0100
0000
0000
0000
0000
0101
0000
0000
0000
,
0001
0000
0000
1000
0001
0000
0010
0000
0001
0000
0000
1000
0001
0000
0100
0000
,
0001
0000
0000
0010
0001
0000
1000
0010
0000
0000
0000
0000
0000
0000
0000
0000
,
1000
0000
0100
1000
0100
0000
0010
0000
0001
0000
0000
0100
0001
0000
1000
0000
,
0001
0000
0010
0000
0100
0000
1000
0001
0000
0000
0000
0000
0110
0000
0000
0000
,
1000
0010
1000
0010
1000
0000
0001
0000
1000
0000
0000
0010
1000
0000
0001
0000
,
1000
0000
0100
0000
0010
0000
0001
1000
0000
0000
0000
0000
1001
0000
0000
0000
,
0001
0000
0010
0001
0010
0000
0100
0000
1000
0000
0000
0010
1000
0000
0001
0000
,
1000
0000
0100
0000
0010
0000
0001
1000
0000
0000
0000
0000
0110
0000
0000
0000
,
0001
0100
0001
0100
0001
0000
1000
0000
0001
0000
0001
0000
1000
0001
0000
0000
,
1000
0000
0100
0000
0010
0001
0000
1001
0000
0000
0000
0000
0001
0000
0100
0000
,
0010
0000
0000
0010
1000
0000
0001
0000
0010
0000
0000
0010
0001
0000
1000
0000
,
0010
0000
0000
0010
1000
0000
0001
0100
0000
0000
0000
0000
0101
0000
0000
0000
,
0100
0000
0000
0100
0001
0000
1000
0000
0100
0000
0000
0100
1000
0000
0001
0000
,
0100
0000
0000
0100
0001
0000
1000
0010
0000
0000
0000
0000
1010
0000
0000
0000
,
1000
0000
0001
1000
0001
0000
0100
0000
0010
0000
0000
1000
0000
0000
0100
0000
,
0010
0000
0001
0000
0100
0000
0010
1000
0000
0000
0000
0000
1100
0000
0000
0000
,
1000
0001
1000
0001
1000
0000
0001
0000
0100
0000
0000
0010
0000
0000
1000
0000
,
0001
0000
1000
0000
0010
0000
0100
0001
0000
0000
0000
0000
1001
0000
0000
0000
,
0001
0000
0100
0010
1000
0000
0100
0000
0010
0000
0000
0001
0000
0000
0100
0000
,
0010
0000
1000
0000
0100
0000
0010
0100
0000
0000
1000
0000
1010
0000
0000
0000
,
1000
0100
0010
0100
1000
0000
0001
0000
0100
0000
0100
0000
0001
1000
0000
0000
,
0001
0000
0100
0000
0010
1000
0000
1001
0000
0001
0000
0001
1000
0000
0100
0000
,
1100
0000
0000
1000
0100
0000
0010
0000
0001
0000
0001
0000
1000
0000
1000
0000
,
0010
0000
0100
0000
0001
1000
0000
0100
0000
0010
0000
0010
0001
0000
1000
0000
,
1001
0000
0000
0001
0100
0000
0010
0000
1000
0000
0100
0000
0010
0000
0001
0000
,
1000
0000
0000
0100
1000
0000
0001
0000
1000
0000
1000
0000
0001
1000
0001
0000
,
1000
0001
0100
0010
1000
0001
0100
0010
,
1000
0000
0000
1010
0000
0000
0010
0100
0001
0000
0010
0000
0100
0000
1000
0000
,
0001
0000
0001
0000
1000
0000
0010
0100
0001
0000
0001
0000
1000
0000
0100
0010
,
0001
1000
0000
0010
0000
0000
0100
0000
0001
0000
1000
0000
1000
0000
0001
0000
,
1000
0000
0000
0100
1000
0000
0010
0000
0100
0000
0000
0100
0001
0000
0010
0000
,
0100
0000
0000
0100
1000
0000
0001
1000
0000
0000
1000
0000
1001
0000
0000
0000
,
0001
0000
0000
0010
0001
0000
0100
0000
0010
0000
0000
0010
1000
0000
0100
0000
,
0010
0000
0000
0010
0001
0000
1000
0001
0000
0000
0001
0000
1001
0000
0000
0000
,
2100
0000
0000
0100
0000
0000
0100
0000
0001
0000
0000
0001
0000
0000
0001
0000
,
0010
0000
0000
0010
0000
0000
3010
0100
0000
0000
0001
0000
1001
0000
0000
0000
,
0102
0000
0000
0100
0000
0000
0100
0000
1000
0000
0000
1000
0000
0000
1000
0000
,
0010
0000
0000
0010
0000
0000
0013
0001
0000
0000
0100
0000
0110
0000
0000
0000
,
0010
0000
1000
0001
1000
0000
0100
0000
0010
0000
0000
0001
0100
0000
0010
0000
,
1000
0000
0001
0000
0010
0000
0100
1000
0000
0000
0001
0000
1001
0000
0000
0000
,
0010
1000
0001
1000
0100
0000
0010
0000
0001
0000
0000
0001
0100
0000
0010
0000
,
1000
0000
0100
0000
0010
0000
0001
1000
0000
0000
0001
0000
0101
0000
0000
0000
,
0100
0000
0001
1000
0001
0000
0010
0000
0100
0000
0000
1000
0010
0000
0100
0000
,
0001
0000
1000
0000
0100
0000
0010
0001
0000
0000
1000
0000
1001
0000
0000
0000
,
0100
0001
1000
0001
0010
0000
0100
0000
1000
0000
0010
0000
0100
0001
0000
0000
,
1000
0000
0100
0000
0010
0001
0000
1001
0000
0100
0000
0010
1000
0000
0001
0000
,
1000
0100
0000
0100
1000
0000
0001
0000
0100
0000
0010
0000
1000
0010
0000
0010
,
0100
0000
0001
0000
1000
0001
0000
1001
0000
0000
0000
0000
0120
0000
0000
0000
,
1030
0000
0000
0100
0001
0000
0100
0000
1000
0000
0000
0010
0001
0000
0010
0000
,
1000
0000
0000
0100
0001
0000
0100
1000
0000
0000
0001
0000
1001
0000
0000
0000
,
0001
0000
0000
0100
1000
0000
0100
0000
0001
0000
0000
0010
1000
0000
0010
0000
,
0001
0000
0000
1000
0100
0000
0001
0100
0000
0000
1000
0000
0001
0000
0000
0000
;

//--------------- dance-double - OrangeRight ----------------
#NOTES:
     dance-double:
     OrangeRight:
     Easy:
     4:
     0,0,0,0,0:
00000000
00000000
00000000
00000000
,
00000000
00000000
00000000
00000000
,
00000000
00000000
00000000
00000000
,
00000000
00000000
00000000
00000000
,
00000000
00000000
00000000
00000000
,
00010000
00000000
00001000
00000000
,
00100000
00000000
00100000
00000000
,
00001000
00000000
00010000
00000000
,
00000100
00000000
00000100
00000000
,
00010000
00001000
00100000
00010000
,
01000000
00010000
01000000
00000000
,
00010000
00100000
00001000
00010000
,
00000100
00001000
00000100
00000000
,
00010000
00001000
01000000
00010000
,
00100000
00010000
01000000
00000000
,
00010000
01000000
00001000
00010000
,
00000010
00001000
00000001
00000000
,
00002000
00000000
00000001
00000000
,
00000001
00000000
00003100
00000000
,
00000002
00000000
00001000
00000000
,
00001000
00000000
00000103
00000000
,
00000001
00000100
00000010
00001000
,
00000100
00010000
00000100
00000000
,
00010000
00001000
00100000
00010000
,
01000000
00100000
10000000
00000000
,
10000000
01000000
00100000
00010000
,
01000000
00001000
00010000
00000000
,
00001000
00010000
00000100
00001000
,
00000010
00000100
00000001
00000000
,
00001000
00001000
00000100
00000000
,
00000100
00000100
00010000
00000000
,
00010000
00010000
00001000
00000000
,
00001000
00100000
00010000
00000000
,
01000000
00100000
10000000
00010000
,
01000000
00000000
00001000
00010000
,
00000100
00000010
00000001
00001000
,
00000010
00000000
00010000
00001000
,
00100000
00000000
00001000
00000000
,
00010000
00000000
00010000
00000000
,
00000010
00000000
00010000
00000000
,
00001000
00000000
00001000
00000000
,
00010000
00001000
00100000
00001000
,
01000000
00001000
00010000
00000000
,
00001000
00010000
00000100
00010000
,
00000010
00010000
00001000
00000000
,
00010000
00001000
00100000
00010000
,
01000000
00100000
01000000
00000000
,
00100000
01000000
00010000
00100000
,
00001000
00010000
00002000
00003000
,
00001000
00010000
00000010
00001000
,
00000100
00000010
00000100
00000000
,
00000010
00000100
00001000
00000010
,
00010000
00000100
00010000
00001000
,
00100000
00010000
01000000
00001000
,
00010000
00000100
00001000
00000010
,
00000100
00000001
00000100
00000010
,
00001000
00000100
00010000
00000000
,
00001000
00100000
00010000
01000000
,
00100000
10000000
00010000
10010000
;

//--------------- dance-double - OrangeRight ----------------
#NOTES:
     dance-double:
     OrangeRight:
     Medium:
     7:
     0,0,0,0,0:
00000000
00000000
00000000
00000000
,
00000000
00000000
00000000
00000000
,
00000000
00000000
00000000
00000000
,
00000000
00000000
00000000
00000000
,
00000000
00000000
00000000
00000000
,
10000000
00100000
00010000
00100000
,
10000000
00010000
10010000
00000000
,
00010000
01000000
00001000
00010000
,
00000100
00001000
00001001
00000000
,
00001000
00000000
00000010
00000000
00001000
00000000
00000000
00000000
00000100
00000000
00000000
00010000
00000000
00000000
00001000
00000000
,
00100000
00000000
00010000
00000000
00100000
00000000
00000000
00010000
00000000
00000000
00000000
00000000
10000000
00000000
00000000
00000000
,
00010000
00000000
01000000
00000000
00010000
00000000
00000000
00000000
00100000
00000000
00000000
00001000
00000000
00000000
00010000
00000000
,
00000100
00000000
00001000
00000000
00000100
00000000
00000000
00000010
00000000
00000000
00000000
00000000
00000001
00000000
00000000
00000000
,
00001000
00000000
00000010
00000000
00000100
00000000
00000000
00000000
00000010
00000000
00000000
00001000
00000000
00000000
00000100
00000000
,
00010000
00000000
00001000
00000000
00010000
00000000
00000000
00001000
00000000
00000000
00000000
00000000
00100000
00000000
00000000
00000000
,
00010000
10000000
00010000
00000000
10000000
00010000
10000000
00000000
,
00010000
00000000
01000000
00000000
00001000
00000000
00000000
00010000
00000000
00000000
00000000
00000000
00011000
00000000
00000000
00000000
,
00002000
00100000
00000000
00010000
,
00000000
01000000
00013000
00000000
,
00020000
00000010
00000000
00001000
,
00000000
00000100
00031000
00000000
,
00001000
00000000
00100000
00000000
00001000
00000000
00000000
00000000
00010000
00000000
00000000
00000100
00000000
00000000
00001000
00000000
,
00000010
00000000
00000100
00000000
00000010
00000000
00000000
00001000
00000000
00000000
00000000
00000000
00000100
00000000
00000000
00000000
,
00010000
00000000
00000010
00000000
00010000
00000000
00000000
00000000
00001000
00000000
00000000
01000000
00000000
00000000
00010000
00000000
,
00100000
00000000
01000000
00000000
00100000
00000000
00000000
00010000
00000000
00000000
00000000
00000000
01000000
00000000
00000000
00000000
,
00010000
00000000
00100000
00000000
00010000
00000000
00000000
00000000
01000000
00000000
00000000
00010000
00000000
00000000
00100000
00000000
,
00001000
00000000
00010000
00000000
00001000
00000000
00000000
00010000
00000000
00000000
00000000
00000000
00000100
00000000
00000000
00000000
,
00001000
00000010
00001000
00000010
00000100
00000001
00000100
00000000
,
00000001
00000000
00001000
00000000
00000001
00001000
00000000
00000001
00000000
00000000
00000000
00000000
00000000
00000000
00000000
00000000
,
00001000
00000100
00001000
00000000
00000001
00000100
00000001
00000000
,
00001000
00000100
00010000
00000000
00001000
00100000
00010000
00000000
,
01000000
00010000
01000000
00000000
00100000
10000000
00100000
00000000
,
10000000
01000000
00100000
00000000
00010000
01000000
00100000
00000000
,
10000000
01000000
10000000
01000000
00100000
00010000
00100000
00010000
,
01000000
00000000
00000000
00001000
00000000
00000000
00010000
00000000
00000100
00000000
00000000
00000000
00001000
00000000
00000000
00000000
,
00000001
00000100
00000001
00000100
00000010
00001000
00000010
00001000
,
00000001
00000000
00000000
00000010
00000000
00000000
00000100
00000000
00001000
00000000
00000000
00000000
00000001
00000000
00000000
00000000
,
00001000
00000010
00000001
00000010
,
00001000
00000100
00001100
00000000
,
00000100
00010000
00001000
00100000
,
00010000
01000000
01100000
00000000
,
20100000
00100000
01000000
01000000
,
00100000
30100000
10010000
00000000
,
10020000
10000000
01000000
01000000
,
10000000
10030000
10010000
00000000
,
00010000
00000000
01000000
00000000
00010000
00000000
00000000
00000000
00100000
00000000
00000000
00001000
00000000
00000000
00010000
00000000
,
00000100
00000000
00001000
00000000
00000100
00000000
00000000
00001000
00000000
00000000
00000000
00000000
00000001
00000000
00000000
00000000
,
00001000
00000000
00000010
00000000
00001000
00000000
00000000
00000000
00000100
00000000
00000000
00010000
00000000
00000000
00001000
00000000
,
00100000
00000000
00010000
00000000
00100000
00000000
00000000
01000000
00000000
00000000
00000000
00000000
10000000
00000000
00000000
00000000
,
00010000
00000000
01000000
00000000
00100000
00000000
00000000
00000000
01000000
00000000
00000000
00010000
00000000
00000000
00100000
00000000
,
00001000
00000000
00010000
00000000
00001000
00000000
00000000
00010000
00000000
00000000
00000000
00000000
00000100
00000000
00000000
00000000
,
00001000
00000010
00001000
00000000
00000001
00000100
00000001
00000000
,
00001000
00000000
00000010
00000000
00010000
00000000
00000000
00001000
00000000
00000000
00100000
00000000
00010000
00000000
00000000
00000000
,
01000000
00100000
10000000
00100000
01000000
00010000
00100000
00000000
,
00010000
00000000
00100000
00000000
00001000
00010000
00000000
00010000
00000000
00000000
00000000
00000000
00011000
00000000
00000000
00000000
,
00010000
00000000
00000000
00010000
00000100
00000000
00000000
00000000
00000100
00000000
00000000
00000100
00001000
00000000
00000000
00000000
,
00001000
00000000
00000000
00001000
00000010
00000000
00000000
00010000
00000000
00000000
00000000
00000000
00011000
00000000
00000000
00000000
,
00001000
00000000
00000000
00001000
01000000
00000000
00000000
00000000
01000000
00000000
00000000
01000000
00010000
00000000
00000000
00000000
,
00010000
00000000
00000000
00010000
00100000
00000000
00100000
00010000
00000000
00000000
00000000
00000000
01000000
00000000
00000000
00000000
;

//--------------- dance-double - OrangeRight ----------------
#NOTES:
     dance-double:
     OrangeRight:
     Hard:
     12:
     0,0,0,0,0:
00000000
00000000
00000000
00000000
,
00000000
00000000
00000000
00000000
,
00000000
00000000
00000000
00000000
,
00000000
00000000
00000000
00000000
,
00000000
00000000
00000000
00000000
,
10000000
00000000
00000000
10000000
00100000
00000000
01000000
00000000
00010000
00000000
00000000
00010000
00100000
00000000
00001000
00000000
,
00010000
00000000
00000000
00001000
00010000
00000000
00010000
00000100
00000000
00000000
00000000
00000000
00001000
00000000
00000000
00000000
,
00000001
00000000
00000000
00000001
00000010
00000000
00000100
00000000
00001000
00000000
00000000
00001000
00000010
00000000
00010000
00000000
,
00001000
00000000
00000000
00010000
00001000
00000000
00001000
01000000
00000000
00000000
00000000
00000000
00010000
00000000
00000000
00000000
,
10000000
00000000
01000000
10000000
01000000
00000000
00100000
00000000
00010000
00000000
00000000
01000000
00000000
00000000
00001000
00000000
,
00010000
00000000
00000100
00000000
00001000
00000000
00000010
00000100
00000000
00000000
00000000
00000000
00001001
00000000
00000000
00000000
,
00000001
00000100
00000001
00000100
00000001
00000000
00000100
00000000
00000010
00000000
00000000
00001000
00000000
00000000
00000100
00000000
,
00010000
00000000
00001000
00000000
00100000
00000000
00010000
01000000
00000000
00000000
00000000
00000000
00100000
00000000
00000000
00000000
,
10000000
00000000
00100000
10000000
00100000
00000000
01000000
00000000
00010000
00000000
00000000
00100000
00000000
00000000
00001000
00000000
,
00010000
00000000
00000010
00000000
00001000
00000000
00000100
00000010
00000000
00000000
00000000
00000000
00001001
00000000
00000000
00000000
,
00000001
00000010
00000001
00000010
00000001
00000000
00000010
00000000
00000100
00000000
00001000
00000000
00000010
00001000
00000000
00000000
,
00000100
00000000
00010000
00000000
00001000
01000000
00000000
00010000
00000000
00000000
00000000
00000000
10000000
00000000
00000000
00000000
,
10020000
00000000
00000000
10000000
00000000
00000000
10000000
00000000
00100000
00000000
00000000
00100000
00000000
00000000
00100000
00000000
,
01000000
00000000
00000000
01000000
00000000
00000000
01030000
00001000
00000000
00000000
00010000
00000000
00000100
00000000
00000000
00000000
,
00002001
00000000
00000000
00000001
00000000
00000000
00000001
00000000
00000010
00000000
00000000
00000010
00000000
00000000
00000010
00000000
,
00000100
00000000
00000000
00000100
00000000
00000000
00003100
00010000
00000000
00000000
00001000
00000000
01000000
00000000
00000000
00000000
,
00010000
00000000
01000000
00010000
01000000
00000000
00010000
00000000
00100000
00000000
00000000
00001000
00000000
00000000
00010000
00000000
,
00000100
00000000
00001000
00000000
00000010
00000000
00000100
00000001
00000000
00000000
00001000
00000000
00001001
00000000
00000000
00000000
,
00000001
00000100
00000001
00000100
00000010
00000000
00001000
00000000
00000100
00000000
00000000
00010000
00000000
00000000
00001000
00000000
,
00100000
00000000
00010000
00000000
00100000
00000000
00001000
00010000
00000000
00000000
00000100
00000000
00001100
00000000
00000000
00000000
,
00001000
00000000
00000010
00001000
00000010
00000000
00001000
00000000
00000100
00000000
00000000
00010000
00000000
00000000
00001000
00000000
,
00100000
00000000
00010000
00000000
01000000
00000000
00100000
10000000
00000000
00000000
00010000
00000000
10010000
00000000
00000000
00000000
,
10000000
00100000
10000000
00100000
01000000
00000000
00010000
00000000
00100000
00000000
00001000
00000000
00010000
00000100
00000000
00000000
,
00001000
00000000
00000010
00000000
00000100
00000001
00000000
00001000
00000000
00000100
00000000
00000100
00000010
00000000
00000001
00000000
,
00001000
00000000
00000000
00001000
00000001
00000000
00000100
00000000
00000010
00000000
00000010
00000000
00001000
00000000
00000100
00000000
,
00010000
00000000
00001000
00000000
00100000
00010000
00000000
01000000
00000000
00100000
00000000
10000000
00010000
00000000
00100000
00000000
,
00010000
00000000
00000000
00010000
10000000
00000000
01000000
00000000
10000000
00000000
00100000
00000000
01000000
00000000
00010000
00000000
,
00100000
00000000
00000000
00001000
00010000
00000000
00000100
00000000
00001000
00000000
00001000
00000000
00000001
00000000
00000100
00000000
,
00000001
00001000
00000100
00000010
00000001
00001000
00000100
00000010
,
00000001
00000000
00000000
00001000
00000000
00000000
00000100
00000000
00010000
00000000
00001000
00000000
01000000
00000000
00010000
00000000
,
10000000
00010000
00100000
01000000
10000000
00010000
00100000
01000000
,
10000000
00100000
00000000
01000000
00000000
00000000
00010000
00000000
10000000
00000000
01000000
00000000
00010000
00000000
01000000
00000000
,
10000000
00000000
00000000
10000000
00010000
00000000
01000000
00000000
00010000
00000000
00000000
00100000
00010000
00000000
01000000
00000000
,
00001000
00000000
00000000
00010000
00000100
00000000
00001000
00000010
00000000
00000000
00001000
00000000
00001001
00000000
00000000
00000000
,
00000001
00000000
00000000
00000001
00001000
00000000
00000010
00000000
00001000
00000000
00000000
00000100
00001000
00000000
00000010
00000000
,
00010000
00000000
00000000
00001000
00100000
00000000
00000100
00010000
00000000
00000000
00001000
00000000
00011000
00000000
00000000
00000000
,
00012000
00000000
00000000
00010000
00000000
00000000
00010000
00000000
00100000
00000000
00000000
00100000
00000000
00000000
00100000
00000000
,
01000000
00000000
00000000
01000000
00000000
00000000
01003000
00010000
00000000
00000000
00100000
00000000
00101000
00000000
00000000
00000000
,
00021000
00000000
00000000
00001000
00000000
00000000
00001000
00000000
00000010
00000000
00000000
00000010
00000000
00000000
00000010
00000000
,
00000100
00000000
00000000
00000100
00000000
00000000
00030100
00001000
00000000
00000000
00000010
00000000
00010010
00000000
00000000
00000000
,
00010000
00000000
00001000
00100000
00001000
00000000
00010000
00000000
00000100
00000000
00000000
00001000
00000000
00000000
00000100
00000000
,
00010000
00000000
00001000
00000000
00100000
00000000
00010000
01000000
00000000
00000000
01000000
00000000
01010000
00000000
00000000
00000000
,
00010000
01000000
00100000
01000000
00010000
00000000
00100000
00000000
01000000
00000000
00000000
10000000
00000000
00000000
01000000
00000000
,
00100000
00000000
00010000
00000000
01000000
00000000
00001000
00010000
00000000
00000000
00010000
00000000
00011000
00000000
00000000
00000000
,
00001000
00000000
00010000
00000100
00010000
00000000
00001000
00000000
00100000
00000000
00000000
00010000
00000000
00000000
00100000
00000000
,
00001000
00000000
00010000
00000000
00000100
00000000
00001000
00000010
00000000
00000000
00000010
00000000
00001010
00000000
00000000
00000000
,
00001000
00000010
00000100
00000010
00001000
00000000
00000100
00000000
00000010
00000000
00000001
00000000
00000100
00000010
00000000
00000000
,
00000010
00000000
00001000
00000000
00000100
00010000
00000000
00001000
00000000
00100000
00000000
00010000
01000000
00000000
00010000
00000000
,
00100000
00010000
00000000
01000000
00100000
00000000
10000000
00000000
01000000
00000000
00100000
00000000
00010000
10000000
00000000
10000000
,
00100000
00000000
01000000
00000000
00010000
00100000
00000000
00101000
00000000
00000000
00001000
00000000
00010000
00000000
00000100
00000000
,
00001000
00000000
00000000
00000010
00000001
00000000
00000010
00000000
00001000
00000000
00000000
00000100
00000001
00000000
00000100
00000000
,
00001000
00000000
00000000
00000100
00010000
00000000
00001000
00100000
00000000
00000000
00010000
00000000
01010000
00000000
00000000
00000000
,
00010000
00000000
00000000
00100000
10000000
00000000
00100000
00000000
00010000
00000000
00000000
01000000
10000000
00000000
01000000
00000000
,
00010000
00000000
00000000
00100000
00001000
00000000
00010000
00000100
00000000
00000000
00010000
00000000
00011000
00000000
00000000
00000000
;
