#TITLE:Let The Sun Shine;
#SUBTITLE:(Joey Negro Radio Mix);
#ARTIST:Labrinth;
#TITLETRANSLIT:;
#SUBTITLETRANSLIT:;
#ARTISTTRANSLIT:;
#GENRE:;
#CREDIT:;
#MUSIC:Let The Sun Shine (Joey Negro Radio Mix).mp3;
#BANNER:;
#BACKGROUND:;
#CDTITLE:;
#SAMPLESTART:0.000;
#SAMPLELENGTH:0.000;
#SELECTABLE:YES;
#OFFSET:-0.881;
#BPMS:0.000=127.000;
#STOPS:;
#BGCHANGES:;
#FGCHANGES:;

//--------------- dance-single - blank ----------------
#NOTES:
     dance-single:
     blank:
     Beginner:
     1:
     0,0,0,0,0:
0000
0000
0000
0000
,
0000
0000
0000
0000
,
0000
0000
0000
0000
,
0000
0000
0000
0000
,
1000
0000
0010
0000
,
0100
0000
0000
0000
,
0001
0000
1000
0000
,
0010
0000
0000
0000
,
0100
0000
0000
0000
,
0100
0000
0000
0000
,
0010
0000
0000
0000
,
0010
0000
0000
0000
,
1000
0000
0001
0000
,
1000
0000
0000
0000
,
0001
0000
1000
0000
,
0001
0000
0000
0000
,
0110
0000
0000
0000
,
0000
0000
0000
0000
,
0010
0000
0000
0000
,
0000
0000
0000
0000
,
0110
0000
0000
0000
,
0000
0000
0000
0000
,
0100
0000
0000
0000
,
0000
0000
0000
0000
,
0001
0000
0000
0000
,
1000
0000
0000
0000
,
0010
0000
0000
0000
,
0100
0000
0000
0000
,
0001
0000
0000
0000
,
0000
0000
0000
0000
,
1000
0000
0000
0000
,
0000
0000
0000
0000
,
0100
0000
0000
0000
,
0010
0000
0000
0000
,
0001
0000
0000
0000
,
1000
0000
0000
0000
,
0010
0000
0000
0000
,
0110
0000
0000
0000
,
0001
0000
0000
0000
,
1000
0000
0000
0000
,
0000
0100
0000
0000
,
0100
0000
0000
0000
,
0000
0010
0000
0000
,
0010
0000
0000
0000
,
0000
0001
0000
0000
,
0001
0000
0000
0000
,
0000
1000
0000
0000
,
1000
0000
0000
0000
,
0000
0010
0000
0000
,
0010
0000
0000
0000
,
0000
0100
0000
0000
,
0100
0000
0000
0000
,
0000
0001
0000
0000
,
0001
0000
0000
0000
,
0000
1000
0000
0000
,
1000
0000
0000
0000
,
0000
0000
0100
0000
,
0000
0010
0000
0000
,
0000
0000
0001
0000
,
0000
1000
0000
0000
,
0000
0000
0010
0000
,
0000
0100
0000
0000
,
0000
0000
0001
0000
,
0000
1000
0000
0000
,
2002
0000
0000
0000
,
0000
0000
0000
0000
,
3003
0000
0000
0000
,
0000
0000
0000
0000
,
1000
0000
0000
0000
,
1000
0000
0000
0000
,
0001
0000
0000
0000
,
0001
0000
0000
0000
,
0010
0000
0010
0000
,
0010
0000
0010
0000
,
0100
0000
0100
0000
,
0100
0000
0100
0000
,
1000
0000
1000
0000
,
0001
0000
0001
0000
,
0100
0010
0100
0010
,
0100
0010
0100
0010
;

//--------------- dance-single - blank ----------------
#NOTES:
     dance-single:
     blank:
     Easy:
     4:
     0,0,0,0,0:
0000
0000
0000
0000
,
0000
0000
0000
0000
,
0000
0000
0000
0000
,
0000
0000
0000
0000
,
1000
0001
0100
0000
,
0010
0010
1000
0001
,
0010
0000
0100
0100
,
1000
0001
1000
0010
,
0100
0110
0000
0000
,
0001
0001
0010
0100
,
1000
0001
0100
0000
,
0010
1000
0001
0010
,
0100
1100
0000
0000
,
1000
0010
0000
0100
,
1001
0000
0001
0001
,
0010
1000
0100
0000
,
0000
0001
0001
0001
,
1000
1000
1000
0010
,
0000
1000
1000
1000
,
0001
0001
0001
0100
,
0000
1000
1000
1000
,
0001
0001
0001
0010
,
0000
1000
1000
1000
,
0001
0001
0001
0010
,
0100
0110
0000
0000
,
0100
1000
0001
0100
,
0010
1000
0000
0000
,
0100
0010
0100
0001
,
1000
0010
0001
0000
,
0001
0100
1000
0100
,
0010
0000
1000
0001
,
0010
0100
1000
0010
,
0100
1001
0000
0000
,
0001
0001
0001
0010
,
0100
1001
0000
0000
,
1000
1000
1000
0100
,
0010
0001
0100
0000
,
0010
1000
0001
0001
,
0010
0000
0100
0110
,
1000
0001
1001
0000
,
0000
0100
0100
0100
,
0010
0010
0010
1000
,
0000
0100
0100
0100
,
0010
0010
0010
0001
,
0000
1000
1000
1000
,
0010
0010
0010
0100
,
0000
0001
0001
0001
,
0010
0010
0010
0100
,
0000
1000
0001
1000
,
0001
0001
1000
1000
,
0000
0010
0100
0010
,
0100
0100
0010
0010
,
0000
1000
0100
1000
,
0100
0100
1000
1000
,
0000
0001
0010
0001
,
0010
0010
0001
0001
,
0000
1000
0010
0100
,
0001
0010
0100
1000
,
0000
0001
0100
0010
,
1000
0100
0010
0001
,
0000
1000
0010
0100
,
1000
0100
0010
1000
,
0000
0001
0010
0100
,
0001
0100
0010
0001
,
2002
0000
0000
0000
,
0000
0000
0000
0000
0000
0000
0000
3003
,
1000
1000
1000
0000
,
0001
0001
0001
0000
,
0100
0100
0100
0000
,
0010
0010
0010
0000
,
1000
0100
0010
0000
,
0001
0010
0100
0000
,
1000
0001
1000
0001
,
0100
0010
0100
0010
,
1000
0001
1000
0001
,
0010
0100
0010
0100
,
1000
1000
0001
0001
,
0100
0100
0010
0010
,
1000
0001
0100
0010
,
1000
0001
1000
0001
1000
0001
1000
0001
;

//--------------- dance-single - blank ----------------
#NOTES:
     dance-single:
     blank:
     Medium:
     10:
     0,0,0,0,0:
0000
0000
0000
0000
,
0000
0000
0000
0000
,
0000
0000
0000
0000
,
0000
0000
0000
0000
,
0000
0000
0000
0000
,
0000
0000
0000
0000
,
0000
0000
0000
0000
,
0000
0000
0000
0000
0000
0000
1000
0001
,
0100
0001
0010
0000
0001
0000
0001
0000
,
0100
0010
1000
0001
1000
0000
0100
0010
,
0100
1000
0010
1000
0001
0000
0100
0000
,
0010
1000
0010
0100
0001
0000
1000
0100
,
0010
0001
0100
0000
0010
0000
1000
0000
,
0001
0010
0001
1000
0000
0000
1001
0000
,
0101
0000
0001
0010
0001
0000
0101
0000
,
0001
0000
0010
0100
2000
0000
0000
0000
,
3000
0000
0010
0100
0010
0000
1001
0000
,
0100
0010
0100
0000
1001
0000
0010
0010
,
0000
0000
0001
0100
0001
0000
0101
0000
,
0001
0010
0001
0000
0011
0000
0001
0001
,
0000
0000
0010
0100
0010
0000
1001
0000
,
0100
0010
0100
0000
1001
0000
0010
0010
,
0000
0000
1000
0100
1000
0000
1010
0000
,
1000
0100
1000
0000
1001
0000
1000
0100
,
0010
0001
0010
0000
0001
0000
1000
0000
,
0010
0100
0001
1000
0100
0000
0100
0010
,
0001
1010
0010
0010
,
0100
0001
1000
0100
0010
0000
0010
0100
,
1000
0010
0100
0001
0010
0000
0011
0000
,
0001
0010
0000
0100
1000
0000
1001
0000
,
1100
0000
1000
0100
0010
0000
0011
0000
,
0001
0000
1000
0010
0100
0000
0001
0000
,
0010
1100
0010
0101
,
1000
0100
0010
0001
0100
0000
0010
0000
,
0010
1010
0100
0011
,
0001
0010
0100
0010
0001
0010
0100
1000
,
0010
0000
0110
0000
1001
0000
1000
0001
,
0100
0000
0010
1000
0001
0000
1000
0100
,
0010
0000
0010
0001
0100
0010
1000
0000
,
1100
0011
1001
0110
,
0000
0000
0001
1000
0001
0000
0001
0000
,
1000
0001
1000
0000
1000
0000
0010
0100
,
0000
0000
0001
0010
0001
0000
0001
0000
,
1000
0010
1000
0000
1000
0000
0100
0010
,
0000
0000
0100
0010
0100
0000
1001
0000
,
0010
0100
0010
0000
1001
0000
0100
0100
,
0000
0000
0001
0010
0001
0000
1001
0000
,
0001
0100
0001
0010
0100
1000
0010
1000
,
0000
0000
1000
0100
0010
0000
1100
0000
,
1000
0010
0100
0000
1010
0000
1000
1000
,
0000
0000
0001
0100
0010
0000
0101
0000
,
0001
0010
0100
0000
0011
0000
0001
0001
,
0000
0000
1000
0001
0100
0000
1001
0000
,
0001
1000
0100
0000
1001
0000
0010
0010
,
0000
0000
0001
0010
1000
0000
0110
0000
,
1000
0100
0001
0000
0110
0000
1000
1000
,
0000
0000
0001
0100
0010
1000
0010
0200
,
0000
0000
0301
0020
0000
0230
0000
2300
,
0000
0001
0001
0001
,
0010
0000
0010
0000
0010
0000
0010
3000
,
0000
0000
0000
0001
1000
0100
0010
0002
,
0000
0000
1003
0020
0000
2030
0000
3000
,
0200
0000
0000
0320
0000
0000
0000
0031
,
2000
0100
0010
3001
,
0220
0000
0000
0000
,
0000
0000
0000
0000
,
0330
0000
0000
0000
,
0001
0001
1000
1000
,
0010
0100
0001
1000
,
0100
0010
0001
0100
,
0010
1000
0001
0010
,
0100
1000
0010
0100
,
0001
0000
0001
0000
0001
0010
0001
0000
,
1000
0000
1000
0000
1000
0010
1000
0000
,
0001
0000
0001
0000
0001
0100
0001
0000
,
1000
0000
1000
0000
1000
0100
1000
0000
,
0001
0100
0001
0000
1000
0010
1000
0000
,
0001
0010
0001
0000
1000
0100
1000
0000
,
0001
1000
0001
1000
0010
0100
0010
0100
,
0001
1000
0001
1000
0100
0010
0100
0010
;

//--------------- dance-single - blank ----------------
#NOTES:
     dance-single:
     blank:
     Hard:
     12:
     0,0,0,0,0:
0000
0000
0000
0000
,
0000
0000
0000
0000
,
0000
0000
0000
0000
,
0000
0000
0000
0000
,
0000
0000
0000
0000
,
0000
0000
0000
0000
,
0000
0000
0000
0000
,
0000
0000
0000
0000
0000
0000
0000
0000
1000
0010
0000
0010
0000
0000
0100
0000
,
0001
0000
0000
0000
0010
0000
0001
0000
2000
0000
0000
0010
0000
0000
3010
0000
,
0000
0000
0100
0000
0001
0000
1000
0000
0001
0000
0000
0001
0000
0000
1000
0000
,
0001
0010
0100
1000
0200
0000
0310
0000
,
0001
0000
0001
0000
0100
0000
0010
0000
1000
0100
0000
0010
0000
0000
0010
0000
,
0002
0000
0003
1000
0001
0000
0000
0000
2000
0000
3000
0001
1000
0000
0000
0000
,
0001
0000
0001
0000
0010
0000
0010
0200
0000
0000
0300
0000
1001
0000
0000
0000
,
0021
0000
0000
0000
0000
0000
0000
0000
0000
0000
0000
0000
0030
0000
0000
0000
0001
0000
0000
0000
0010
0000
0000
0000
0000
0000
0000
0100
0000
0000
0000
0000
0000
0000
0000
0000
1001
0000
0000
0000
0000
0000
0000
0000
0000
0000
0000
0000
,
1000
0000
0020
0200
0000
0000
0330
0000
,
0000
0000
0001
0020
0100
0000
0130
0000
,
0001
0200
0010
0000
0010
0000
1000
1300
,
0000
0000
1000
0020
0100
0000
0130
0000
,
1000
0200
0010
0000
0010
0000
0001
0301
,
0000
0000
0010
0200
0001
0000
0301
0000
,
0100
0020
0001
0000
0001
0000
0100
0130
,
0000
0000
0010
0200
1000
0000
1300
0000
,
0100
0020
1000
0000
0031
1000
0010
0100
,
0001
0000
0000
0000
1001
0000
0100
0000
0001
0000
0000
0001
0000
0000
1000
0000
,
0010
0000
0100
0000
0010
0000
1000
0000
0001
0000
0000
0100
0001
0000
1000
0000
,
0001
0000
0000
0000
0101
0000
1000
0000
0010
0000
0000
0010
0000
0000
1000
0000
,
0100
0000
0010
0000
0100
0000
1000
0000
0100
0000
0000
0010
0001
0000
1000
0000
,
0001
0001
0010
0100
2000
0000
3000
0100
,
0010
0000
0000
0001
0000
0000
0001
0000
0100
0000
0000
0100
0010
0000
0000
0000
,
2000
0000
0000
0000
0000
0000
0000
0000
0000
0000
0000
0000
3000
0000
0000
0000
0001
0000
0000
0000
0010
0000
0000
0000
0000
0000
0000
0100
0000
0000
0000
0000
0000
0000
0000
0000
1001
0000
0000
0000
0000
0000
0000
0000
0000
0000
0000
0000
,
0010
0000
0001
2000
0000
0100
3100
0010
,
0011
0000
0000
0000
1100
0000
0000
0000
1000
0100
1000
0100
0000
0000
0000
0000
,
0001
1000
0010
1000
0100
0100
0010
0001
,
1010
0000
0000
0000
0101
0000
0000
0000
0001
0100
0001
0100
0000
0000
0000
0000
,
1000
0010
0100
0001
0010
0010
0001
1000
,
1100
0000
0000
0000
0101
0000
0000
0000
1010
0000
0000
1000
0001
0000
0100
0000
,
0010
0000
1000
0000
0001
0000
0100
0000
0010
0000
0000
1000
0100
0000
0000
0200
,
0001
0000
0000
0000
0000
0000
0000
0000
0000
0000
0000
0000
0000
0000
0000
0000
0010
0000
0000
0000
0010
0000
0000
0000
0000
0000
0000
1300
0000
0000
0000
0000
0000
0000
0000
0000
1001
0000
0000
0000
0000
0000
0000
0000
0000
0000
0000
0000
,
0001
0000
0020
0200
0000
0000
0000
0000
,
0330
0000
0000
0000
0001
0000
0100
0000
1000
0000
0000
1000
0100
0000
0000
0100
,
0001
0000
0100
0000
1000
0000
0000
1000
0100
0000
0000
0100
0001
0000
1000
0000
,
0001
0000
0000
0000
1000
0000
0100
0000
0001
0000
0000
0001
0100
0000
0000
0100
,
1000
0000
0100
0000
0001
0000
0000
0001
0100
0000
0000
0100
1000
0000
0001
0000
,
1000
0000
0000
0000
0001
0000
0010
0000
1000
0000
0000
1000
0010
0000
0000
0010
,
0001
0000
0010
0000
1000
0000
0000
1000
0010
0000
0000
0010
0001
0000
1000
0000
,
0001
0000
0000
0000
1000
0000
0010
0000
0001
0000
0000
0001
0010
0000
0000
0010
,
1000
0000
0001
0000
0100
0000
0010
0000
1000
0100
0010
0001
0100
0000
0100
0000
,
0000
0000
0000
0000
0200
0000
0320
0000
2030
0000
0000
0100
0000
0000
0100
0000
,
3200
0320
0032
0000
0100
0000
0010
2003
,
0000
0000
0000
0000
3020
0000
0230
0000
0302
0000
0000
0010
0000
0000
0010
0000
,
0023
0230
2300
0000
0010
0000
3200
0320
,
0031
0100
0001
0100
0010
1000
0010
0100
,
0001
0010
0100
1000
0001
1000
0100
0010
,
0001
1000
0010
0100
0001
0010
1000
0010
,
0001
1000
0010
1000
2100
0000
0001
3001
,
0000
0000
0000
0000
0001
0000
0100
0000
0001
0000
0000
0001
0000
0000
0001
0000
,
1000
0000
0100
0000
1000
0000
0000
1000
0000
0000
0000
1000
0000
0000
1000
0000
,
0000
0000
0000
0000
0010
0000
0100
0000
0010
0000
0000
0010
0000
0000
0010
0000
,
0100
0000
0010
0000
0100
0000
0000
0100
0000
0000
0000
0100
0000
0000
0100
0000
,
0000
0000
0000
0000
0001
0000
0010
0000
0100
0000
0000
0100
0000
0000
0100
0000
,
1000
0000
0010
0000
0100
0000
0000
0100
0000
0000
0000
0100
0000
0000
0100
0000
,
0000
0000
0000
0000
0001
0000
1000
0000
0010
0000
0000
0010
0000
0000
0010
0000
,
0100
0000
0001
0000
1000
0000
0000
1000
0000
0000
0000
1000
0000
0000
1000
0000
,
0002
0000
0000
0000
,
0203
0000
0000
0000
,
0320
0000
0000
0000
,
2030
0000
0000
0000
,
3002
0010
0010
0010
,
2003
0010
0010
0010
,
3200
0001
0001
1000
,
0320
0001
1000
1000
,
0031
1000
0001
1000
0001
0100
0001
0000
,
1000
0010
1000
0010
0100
0001
0100
0000
,
0001
0010
0001
0010
0100
1000
0100
0000
,
1000
0100
0010
0001
1000
0010
0100
0000
,
0001
1000
0001
1000
0010
0100
0010
0100
,
0001
1000
0001
1000
0100
0010
0100
0010
,
0001
0010
0001
0010
0001
0010
0001
0010
0100
1000
0100
1000
0100
1000
0100
1000
,
0010
0100
0010
0100
0010
0100
0010
0100
0001
1000
0001
1000
0001
1000
0001
0000
;
