#TITLE:La La Land;
#SUBTITLE:;
#ARTIST:Demi Lovato;
#TITLETRANSLIT:;
#SUBTITLETRANSLIT:;
#ARTISTTRANSLIT:;
#GENRE:;
#CREDIT:;
#MUSIC:La La Land.ogg;
#BANNER:;
#BACKGROUND:;
#CDTITLE:;
#SAMPLESTART:112.887;
#SAMPLELENGTH:14.985;
#SELECTABLE:YES;
#OFFSET:1.289;
#BPMS:0.000=170.000;
#STOPS:;
#BGCHANGES:1.289=La La Land.avi=1.000=1=0=0=StretchNoLoop==CrossFade==,
99999.000=-nosongbg-=1.000=0=0=0=StretchNoLoop====
;
#FGCHANGES:;

//--------------- dance-single - forcednature ----------------
#NOTES:
     dance-single:
     forcednature:
     Beginner:
     4:
     0,0,0,0,0:
0000
0000
0000
0000
,
0000
0000
0000
0000
,
0000
0000
0000
0000
,
1000
0000
0000
0000
,
0001
0000
0000
0000
,
1000
0000
0000
0000
,
0001
0000
0000
0000
,
0100
0000
0000
0000
,
0010
0000
0000
0000
,
0100
0000
0000
0000
,
0000
0000
0000
0000
,
0001
0000
0000
0000
,
1000
0000
0000
0000
,
0100
0000
0000
0000
,
1000
0000
0000
0000
,
0001
0000
0000
0000
,
0100
0000
0000
0000
,
0010
0000
0000
0000
,
1000
0000
0000
0000
,
0100
0000
0000
0000
,
0100
0000
0000
0000
,
0010
0000
0000
0000
,
0010
0000
0000
0000
,
0001
0000
0000
0000
,
1000
0000
0000
0000
,
0001
0000
0000
0000
,
1000
0000
0000
0000
,
0010
0000
0000
0000
,
0100
0000
0000
0000
,
0001
0000
0001
0000
,
0001
0000
0000
0000
,
1000
0000
0000
0000
,
0100
0000
0000
0000
,
1000
0000
0000
0000
,
0100
0000
0000
0000
,
0010
0000
0000
0000
,
0001
0000
0000
0000
,
0100
0000
0000
0000
,
0010
0000
0000
0000
,
1000
0000
0000
0000
,
0001
0000
0000
0000
,
1000
0000
0000
0000
,
0010
0000
0000
0000
,
0110
0000
0000
0000
,
0100
0000
0000
0000
,
0001
0000
0000
0000
,
1000
0000
0000
0000
,
0100
0000
0100
0000
,
0010
0000
0010
0000
,
0001
0000
0001
0000
,
1000
0000
1000
0000
,
0010
0000
0000
0000
,
0100
0000
0000
0000
,
0001
0000
0000
0000
,
1000
0000
0000
0000
,
0100
0000
0100
0000
,
0010
0000
0010
0000
,
0001
0000
0000
0000
,
1000
0000
0000
0000
,
0010
0000
0000
0000
,
0100
0000
0000
0000
,
0001
0000
0001
0000
,
1000
0000
1000
0000
,
0010
0000
0000
0000
,
0100
0000
0000
0000
,
0001
0000
0000
0000
,
1000
0000
0000
0000
,
0100
0000
0000
0000
,
0010
0000
0000
0000
,
0001
0000
0000
0000
,
1000
0000
0000
0000
,
0010
0000
0000
0000
,
0100
0000
0000
0000
,
0001
0000
0000
0000
,
1000
0000
0000
0000
,
0100
0000
0000
0000
,
0010
0000
0000
0000
,
0001
0000
0000
0000
,
0100
0000
0000
0000
,
0010
0000
0010
0000
,
0010
0000
0000
0000
,
1000
0000
0000
0001
,
1000
0000
0000
0001
,
1000
0000
0000
0001
,
1000
0000
0000
0000
,
0010
0000
0010
0000
,
0100
0000
0100
0000
,
0001
0000
1000
0000
,
0100
0000
0010
0000
,
0100
0000
1000
0000
,
0001
0000
0100
0000
,
0010
0010
0010
0000
,
0100
0100
0100
0000
,
1001
0000
0000
0000
,
0110
0000
0000
0000
,
0010
0000
1000
0000
,
0001
0000
0010
0000
,
0110
0000
0000
0000
,
0100
0000
0000
0000
,
1000
0000
0000
0000
,
0001
0000
0000
0000
;

//--------------- dance-single - forcednature ----------------
#NOTES:
     dance-single:
     forcednature:
     Easy:
     6:
     0,0,0,0,0:
0000
0000
0000
0000
,
0000
0000
0000
0000
,
0000
0000
0000
0000
,
1000
0000
1000
0000
,
1000
0000
0000
0000
,
0001
0000
0001
0000
,
0001
0000
0000
0000
,
0100
0000
0100
0000
,
0100
0000
0000
0000
,
0010
0000
0010
0000
,
0110
0000
0000
0000
,
1000
0001
0000
1000
,
0000
0100
0000
0010
,
0001
0010
0000
0100
,
0000
1000
0000
0010
,
0100
0010
0000
1000
,
0001
1000
0000
0100
,
0010
0001
0000
0100
,
0010
1000
0000
0001
,
0010
0010
0100
0100
,
1000
0001
1000
0000
,
0010
0010
0100
0100
,
0001
1000
0001
0000
,
1000
1000
0100
0100
,
0010
0001
0010
0000
,
1001
0001
0100
0000
,
1001
1000
0100
0000
,
0010
0001
1000
0000
,
0010
1000
0001
0000
,
1000
0100
0010
0001
,
2002
0000
3003
0000
,
0001
0100
0000
0100
,
0000
0010
0000
0010
,
0000
1000
0000
1000
,
0000
0001
0000
0001
,
0010
0001
0010
0001
,
1000
0010
0100
0000
,
0010
1000
0010
1000
,
0001
0010
0100
0000
,
0010
0001
0010
0001
,
1000
0010
0100
0000
,
0001
1000
0001
1000
,
0100
0010
0001
0000
,
0100
0010
1000
0001
,
1000
0100
0010
0000
,
0100
1000
0010
0100
,
2002
0000
3003
0000
,
1000
0001
0100
0001
,
1000
0100
1000
0001
,
0010
0010
0100
0010
,
0001
1000
0001
0100
,
0010
1000
0010
0000
,
0100
0001
0100
0000
,
0001
0010
0100
1000
,
0100
0010
0001
0000
,
1000
0010
0100
0001
,
0100
0010
1000
0000
,
0001
1000
0100
1000
,
0001
1000
0100
0000
,
1000
0001
0100
0001
,
1000
0001
0100
0000
,
0010
1000
0001
0010
,
0001
1000
0010
0000
,
0200
0000
0000
0000
,
0302
0000
0000
0000
,
2003
0000
0000
0000
,
3200
0000
0000
0000
,
0320
0000
0000
0000
,
0032
0000
0203
0000
,
0310
1000
0001
1000
,
0100
1000
0001
0000
,
0010
0001
1000
0001
,
0100
0010
1000
0000
,
0100
0010
0001
0100
,
0010
0100
0001
0000
,
0010
0100
1000
0010
,
0100
0010
1000
0000
,
0001
0010
0100
0010
,
0001
0100
0010
0000
,
1000
0100
0010
0100
,
1000
0010
0100
0000
,
0001
1000
0100
0010
,
0100
1000
0001
0100
,
0010
1000
0001
0010
,
0100
0100
0100
0010
,
0001
0100
0010
1000
,
0001
0001
0001
1000
,
0100
0010
0100
1000
,
0010
0100
0010
1000
,
0001
0010
0100
0010
,
0001
0100
0010
0000
,
1001
0000
1000
0100
,
1000
0001
0100
0010
,
1001
1000
0001
0000
,
0010
0100
0010
0001
,
0101
0000
1000
0001
,
1000
0010
0100
0000
,
0220
0000
0000
0330
,
2002
0000
0000
3003
,
0220
0000
0000
0330
,
2002
0000
0000
0000
,
0000
0000
0000
0000
,
3003
0000
0000
0000
;

//--------------- dance-single - forcednature ----------------
#NOTES:
     dance-single:
     forcednature:
     Medium:
     9:
     0,0,0,0,0:
0000
0000
0000
0000
,
0000
0000
0000
0000
,
0000
0000
0000
0000
,
0001
0000
0000
0000
0000
0001
0100
0000
0000
0001
0000
0000
,
1000
0000
0000
0000
0000
1000
0100
0000
0000
1000
0000
0000
,
0010
0000
0000
0000
0000
0010
0100
0000
0000
0010
0000
0000
,
1000
0000
0000
0000
0000
1000
0001
0000
0000
1000
0000
0000
,
0001
0000
0000
0000
0000
0001
0010
0000
0000
0100
0000
0000
,
1000
0000
0000
0000
0000
1000
0010
0000
0000
0100
0000
0000
,
0001
0000
0000
0000
0000
0001
1000
0000
0000
0100
0000
0000
,
0110
0000
0000
0000
0000
0000
0000
0000
0000
1000
0001
1000
,
0001
0100
0001
1000
,
0010
1000
0001
1000
,
0001
0010
0100
1000
,
0100
0010
0001
0100
,
0010
1000
0001
0010
,
0001
1000
0010
1000
,
0100
0010
0001
0100
,
0001
0000
0000
1000
0000
0000
0100
0000
0000
0010
0001
0010
,
0001
0000
0000
0100
0000
0000
0010
0000
1000
0000
0000
0001
,
0000
1000
0100
0010
,
0100
1000
0010
0100
,
0001
0000
0010
0000
0100
0000
0000
0010
0000
0000
0000
0001
,
0100
0101
0001
1001
,
1000
1100
0100
0110
,
1000
0001
0100
0001
,
1000
0010
1000
0001
,
0010
0000
0000
0100
0000
0010
0001
0000
0000
1000
0000
0000
,
0001
0000
0000
0100
0000
0010
1000
0000
0000
0001
0000
0000
,
1000
1100
0001
0101
,
2002
0000
0000
3003
,
0001
0000
0000
0100
0000
0000
0010
0000
0010
1000
0000
0000
,
1000
0000
0000
0100
0000
0000
0010
0000
0010
0001
0000
0000
,
0100
0000
0000
0010
0000
0000
1000
0000
1000
0001
0000
0000
,
0010
0000
0000
0100
0000
0000
1000
0001
1000
0001
0000
0000
,
0100
0001
1000
0010
,
1000
0100
0010
0001
,
0100
1000
0100
0010
,
1000
0001
1000
0100
,
0010
0000
0000
0001
0000
0000
0100
0000
0010
1000
0000
0000
,
0001
0000
0000
0010
0000
0000
0100
0000
1000
0001
0000
0000
,
0100
0000
0000
0010
0000
0000
1000
0000
0100
0010
0000
0000
,
0001
0000
0000
0100
0000
0000
0010
0000
1000
0001
0000
0000
,
1001
1000
0100
0010
,
0001
0100
1000
0100
,
0010
1000
0100
0001
,
0110
0000
0000
0000
0000
0000
1000
0001
0100
0010
1000
0001
,
0010
0000
0000
0110
0000
0000
1001
0000
0000
0001
0000
0100
,
0000
0000
0010
0000
0000
1000
0001
0000
1000
0100
0000
0000
,
0110
0000
0000
1000
0000
0000
0001
0000
0000
0100
0000
0010
,
0000
0000
1000
0000
0000
0001
0010
0000
0100
0010
0000
0000
,
0001
0000
0000
0100
0000
0000
0010
0000
1000
0001
0000
0000
,
1000
0000
0000
0100
0000
0000
0010
0000
0001
1000
0000
0000
,
0001
0000
0000
0100
0000
0000
0010
0000
1000
0001
0000
0000
,
1000
0000
0100
0010
0000
0000
0100
0000
1000
0010
0000
0000
,
0100
0000
0000
0001
0000
0000
0010
0000
0100
0010
0000
0001
,
0100
0000
0000
0010
0000
0000
1000
0001
1000
0001
1000
0001
,
0010
0000
0000
0100
0000
0000
0010
0000
0001
0100
0000
0000
,
0010
0000
0000
1000
0000
0000
0001
0000
1000
0100
0000
0000
,
0010
0000
0000
0001
0000
0000
0100
0000
0010
1000
0000
0000
,
0001
0000
1000
0100
0000
0000
1000
0000
0001
0100
0000
0000
,
0110
0000
0000
1000
0000
0000
0001
0000
0010
0100
0000
1000
,
0001
0000
0000
1000
0000
0000
0010
0100
0010
0100
0010
0100
,
0002
0000
0000
0000
,
2003
0000
0000
0000
,
3200
0000
0000
0000
,
0320
0000
0000
0000
,
0032
0000
0000
0000
,
0203
0000
0320
0000
,
1030
0000
0000
0001
0000
0000
1000
0000
0100
0010
0000
0001
,
0000
0000
0100
0000
0000
0010
1000
0000
0001
1000
0000
0000
,
0100
0000
0000
0010
0000
0000
0001
0000
1000
0010
0000
0100
,
0000
0000
0001
0000
0000
1000
0100
0000
0010
0001
0000
0000
,
0100
0000
0000
0010
0000
0000
1000
0001
1000
0001
0000
0000
,
0010
0000
0000
0100
0000
0000
1000
0001
1000
0001
0000
0000
,
0100
0000
0000
0010
0000
0000
1000
0000
0100
0000
0000
0010
,
0000
0000
0100
1000
0000
0000
0010
0000
0100
0001
0000
0000
,
0010
0000
0000
0100
0000
0000
0010
0000
0001
0000
0000
0100
,
0000
0000
0010
0000
0000
1000
0001
0000
1000
0100
0000
0000
,
0010
0000
0000
0001
0000
0000
0100
0000
0010
0000
0000
1000
,
0000
0000
0001
0000
0000
0010
0100
0000
0010
0001
0000
0000
,
0101
1000
0010
1000
,
0001
0000
0000
0010
0000
0000
0100
0000
0010
0001
0000
0000
,
0100
0010
1000
0001
,
1000
0000
0010
0100
0000
0000
0001
0000
1000
0100
0000
0000
,
0110
0010
0001
1000
,
0001
0000
0100
0010
0000
0000
1000
0001
1000
0001
1000
0001
,
1000
0000
0000
0100
0000
0000
0010
0000
0100
1000
0000
0000
,
0010
0000
0000
0100
0000
0000
0001
0000
0010
0100
0000
0000
,
0010
0000
0000
0001
0000
0000
1000
0000
0001
0100
0000
0000
,
0010
0000
0000
1000
0000
0000
0001
0000
0010
0100
0000
0000
,
0110
0000
0000
0010
0000
0000
0001
0000
1000
0001
0000
0000
,
0110
0000
0000
0001
0000
0000
1000
0000
0010
1000
0000
0000
,
1001
0000
0000
1001
0000
0000
0010
0000
0010
0000
0000
0110
,
0000
0000
1000
0000
0000
0001
0010
0000
0000
0100
0000
0000
,
1001
0000
0000
1000
0000
0000
0010
0000
0010
0000
0000
0100
,
0000
0000
0001
0000
0000
1000
0100
0000
0010
0001
0000
0000
,
2002
0000
0000
3003
,
0220
0000
0000
0330
,
2002
0000
0000
3003
,
0220
0000
0000
0000
,
0000
0000
0000
0000
,
0330
0000
0000
0000
;

//--------------- dance-single - forcednature ----------------
#NOTES:
     dance-single:
     forcednature:
     Hard:
     13:
     0,0,0,0,0:
0000
0000
0000
0000
,
0000
0000
0000
0000
,
0000
0000
0000
0000
,
1000
0000
0000
0000
0000
1000
0100
0000
0000
0010
0000
0000
,
0001
0000
0000
0000
0000
0001
0100
0000
0000
0010
0000
0000
,
1000
0000
0000
0000
0000
1000
0001
0000
0000
0010
0000
0000
,
0001
0000
0000
0000
0000
0001
1000
0000
0000
0010
0000
0000
,
0100
0000
0000
0000
0000
0100
0001
0000
0000
0010
0000
0000
,
0100
0000
0000
0000
0000
0100
1000
0000
0000
0010
0000
0000
,
0100
0000
0000
0000
0000
0100
0100
0000
0000
0010
0000
0000
,
1001
0000
0000
0000
0000
0000
0000
0000
0000
1000
0100
0010
,
0001
0100
1000
0100
,
0010
0000
0000
1000
0000
0000
0001
0000
0010
0100
0000
0000
,
0010
0001
0100
0010
,
1000
0000
0000
0100
0000
0000
0010
0000
0001
1000
0000
0000
,
0010
0000
0000
1000
0000
0000
0001
0000
0100
0010
0000
0000
,
1000
0000
0000
0001
0000
0000
0010
0000
0100
1000
0000
0000
,
0010
0000
0000
1000
0000
0000
0001
0000
0010
0100
0000
0000
,
0110
0110
0110
1000
,
0001
0000
0000
0100
0000
0000
0010
0000
1000
0001
0000
1000
,
0001
0000
0000
0010
0000
0000
0100
0000
1000
0100
0000
0010
,
0001
0000
0000
0100
0000
0000
0010
0000
1000
0001
0000
1000
,
0010
0000
0000
0100
0000
0000
0001
0000
0010
0100
0000
0000
,
1100
1100
0110
0110
,
0011
0011
1001
1001
,
0001
0000
0000
0100
0000
0000
0010
0000
1000
0001
0000
1000
,
0100
0000
0000
0010
0000
0000
0001
0000
0100
0010
0000
1000
,
0001
0000
0000
0010
0000
0000
0001
0000
0100
0001
0000
1000
,
0010
0000
0000
1000
0000
0000
0100
0000
0010
0100
0000
0000
,
0110
0000
0000
0110
0000
0000
0110
0000
1000
0001
0000
0000
,
2002
0000
0000
3003
,
0001
0000
0000
0100
0000
0000
0010
0000
1000
0100
0000
1000
,
0100
0000
0000
0010
0000
0000
0001
0000
0100
0010
0000
0100
,
0010
0000
0000
1000
0000
0000
0001
0000
0010
0100
0000
0010
,
0100
0000
0000
1000
0000
1000
0010
0000
0100
0100
0000
0000
,
0110
0001
1000
0100
,
0010
0000
0001
0000
0000
0100
0000
0000
0010
1000
0000
0000
,
0001
0010
0100
0010
,
0001
0000
0100
0000
0000
0010
0000
0000
1000
0001
0000
0000
,
1000
0000
0000
0100
0000
0000
0010
0000
0100
1000
0000
0010
,
1000
0000
0000
0001
0000
0000
0100
0000
0010
0100
0000
0001
,
0010
0000
0000
0100
0000
0000
0010
0000
0001
1000
0000
0010
,
0100
0000
0000
0001
0000
0000
0010
0000
0100
1000
0000
0000
,
0010
1000
0001
0100
,
0001
0000
0010
0000
0000
0110
0000
0000
1100
0000
0000
0000
,
1000
0010
0100
0001
,
0110
0000
0000
0000
0000
0000
1000
0100
0010
0001
0100
0010
,
1000
1100
0011
1000
,
0001
0000
0010
0100
0000
0010
0001
0000
0100
0010
0000
0000
,
1001
1100
1001
0101
,
0001
0000
0010
0100
0000
0010
0001
1000
0001
0100
0000
0000
,
0010
0000
0000
1000
0000
0000
0100
0000
0010
0001
0000
0001
,
0100
0000
0000
0010
0000
0000
1000
0000
0001
1000
0000
1000
,
0100
0000
0000
0010
0000
0000
0100
0000
1000
0010
0000
0010
,
0100
0000
0000
0001
0000
0000
0010
0000
0100
0010
0000
0001
,
1000
0000
0000
1010
0000
0000
0101
0000
0000
1010
0000
1000
,
0001
0010
0001
1000
0010
1000
0001
0010
0100
1000
0000
0000
,
0010
0000
0000
0100
0000
0000
0001
0000
0010
0100
0000
0010
,
0100
0000
0000
1000
0000
0000
0010
0000
1000
0001
0000
1000
,
0001
0000
0000
0100
0000
0000
0001
0000
0010
0100
0000
1000
,
0001
0000
0000
0100
0000
0000
0010
0000
1000
0100
0000
1000
,
0010
0000
0000
1100
0000
0000
0101
0000
1000
0001
0000
0010
,
0100
0000
0000
0011
0000
0000
1000
0001
0100
0010
1000
0001
,
0020
0000
0000
0000
,
0230
0000
0000
0000
,
2300
0000
0000
0000
,
3002
0000
0000
0000
,
0203
0000
0000
0000
,
0320
0000
1030
0001
,
1001
0000
0000
0110
0000
0000
0001
0000
1000
0000
0000
0110
,
0000
0000
1000
0001
0000
0100
0001
0000
0010
0100
0000
0100
,
1000
0000
0000
1010
0000
0000
0100
0000
0001
0000
0000
0110
,
0000
0000
0001
1000
0000
0100
1000
0000
0010
0100
0000
0000
,
0001
0000
0001
0010
0100
1000
0010
0000
0000
0100
0001
0100
,
0001
0000
1000
0100
0000
0000
0110
0000
0010
0001
1000
0001
,
0100
0000
0000
0101
0000
0000
1000
0000
1010
0000
0000
1001
,
0000
0000
1000
0100
0000
0010
0001
0000
0100
0010
0000
0000
,
1001
0000
0000
0110
0000
0000
0001
0000
0101
0000
0000
1010
,
0000
0000
0001
1000
0000
0100
0010
0100
1000
0010
0100
0001
,
0010
0000
0000
0001
0000
0100
0010
0000
1010
0000
0000
0001
,
1000
0100
0010
0001
0000
0100
0010
0000
0100
0010
0000
0000
,
1001
0000
0000
0101
0000
0000
1001
0000
1000
0100
0000
0010
,
0001
0000
0000
0100
0000
0010
1000
0000
0000
0001
0000
0000
,
0011
0000
0000
0110
0000
0000
1000
0000
0010
1000
0000
0001
,
0000
0000
0010
0100
0000
0010
0000
0000
0001
0100
0000
0000
,
0110
0000
0000
0110
0000
0000
0010
0000
1000
0001
0000
1000
,
0000
0000
0100
0010
0000
0100
1000
0010
1000
0001
0010
0100
,
0010
0000
0000
0011
0000
0000
1000
0000
1001
0000
0000
0110
,
0000
0000
0011
0000
0000
1010
0000
0000
1001
0000
0000
0110
,
0000
0000
0000
1001
0000
0000
0001
0000
0100
0001
0000
1000
,
0000
0000
0010
1000
0000
0001
1000
0100
0010
0001
0100
0010
,
1000
0000
1000
0100
0000
0000
0010
0000
0010
0001
0000
0001
,
0100
0000
0100
0010
0000
1000
0001
0010
0100
1000
0100
0010
,
0001
0000
0000
0101
0000
0000
0100
0000
0010
1000
0000
0001
,
0000
0000
1000
0100
0000
0010
0000
0000
0100
1000
0000
0000
,
0110
0000
0000
0110
0000
0000
0001
0000
1000
0001
0000
0100
,
0000
0000
0010
1000
0000
0001
0010
0100
1000
0001
0100
0010
,
2000
0000
0000
3000
,
0202
0000
0000
0303
,
2200
0000
0000
3300
,
2002
0000
0000
0000
,
0000
0000
0000
0000
,
3003
0000
0000
0000
;
