#TITLE:LOVE ♡ SHINE (Body Grooverz 2006 mix);
#SUBTITLE:;
#ARTIST:W.W.S;
#TITLETRANSLIT:;
#SUBTITLETRANSLIT:;
#ARTISTTRANSLIT:;
#GENRE:;
#CREDIT:;
#MUSIC:LOVE SHINE (Body Grooverz 2006 mix).ogg;
#BANNER:LOVE SHINE (Body Grooverz 2006 mix).png;
#BACKGROUND:LOVE SHINE (Body Grooverz 2006 mix)-bg.png;
#CDTITLE:./CDTITLES/Dance Dance Revolution HOTTEST PARTY.png;
#SAMPLESTART:1.415;
#SAMPLELENGTH:15.000;
#SELECTABLE:YES;
#OFFSET:0.000;
#BPMS:0.000=177.000;
#STOPS:;
#BGCHANGES:;
#FGCHANGES:;

//--------------- dance-single - about-blank ----------------
#NOTES:
     dance-single:
     about-blank:
     Beginner:
     6:
     0,0,0,0,0:
0000
0000
0000
0000
,
0000
0000
0000
0000
,
0000
0000
0000
0000
,
0000
0001
0000
0001
,
0000
0010
0010
0010
,
0000
0000
0000
0100
,
0100
0000
1000
0000
,
0010
0100
0001
1000
,
0100
0100
0100
0000
,
0010
0000
1001
0000
,
0000
0001
0100
0100
,
0001
0000
1001
0000
,
0000
1000
0010
0100
,
0001
0000
1001
0000
,
0000
0001
1000
0001
,
0000
0100
0010
0100
,
0001
0001
0000
1000
,
1000
0000
1001
0000
,
0000
1000
0100
0010
,
0001
0000
1001
0000
,
0000
0001
0100
0100
,
0010
0000
0110
0000
,
0000
1000
0100
0100
,
0010
0000
0110
0000
,
0000
0001
1000
0001
,
2000
0000
3010
0000
,
0002
0000
0013
0000
,
0001
1000
0001
1000
,
0010
0100
0010
0000
,
2000
0000
3100
0000
,
0002
0000
0103
0000
,
1001
0000
1001
0000
,
0001
1000
0001
0000
,
0010
0010
0100
0100
,
0010
0010
0100
0000
,
0100
0100
0010
0010
,
0100
0100
0010
0000
,
0010
0010
0100
0100
,
0010
0010
0100
0000
,
0000
1000
0001
1001
,
0000
0000
0000
0000
,
0000
0001
0001
0001
,
0000
1000
1000
1000
,
0000
0001
0001
0001
,
0010
0010
0100
0100
,
1000
0001
1000
0000
,
0010
0010
1001
0000
,
0000
1000
0100
0010
,
0001
1000
0100
0000
,
0010
0010
0100
0100
,
1000
0001
1000
0000
,
0010
0010
0100
0100
,
0001
1000
0001
0000
,
0010
0100
1000
0001
,
0010
0100
1000
0000
,
1001
0000
1001
0000
,
0001
1000
0001
0000
,
1000
1000
0100
0000
,
0001
0001
0100
0000
,
1000
0100
0010
0001
,
1000
0001
1000
0000
,
0001
0001
0010
0000
,
1000
1000
0010
0000
,
1001
0000
0110
0000
,
1001
0000
0001
0001
,
1000
0100
0010
0000
,
0001
0010
0100
0000
,
1001
0000
0110
0000
,
0001
1000
0001
0000
,
0000
0100
0000
0100
,
0000
0010
0000
0010
,
1000
1000
0001
0001
,
0010
0010
0000
0110
;

//--------------- dance-single - about-blank ----------------
#NOTES:
     dance-single:
     about-blank:
     Easy:
     9:
     0,0,0,0,0:
0000
0000
0000
0000
,
0000
0000
0000
0000
,
0000
0000
0000
0000
,
1000
0001
0010
0001
,
0100
0100
0010
1001
,
0001
0001
0001
0010
,
1000
1000
1000
0010
,
0001
1000
0010
0100
,
0001
1000
0001
0000
1001
0000
0000
0000
,
1000
0100
0010
0010
,
0001
1000
0010
0100
,
0001
0010
0100
0100
,
1000
0001
1000
0100
,
0010
0100
1000
1000
,
1000
0001
0100
0010
,
1000
0100
0010
0001
,
1000
0000
0010
0000
0100
0000
0001
1000
,
0001
1000
0010
0010
,
1000
0001
0100
0010
,
1000
0001
0100
0100
,
0001
0010
0100
1000
,
0001
0010
1000
1000
,
0010
0001
0100
0010
,
1000
0010
0001
0001
,
0010
1000
0001
0100
,
0010
0010
1100
1000
,
0010
0010
0101
0001
,
1000
0001
0100
0010
,
1000
0000
0001
0010
0100
0000
1000
0000
,
0100
0100
0011
0001
,
1010
0101
1100
0001
,
1001
0100
1001
0010
,
1000
0001
1000
0001
1000
0000
0010
0000
,
0100
1000
0100
0001
,
0100
1000
0100
0110
,
0010
0001
0010
1000
,
0010
0001
0010
0110
,
1000
0100
1000
0010
,
1000
0100
1000
1001
,
0001
0010
0100
1000
,
0000
0010
0100
0010
0100
0000
1001
0000
,
0001
0100
1000
0100
,
0001
0100
1000
0100
,
0001
0010
1000
0010
,
1001
0110
1001
0110
,
1000
1000
0001
0001
,
0010
0001
0100
1000
,
0010
0001
1000
0100
,
0010
0000
0001
0000
0100
0010
0100
0000
,
1010
0001
1000
0100
,
0011
1000
0001
0100
,
0010
0010
1000
1000
,
0001
0001
0100
0100
,
0101
1000
0100
1000
,
0011
1000
0010
1000
,
0001
0100
0010
1000
,
0001
0000
0010
0000
0100
0010
0100
0000
,
1010
0001
0100
0001
,
1100
0001
0010
0001
,
1000
0100
0010
0001
,
0100
0010
1000
0001
,
0110
1000
0001
1000
,
0110
0001
1000
0001
,
1000
0010
0000
0000
0100
0001
0000
0000
,
1000
0001
0100
0010
,
1100
0000
0001
0000
1000
0001
1000
0000
,
0101
0000
1000
0000
0001
1000
0001
0000
,
0010
0100
1000
0010
,
0100
0010
0100
0000
1001
0000
0000
0000
,
1000
0000
0100
0000
0100
0010
0100
0000
,
0001
0000
0100
0000
0100
0010
0100
0000
,
1001
0000
0110
0000
1000
0001
1000
0000
,
0010
0100
0001
1000
0000
0100
0010
0000
;

//--------------- dance-single - about-blank ----------------
#NOTES:
     dance-single:
     about-blank:
     Medium:
     11:
     0,0,0,0,0:
0000
0000
0000
0000
,
0000
0000
0000
0000
,
0000
0000
0000
0000
,
1000
0100
0001
0100
,
1000
0001
1000
0000
0010
0000
0100
0000
,
0002
1000
1000
1003
,
0200
1000
1000
1300
,
0001
0000
1000
0100
1000
0000
0001
0010
,
0001
1000
0001
1000
0000
0000
0110
0000
,
0001
0000
0001
0010
1000
0000
1000
0010
,
0001
0000
0001
0100
0010
0000
1000
0000
,
0001
0000
1000
0100
0001
0000
0001
0100
,
1000
0010
0100
0001
,
0011
0000
0001
0010
0100
0000
0100
0010
,
0001
0001
1000
0010
,
0100
0101
1000
1010
,
1000
0000
0001
0010
0100
0010
0100
0010
,
0100
0000
1000
0001
1000
0000
0110
0000
,
0001
0000
0001
0010
0100
0000
1000
0010
,
0100
0000
0001
1000
0001
0000
0110
0000
,
1000
0100
0010
0001
,
1000
0000
1000
0010
0100
0000
0101
0000
,
0001
0000
0010
0000
0100
0010
0100
0000
,
1000
0000
0001
1000
0001
0000
1100
0000
,
0001
0100
0010
1000
,
0001
0000
0010
0100
1000
0000
0010
0100
,
0001
0000
0010
0100
1000
0000
0001
0000
,
0011
1000
1010
0001
,
0101
1000
1100
0001
,
1000
0000
0100
0010
0001
0000
0100
0010
,
1000
0001
1000
0001
,
0010
0010
0100
0100
,
1000
0001
1000
0001
1000
0001
1000
0000
,
0110
0000
1000
0100
0001
0000
0001
0100
,
1000
0010
0100
0000
,
0110
0000
0001
0100
1000
0000
1000
0100
,
0001
0000
0001
0010
0100
0000
0110
0000
,
1000
0000
0010
1000
0100
0000
0010
0001
,
0100
0000
0100
0001
0010
0000
0000
0000
,
0110
0000
1000
0001
1000
0001
0010
0100
,
0000
0010
0001
1000
0100
0000
1001
0000
,
1000
0000
0010
0000
0001
0010
0001
0000
,
1000
0000
0100
0000
0001
0100
0001
0000
,
1000
0000
0010
0000
0001
0010
0001
0000
,
1000
0100
0001
0010
,
0100
0000
0010
0001
0100
0000
0100
0001
,
0010
1001
0110
1001
,
1000
0100
0010
0001
1000
0100
0010
0001
,
1000
0001
1000
0001
2000
0000
0000
0000
,
3001
0000
0001
0100
0010
0000
0010
0000
,
1000
0000
0000
0001
0000
0000
1000
0000
0100
0000
0000
0000
0100
0000
0000
0000
,
0010
0100
1000
0000
0010
0100
0001
0000
,
1000
0000
0000
0001
0000
0000
0010
0000
0100
0000
0000
0000
1100
0000
0000
0000
,
1000
0000
1000
0010
0100
0000
0100
0001
,
1000
1100
0101
0001
,
1000
0100
1000
0000
0001
0100
0001
0000
,
1000
0100
0010
0001
1000
0010
0100
0000
,
0011
0000
0001
0100
0001
0000
0001
1000
,
0001
0000
0000
0010
0000
0000
0100
0000
1000
0000
0000
0000
1000
0000
0000
0000
,
0001
1000
0100
0000
0100
0010
0001
0000
,
1000
0000
0010
0100
0000
0001
0010
0001
,
0100
0000
0100
0010
1000
0000
1000
0100
,
0010
0011
1100
0001
,
1000
0001
0100
0000
0001
1000
0100
0000
,
1000
0100
0010
0001
1000
0010
0100
0001
,
0010
0000
0100
0010
0001
0000
0100
0010
,
1000
1010
0101
1000
,
0001
0010
0001
0000
1000
0010
1000
0000
,
0001
0000
0100
0000
0001
0000
0000
1000
0000
0000
0100
0000
1000
0000
0000
0000
,
0001
0000
1000
0000
0010
0000
0100
0010
,
0100
0001
1000
0100
,
1100
0000
0011
0000
1000
0010
0100
0000
,
0001
0001
1000
1000
0000
0110
1001
0000
;

//--------------- dance-single - about-blank ----------------
#NOTES:
     dance-single:
     about-blank:
     Hard:
     13:
     0,0,0,0,0:
0000
0000
0000
0000
,
0000
0000
0000
0000
,
0000
0000
0000
0000
,
1000
0000
0000
0000
0100
0010
0000
0000
0001
0000
0000
0000
0100
0010
0000
0000
,
1000
0000
0001
0000
0001
0000
0010
0000
0010
0000
0000
0000
0100
1000
0000
0000
,
0002
0000
0010
0000
0013
0100
0010
0010
,
0002
0100
2003
0010
,
3001
0000
0010
0000
0100
0000
1000
0000
0010
0100
0010
0100
0010
0100
0010
0100
,
0001
0000
1000
0000
0010
0000
0100
0000
0001
0000
0000
0000
1000
0001
1000
0001
,
1000
0000
1000
0200
0001
0000
1000
0000
,
0310
0001
0100
0100
0010
1000
0100
0010
,
0001
0000
0001
0200
1000
0000
0001
0000
,
0310
1000
0001
0000
0001
1000
0010
0000
,
1100
0000
1000
0200
0010
0000
0001
0000
,
1300
0000
0000
0000
1000
0001
0000
0000
0001
0010
0000
0000
0010
0100
0000
0000
,
0001
0000
0100
0010
0001
0000
1000
0010
,
0100
0001
0010
0010
0001
0100
0010
1000
,
0001
0000
0010
0200
0001
0000
1300
0000
,
1000
0100
0010
0100
1000
0001
1000
0001
,
1000
0000
0010
0200
1000
0000
0301
0000
,
1000
0000
0001
0000
0010
0100
0000
0000
0100
1000
0000
0000
1000
0001
0000
0000
,
0110
0000
0001
1000
0020
0000
0100
0000
,
0031
0000
0001
0010
1000
0100
0001
0100
,
1000
0000
1000
0001
0010
0000
0110
0000
,
1000
0001
0100
0100
0010
0000
1001
0000
,
0011
0000
0001
0100
1000
0000
1000
0100
,
0001
0000
0001
0010
1000
0000
1000
0010
,
0001
0100
0001
0100
0010
1000
0010
1000
,
0001
0100
0010
1000
0001
0000
1001
0000
,
1100
0000
1000
0100
0001
0000
0001
0100
,
1000
0010
0001
0010
1000
0000
1001
0000
,
0100
0010
0100
0000
0010
0100
0010
0000
,
1000
0000
0100
0000
0010
0000
0001
0000
0100
0010
0100
0010
0100
0010
0100
0010
,
1000
0001
0100
0100
1000
0001
0010
0010
,
1000
0001
0100
0010
1000
0000
1001
0000
,
0001
1000
0100
0100
0001
1000
0010
0010
,
0001
1000
0010
0100
0001
0000
1001
0000
,
1000
0001
0010
0010
1000
0001
0100
0100
,
1000
0001
0010
0100
0010
0000
1001
0000
,
1000
0001
1000
0001
1000
0001
1000
0001
1000
0000
0010
0000
0100
0000
0002
0000
,
0000
0013
0010
1100
0011
0000
0011
0000
,
0010
0100
0010
0100
0001
0100
1000
0100
,
0010
0100
0010
0100
0001
0100
1000
0001
,
1000
0010
1000
0010
0001
0010
0100
0010
,
1000
0100
0001
0100
1000
0010
0001
0010
,
1000
0100
0010
0002
0000
0103
0010
0010
,
1000
1000
0001
0001
0100
0000
0110
0000
,
0001
0010
0100
0010
1000
0010
0100
0010
,
0001
0000
0100
0000
0010
0000
1000
0000
0001
1000
0001
1000
0001
1000
0001
1000
,
0001
0000
0001
0100
1000
0000
1000
0100
,
0010
0000
0000
1000
0100
0000
1000
0000
0001
0000
0000
0000
0010
0000
0001
0000
,
2000
0000
3010
0100
0002
0000
1003
0100
,
0010
0000
0000
0001
0000
0000
1000
0000
0010
0000
0000
0000
0110
0000
0000
0000
,
1000
0000
1000
0010
0002
0000
0013
1000
,
0100
0001
0100
1000
0100
0000
0110
0000
,
0001
0001
1000
0000
1000
1000
0001
0000
,
0010
0100
1000
0010
0100
0001
1000
0100
,
0010
0000
0001
1000
0010
0000
0010
0001
,
0010
0000
0000
1000
0100
0000
0010
0000
0001
0000
0000
0000
1000
0000
0001
0000
,
0200
0000
0301
1000
0020
0000
1030
0100
,
0010
0000
0100
0100
1000
0000
0010
0100
,
0002
0000
1003
0010
0200
0000
0301
0010
,
0100
0000
0011
0000
1100
0000
1000
0100
,
0010
0010
0001
0000
1000
1000
0001
0000
,
0100
0010
1000
0010
0100
0001
1000
0100
,
0010
0000
0001
1000
0110
0000
0010
0000
,
1000
0000
0001
1000
0110
0000
0001
0000
,
0100
0100
0010
0000
0010
0010
0100
0000
,
0001
1000
0001
1000
0100
0010
0001
1000
,
0010
0000
1000
0000
0001
0100
0010
0000
,
1000
0000
0001
0000
0010
0100
1000
0000
,
0011
0000
1100
0000
0001
0001
0100
0000
,
1000
0100
0001
0010
0000
0110
1001
0000
;
