#TITLE:LITTLE EXPLORERS;
#SUBTITLE:;
#ARTIST:;
#TITLETRANSLIT:;
#SUBTITLETRANSLIT:;
#ARTISTTRANSLIT:;
#GENRE:;
#CREDIT:;
#MUSIC:LITTLE EXPLORERS.mp3;
#BANNER:;
#BACKGROUND:;
#CDTITLE:;
#SAMPLESTART:0.000;
#SAMPLELENGTH:0.000;
#SELECTABLE:YES;
#OFFSET:-0.070;
#BPMS:0.000=134.000
,6.000=141.000
,7.000=135.000
,9.000=130.000
,10.000=140.000
,11.000=131.000
,12.000=134.000
,13.000=131.000
,14.000=141.000
,15.000=122.000
,16.000=134.000
;
#STOPS:;
#BGCHANGES:;
#FGCHANGES:;

//--------------- dance-single - MEGAtive ----------------
#NOTES:
     dance-single:
     MEGAtive:
     Beginner:
     3:
     0,0,0,0,0:
0000
0000
0000
0000
,
0000
0000
0000
0000
,
0000
0000
0000
0000
,
0000
0000
0000
0000
,
2001
0000
3000
0000
,
0020
0000
0030
0000
,
0200
0000
0300
0000
,
0002
0000
0003
0000
,
1000
1000
1000
0000
,
0100
0010
0000
0010
,
0001
0001
0001
0000
,
0100
0010
0000
0010
,
1000
1000
1000
0000
,
0200
0000
0300
0010
,
0001
0001
0001
0000
,
0200
0000
0300
0000
,
0010
0010
0010
0000
,
1000
0001
0000
0001
,
0010
0010
0010
0000
,
0001
1000
0000
1000
,
0100
0100
0100
0000
,
1000
0001
0000
0001
,
0100
0100
0100
0000
,
0002
0000
0003
0000
,
2000
0000
0000
0000
,
3010
0000
0010
0010
,
0200
0000
0000
0000
,
0301
0000
0001
0000
,
2002
0000
3003
0000
,
1000
0000
0010
0000
,
0100
0000
0001
0000
,
0001
0001
0000
1000
,
0010
0010
0000
0100
,
0001
0001
0000
0010
,
0100
0100
0000
1000
,
0001
0001
0001
0000
,
0100
0000
0010
0000
,
1000
1000
1000
0000
,
0100
0000
0010
0000
,
0100
0100
0100
0000
,
1000
0000
0001
0000
,
0100
0100
0100
0000
,
0010
0000
1000
0000
,
1000
1000
1000
0000
,
0100
0000
0010
0000
,
0001
0001
0001
0000
,
0100
0000
0010
0000
,
0100
0100
0100
0000
,
0001
0000
1000
0000
,
0100
0100
0100
0000
,
0010
0000
0001
0000
,
2000
0000
3000
0010
,
0020
0000
0130
0100
,
0002
0000
0003
0010
,
0020
0000
0130
0100
,
2000
0000
3000
0001
,
0002
0000
0103
0100
,
0020
0000
0030
1000
,
2000
0000
3100
0100
,
0020
0000
0031
0001
,
0200
0000
0310
0000
,
0220
0000
0330
0000
,
1000
0000
0100
0000
,
0010
0000
0001
0001
,
0200
0300
0000
0000
;

//--------------- dance-single - MEGAtive ----------------
#NOTES:
     dance-single:
     MEGAtive:
     Easy:
     6:
     0,0,0,0,0:
0000
0000
0000
0000
,
0000
0000
0000
0000
,
0000
0000
0000
0000
,
0000
0000
0000
0000
,
0001
0010
0001
0000
,
1000
0010
1000
0000
,
0001
0100
0001
0000
,
1000
0100
1000
0000
,
0001
0100
0010
0100
,
0001
1000
1000
0000
,
0001
0010
0100
0010
,
0001
1000
0000
1000
,
0010
0100
0010
0100
,
0001
0010
0000
0010
,
0001
0100
0010
1000
,
0100
0000
1100
0000
,
1000
0100
0010
0100
,
1000
0001
0001
0000
,
1000
0010
0100
0010
,
1000
0001
0000
0001
,
0010
0100
0010
0100
,
1000
0010
0000
0010
,
1000
0100
0010
0001
,
0100
0000
0101
0000
,
2000
0000
0000
3010
,
0100
0001
1000
0001
,
0020
0000
0000
0130
,
1000
0001
0100
0010
,
0220
0000
0330
0000
,
1000
0010
0001
0010
,
1000
0001
0010
0000
,
0001
1000
0100
1000
,
0001
1000
0010
1000
,
0001
0010
0100
0010
,
0001
0100
0010
0010
,
2000
0100
0100
0001
,
3001
0100
0010
0000
,
2000
0010
0010
0001
,
3001
0010
0100
0000
,
0020
0001
0001
0100
,
0130
1000
0001
0000
,
0200
0010
0010
0001
,
0301
1000
0001
0000
,
0002
0100
0100
1000
,
1003
0100
0010
0000
,
0002
0010
0010
1000
,
1003
0010
0100
0000
,
0020
1000
1000
0100
,
0130
0001
1000
0000
,
0200
0010
0010
1000
,
1300
0001
0100
0000
,
1002
0000
0000
0103
,
0010
1000
0001
0010
,
0200
0000
0000
0310
,
0001
1000
0001
0100
,
0020
0000
0000
0130
,
0001
0010
0100
1000
,
0002
0000
0000
1003
,
0010
0100
0001
0010
,
0200
0000
0310
0001
,
0200
0000
0310
1000
,
2002
0000
3003
0000
,
1000
0100
0001
0100
,
1000
0010
0100
0000
,
0110
1001
0000
0000
;

//--------------- dance-single - MEGAtive ----------------
#NOTES:
     dance-single:
     MEGAtive:
     Medium:
     12:
     0,0,0,0,0:
0000
0000
0000
0000
,
0000
0000
0000
0000
,
0000
0000
0000
0000
,
0000
0000
0000
0000
,
1000
0100
0010
0100
1000
0001
1000
0000
,
0001
0100
0010
0100
0001
1000
0001
0000
,
1000
0010
0100
0010
1000
0001
1000
0000
,
0001
0010
0100
0010
0001
1000
1000
0000
,
0101
1010
1100
0011
,
1000
0000
0001
0001
0100
0010
1000
0000
,
1010
1100
0011
0101
,
1000
0000
0001
0001
0100
0010
1000
0100
,
0010
0101
1010
1100
,
0001
0000
1000
1000
0100
0010
0001
0000
,
0011
1010
0101
1100
,
0001
1000
0001
0100
0010
1000
0200
0000
,
0301
0100
1000
0100
0010
0100
1000
0001
,
0000
1000
0010
0100
0010
1000
0001
0010
,
0000
0010
0100
1000
0100
0010
0100
1000
,
0000
0010
0100
0001
0100
0010
0100
0001
,
1000
0001
0100
0010
1000
0010
0100
0001
,
0000
1000
0001
0010
0100
1000
0100
0010
,
0001
1000
0001
0100
0001
1000
0010
0100
,
0010
1000
0100
0010
0001
0000
1001
0000
,
1000
1000
0100
0000
0001
0000
0100
0010
,
0001
0001
0100
0000
1000
0000
0100
0100
,
0010
1000
0100
0000
0010
0000
0100
0100
,
0010
0001
0100
0000
0010
0000
1000
1000
,
0001
0000
0000
0000
,
0001
1000
0001
1000
0100
0010
0100
0010
,
0001
1000
0001
1000
0100
0000
0110
0000
,
0001
0100
1000
0100
0001
0100
1000
0100
,
0000
0100
1000
0100
0001
0100
1000
0100
,
0000
0001
0010
1000
0010
0001
0010
1000
,
0000
0010
0001
0010
1000
0010
0001
0000
,
1000
0101
1000
0011
,
1000
0000
0010
0010
0100
0001
1000
0000
,
0001
1100
0001
1010
,
0001
0000
0010
0010
0100
1000
0010
0100
,
0001
0101
1000
1100
,
0001
0000
0100
0100
0010
1000
0100
0000
,
0010
0110
0001
1001
,
1000
0001
0100
0010
1000
0000
2002
3003
,
1000
0100
0010
0100
1000
0100
0001
0100
,
1000
0000
1001
1001
0000
0000
0110
0000
,
0001
0100
0010
0100
0001
0100
1000
0100
,
0001
0000
1001
1001
0000
1000
0100
0010
,
0001
0010
0100
0010
0001
0010
1000
0010
,
0001
0000
1001
1001
0000
1000
0010
0100
,
0001
0100
0010
0100
1000
0100
0010
0100
,
0001
0010
0100
1000
0001
0000
1001
0000
,
2000
0000
0000
0000
0000
0000
3100
0010
,
0002
0000
0203
0000
,
0320
0000
0000
0000
0000
0000
1030
0001
,
0200
0000
0000
0300
,
0001
0000
1000
0000
0100
0000
0010
0001
,
0100
0010
1000
0010
,
0101
0000
0001
0000
0010
0000
0100
1000
,
0001
0000
1000
0000
0100
0000
0010
0010
,
0001
0000
0100
0000
0001
1000
0001
0100
,
0010
0010
1000
0000
0100
0100
1000
0001
,
2002
0000
0000
3003
,
0110
0000
1000
0100
0001
0100
1000
0100
,
0010
0001
0100
0010
1000
0000
1001
0000
,
0201
1300
0000
0000
;

//--------------- dance-single - MEGAtive ----------------
#NOTES:
     dance-single:
     MEGAtive:
     Hard:
     14:
     0,0,0,0,0:
0000
0000
0000
0000
,
0000
0000
0000
0000
,
0000
0000
0000
0000
,
0000
0000
0000
0000
,
1000
0010
0100
0010
1000
0010
0100
0010
,
1000
0100
0010
0100
1000
0100
0010
0100
,
1000
0001
0100
0010
0100
0001
0100
0010
,
1000
0001
0010
0100
0010
0001
1001
0000
,
2100
0000
3001
0000
0100
0000
1000
0000
0100
0010
0100
0000
0001
0000
0001
0000
,
1000
0000
0100
0000
0010
0000
0010
0000
0100
1000
0001
0000
1001
0000
0000
0000
,
0102
0000
1003
0000
0100
0000
0001
0000
0100
0010
0100
0000
1000
0000
1000
0000
,
0001
0000
0100
0000
0010
0000
0010
0000
0100
0000
0001
1000
0100
0000
0010
0000
,
0002
0100
2003
0010
3002
0010
2003
0100
,
3002
0100
2003
3020
0130
0100
0002
0100
,
2003
0100
3002
0010
2003
0010
3002
0100
,
2003
0010
3002
0010
1003
0000
0220
0330
,
2010
0000
3001
0000
0010
0000
1000
0000
0010
0100
0010
0000
0001
0000
0001
0000
,
1000
0000
0010
0000
0100
0000
0100
0000
0001
0010
0100
0000
1001
0000
0000
0000
,
0012
0000
1003
0000
0010
0000
0001
0000
0010
0100
0010
0000
1000
0000
1000
0000
,
0001
0000
0010
0000
0100
0000
0100
0000
0010
0000
0001
1000
0010
0000
0100
0000
,
0002
0010
2003
0100
3002
0100
2003
0010
,
3002
0010
2003
3200
0310
0010
0002
0010
,
2003
0010
3002
0100
2003
0100
3002
0010
,
2003
0100
3002
0100
1003
0000
0220
0330
,
1000
0000
0001
0100
0010
0000
0100
0000
0001
0000
0001
0000
1000
0000
0100
0000
,
0001
0000
0100
0010
0100
0000
1000
0000
0001
0000
0100
0000
0101
0000
0000
0000
,
0001
0000
0100
0010
1000
0000
0100
0000
0010
0000
0010
0000
0001
0000
0100
0000
,
1000
0000
0100
0010
0100
0000
0001
0000
1000
0000
1000
0000
1100
0000
0001
0000
,
0102
0000
0000
0000
2003
3000
0200
0300
,
1100
1000
1001
0001
0101
0100
0110
0010
,
1010
1000
1001
0001
0011
0000
1100
0000
,
0011
1000
1020
0100
0100
0130
0101
1000
,
1001
0100
0120
0001
0001
0031
2002
3003
,
1010
0001
0021
0100
0100
0130
1100
0001
,
1001
0100
0120
1000
1000
1030
2002
3003
,
0001
0000
1000
0000
1200
0000
0310
0000
0001
0010
0001
1000
0010
0000
0100
0000
,
1000
0100
0101
0001
0010
0010
2002
3003
,
1000
0000
0001
0000
0201
0000
0310
0000
1000
0010
1000
0001
0010
0000
0100
0000
,
0001
0100
1100
1000
0010
0001
0010
0100
,
0201
0001
0320
1000
2030
0001
3002
0010
,
0013
0100
0001
0100
1000
0001
1001
1000
,
0020
0100
0230
0001
0302
1000
2003
0100
,
3100
0000
0001
0000
1000
0000
0010
0000
0001
0000
0000
0000
2002
3003
0000
0000
,
1000
0000
0001
0000
0201
0000
0310
0000
1000
0010
1000
0001
0010
0000
0100
0000
,
0001
0100
1100
1000
0010
0010
2002
3003
,
0001
0000
1000
0000
1200
0000
0310
0000
0001
0010
0001
1000
0010
0000
0100
0000
,
1000
0100
0101
0001
0010
1000
0010
0100
,
1200
1000
0320
0001
0032
1000
2003
0010
,
3010
0100
1000
0100
0001
1000
1001
0001
,
0020
0100
0230
1000
2300
0001
3002
0100
,
0103
0000
1000
0000
0001
0000
0010
0000
1000
0000
0000
0000
2002
3003
0000
0000
,
1000
0100
1000
0001
0100
0000
0010
0000
1000
0000
1000
0000
1001
0000
0001
0000
,
0010
0100
1000
0100
0010
0000
0001
0000
0100
0000
0100
0000
0220
0000
0330
0000
,
0010
0100
0001
1000
0100
0000
0010
0000
0100
0000
0100
0000
1100
0000
1000
0000
,
0001
0010
0100
0010
0001
0000
0100
0000
0010
0000
0010
0000
2002
0000
3003
0000
,
0001
0100
0001
1000
0100
0000
0010
0000
0001
0000
0001
0000
1001
0000
1000
0000
,
0010
0100
0001
0100
0010
0000
1000
0000
0100
0000
0100
0000
0220
0000
0330
0000
,
0010
0100
1000
0001
0100
0000
0010
0000
0100
0000
0100
0000
0101
0000
0001
0000
,
1000
0010
0100
0010
1000
0000
0100
0000
0010
0000
0010
0000
2002
0000
3003
0000
,
0001
0010
0001
1000
0010
0000
0100
0000
0110
0000
0010
0000
2002
0000
3003
0000
,
1000
0010
1000
0001
0010
0000
0100
0000
0110
0000
0010
0000
2002
0000
3003
0000
,
2100
0000
0000
0000
3002
0003
0200
0300
,
0110
0010
1010
1000
1001
0001
0011
0010
,
0110
0100
1100
1000
1001
0000
0202
0303
,
0110
0000
0000
0000
2002
0000
0000
3003
0000
0000
0000
0000
0000
0000
0000
0000
;
