#TITLE:この子の七つのお祝いに;
#SUBTITLE:;
#ARTIST:あさき;
#TITLETRANSLIT:Konoko no nanatsu no oiwaini;
#SUBTITLETRANSLIT:;
#ARTISTTRANSLIT:;
#GENRE:;
#CREDIT:;
#MUSIC:Konoko no nanatsu no oiwaini.ogg;
#BANNER:Konoko no nanatsu no oiwaini.png;
#BACKGROUND:Konoko no nanatsu no oiwaini-bg.png;
#CDTITLE:./CDTITLES/GuitarFreaks & DrumMania.png;
#SAMPLESTART:66.253;
#SAMPLELENGTH:15.000;
#SELECTABLE:YES;
#OFFSET:0.000;
#BPMS:0.000=161.000;
#STOPS:;
#BGCHANGES:;
#FGCHANGES:;

//--------------- dance-single - KONAMI ----------------
#NOTES:
     dance-single:
     KONAMI:
     Beginner:
     3:
     0,0,0,0,0:
0000
0000
0000
0000
,
0000
0000
0000
0000
,
0000
0000
0000
0000
,
0000
0000
0000
0000
,
0000
0000
0000
0000
,
0010
0000
0100
0000
,
0010
0000
0100
0000
,
0001
0000
0000
0001
,
0000
0000
0000
1001
,
0000
0010
0000
1000
,
0000
0100
0000
1000
,
0000
0000
1000
0000
,
0000
0000
0000
0000
,
0010
0000
0100
0000
,
0001
0000
0001
0000
,
1000
0000
0001
0000
,
0010
0000
0010
0000
,
0100
0000
0010
0000
,
1000
0000
0001
0000
,
1000
0000
0010
0000
,
1000
0000
0100
0000
,
1000
0000
0000
0010
,
0000
0000
0000
0001
,
0000
0000
0000
0001
,
0000
0010
0000
0100
,
0000
0000
0000
0100
,
0000
0000
0000
0001
,
0000
0000
0000
0010
,
0000
0001
0000
1001
,
0000
0100
0000
0001
,
0000
1000
0000
0100
,
0000
0000
0000
0000
,
0001
0000
0100
0000
,
0001
0000
0000
0100
,
0000
0001
0000
0010
,
0000
0100
0000
1000
,
0000
0001
0000
0100
,
0000
0000
0000
0000
0000
0000
0000
0000
0000
0001
0000
0000
0000
0000
0000
0000
,
0000
0110
0000
0000
0000
0000
0000
0000
0000
1000
0000
0000
0000
0000
0000
0000
,
0000
0100
0000
0000
0000
0000
0000
0000
0000
0100
0000
0000
0000
0000
0000
0000
,
0000
0010
0000
0000
0000
0000
0000
0000
0000
0001
0000
0000
0000
0000
0000
0000
,
0000
1000
0000
0000
0000
0000
0000
0000
0000
0100
0000
0000
0000
0000
0000
0000
,
0000
0100
0000
0000
0000
0000
0000
0000
0000
0001
0000
0000
0000
0000
0000
0000
,
0000
1000
0000
0000
0000
0000
0000
0000
0000
0001
0000
0000
0000
0000
0000
0000
,
0000
1000
0000
0000
0000
0000
0000
0000
0000
0001
0000
0000
0000
0000
0000
0000
,
0000
0000
0000
0000
0000
0010
0000
0000
0000
0000
0000
0000
0000
0000
0000
0000
,
0000
0000
0000
0000
0000
1000
0000
0000
0000
0000
0000
0000
0000
0000
0000
0000
,
0000
0000
0000
0000
0000
0100
0000
0000
0000
0000
0000
0000
0000
0000
0000
0000
,
0000
0000
0000
0000
0000
0000
0000
0000
0000
0100
0000
0000
0000
0000
0000
0000
,
0000
0000
0000
0000
0000
0000
0000
0000
0000
0010
0000
0000
0000
0000
0000
0000
,
0000
0000
0000
0000
0000
0000
0000
0000
0000
1000
0000
0000
0000
0000
0000
0000
,
0000
0001
0000
0000
0000
0000
0000
0000
0000
1000
0000
0000
0000
0000
0000
0000
,
0000
0001
0000
0000
0000
0000
0000
0000
0000
0001
0000
0000
0000
0000
0000
0000
,
0000
0010
0000
0000
0000
0000
0000
0000
0000
0100
0000
0000
0000
0000
0000
0000
,
0000
0100
0000
0000
0000
0000
0000
0000
0000
0010
0000
0000
0000
0000
0000
0000
,
0000
0001
0000
0000
0000
0000
0000
0000
0000
0001
0000
0000
0000
0000
0000
0000
,
0000
0100
0000
0000
0000
0000
0000
0000
0000
0010
0000
0000
0000
0000
0000
0000
,
0000
0100
0000
0000
0000
0000
0000
0000
0000
0001
0000
0000
0000
0000
0000
0000
,
0000
0100
0000
0000
0000
0000
0000
0000
0000
1000
0000
0000
0000
0000
0000
0000
,
0000
0100
0000
0000
0000
0000
0000
0000
0000
0001
0000
0000
0000
0000
0000
0000
,
0000
1000
0000
0000
0000
0000
0000
0000
0000
0100
0000
0000
0000
0000
0000
0000
,
0000
0010
0000
0000
0000
0000
0000
0000
0000
1001
0000
0000
0000
0000
0000
0000
,
0000
0100
0000
0000
0000
0000
0000
0000
0000
0000
0000
0000
0000
0000
0000
0000
;

//--------------- dance-single - KONAMI ----------------
#NOTES:
     dance-single:
     KONAMI:
     Easy:
     7:
     0,0,0,0,0:
0000
0000
0000
0000
,
0000
0000
0000
0000
,
0000
0000
0000
0000
,
0000
0000
0000
0000
,
0000
0000
0000
0000
,
0010
1000
0100
0001
,
0010
0001
0100
1000
,
0001
0000
0000
1000
0000
0000
0001
0000
,
0100
0000
0000
0100
0000
0000
0100
0000
0000
0000
0000
0000
1001
0000
0000
0000
,
0001
0010
0100
1000
,
0010
0000
0000
0000
0100
0000
0000
0000
0010
0000
0000
0000
1000
0000
0000
0001
,
0000
0000
1000
0000
,
0000
0010
0000
0000
0000
0100
0000
0000
0000
0000
1001
0000
0000
0000
0000
0000
,
0010
1000
0100
1000
,
0001
0100
0001
0010
,
1000
0010
0001
1000
,
0010
0100
0010
1001
,
0100
0001
0010
0100
,
1000
0010
0001
0010
,
1000
0100
0010
0100
,
1000
0001
0100
0001
,
1000
0000
0000
1000
0000
0000
0010
0000
,
0100
0000
0000
0100
0000
0000
0001
0000
,
0010
0000
0000
0010
0000
0000
0001
0000
,
1000
0010
1000
0100
,
0010
0000
0000
0010
0000
0000
0100
0000
,
1000
0000
0000
1000
0000
0000
0001
0000
,
0100
0000
0000
0100
0000
0000
0010
0000
,
1000
0000
0001
0100
0000
0000
1001
0000
,
0010
0100
0010
0001
,
0010
0000
0000
0000
1000
0000
0000
0000
0010
0000
0000
0000
0100
0000
0000
0001
,
0000
0000
0000
0000
0000
0000
0000
1000
0000
0000
0000
0000
0000
0000
0000
0000
,
0001
0010
0100
1000
,
0001
1000
0000
0100
,
0010
0001
0100
0010
,
1000
0000
0000
0000
0100
0000
0000
0000
0000
1000
0000
0000
1000
0000
0000
1000
,
0000
0001
0000
0000
0001
0000
0000
0001
0000
0010
0000
0000
0100
0000
0000
0010
,
0000
0100
0000
0000
0000
1001
0000
0000
0000
0001
0000
0000
0000
1000
0000
0000
,
0000
0110
0000
0000
0000
0000
0000
0000
0000
2000
0000
0000
0000
3020
0000
0000
,
0000
0230
0000
0000
0000
2300
0000
0000
0000
3200
0000
0000
0000
0302
0000
0000
,
0000
0023
0000
0000
0000
0130
0000
0000
0000
0002
0000
0000
0000
0023
0000
0000
,
0000
2030
0000
0000
0000
3020
0000
0000
0000
0230
0000
0000
0000
0302
0000
0000
,
0000
0203
0000
0000
0000
1300
0000
0000
0000
0001
0000
0000
0000
0100
0000
0000
,
0000
1000
0000
0000
0000
0100
0000
0000
0000
0001
0000
0000
0000
0010
0000
0000
,
0000
1000
0000
0000
0000
0010
0000
0000
0000
0001
0000
0000
0000
0000
0000
1000
,
0000
0000
0000
0000
0000
0010
0000
0000
0000
0100
0000
0000
0000
0000
0000
0001
,
0000
0000
0000
0000
0000
1000
0000
0000
0000
0100
0000
0000
0000
0000
0000
0001
,
0000
0000
0000
0000
0000
0100
0000
0000
0000
1000
0000
0000
0000
0000
0000
1001
,
0000
0000
0000
0000
0000
0000
0000
0000
0000
0100
0000
0000
0000
0000
0000
0101
,
0000
0000
0000
0000
0000
0000
0000
0000
0000
0010
0000
0000
0000
0000
0000
0110
,
0000
0000
0000
0000
0000
0000
0000
0000
0000
1000
0000
0000
0000
0010
0000
0000
,
0000
0001
0000
0000
0000
0100
0000
0000
0000
1000
0000
0000
0000
0100
0000
0000
,
0000
0001
0000
0000
0000
0010
0000
0000
0000
0001
0000
0000
0000
1000
0000
0000
,
0000
0010
0000
0000
0000
1000
0000
0000
0000
0100
0000
0000
0000
1000
0000
0000
,
0000
0001
0000
0000
0000
0100
0000
0000
0000
0010
0000
0000
0000
0100
0000
0000
,
0000
0001
0000
0000
0000
0010
0000
0000
0000
0002
0000
0000
0000
0100
0000
0000
,
0000
0103
0000
0000
0000
2000
0000
0000
0000
0010
0000
0000
0000
3010
0000
0000
,
0000
0200
0000
0000
0000
0001
0000
0000
0000
0301
0000
0000
0000
0020
0000
0000
,
0000
0100
0000
0000
0000
0130
0000
0000
0000
1000
0000
0000
0000
0001
0000
0000
,
0000
0100
0000
0000
0000
0010
0000
0000
0000
0001
0000
0000
0000
0100
0000
0000
,
0000
2000
0000
0000
0000
3020
0000
0000
0000
0230
0000
0000
0000
0302
0000
0000
,
0000
0013
0000
0000
0000
0100
0000
0000
0000
1001
0000
0000
0000
0010
0000
0000
,
0000
0100
0000
0000
0000
0000
0000
0000
0000
0000
0000
0000
0000
0000
0000
0000
;

//--------------- dance-single - KONAMI ----------------
#NOTES:
     dance-single:
     KONAMI:
     Medium:
     10:
     0,0,0,0,0:
0000
0000
0000
0000
,
0000
0000
0000
0000
,
0000
0000
0000
0000
,
0000
0000
0000
0000
,
0000
0000
0000
0000
,
1000
0000
0000
0001
0000
0000
0100
0000
0010
0000
1000
0000
0100
0000
0000
0000
,
0010
0000
0000
0001
0000
0000
0100
0000
0001
0000
1000
0000
0010
0000
0000
0000
,
1000
1000
0100
1000
0001
0001
0100
0000
,
0010
0000
0000
1000
0000
0000
0100
0000
0000
0000
1000
0000
0001
0000
0000
0000
,
0010
0000
0100
1000
0000
0010
0100
0000
,
0010
0000
0000
0000
1000
0000
0100
0000
0000
0000
0001
0000
0010
0000
0000
0100
,
0000
0000
0000
1000
0000
0010
0000
0000
0100
0000
0000
0001
0000
0010
0000
0000
,
0000
0100
0000
0100
0000
0010
0000
0100
0000
0000
1001
0000
0000
0000
0000
0000
,
0010
0000
0100
0000
0001
1000
0010
0000
,
0100
0000
0001
0000
1000
0001
0100
0000
,
0010
1000
0100
0000
0010
0001
0100
0000
,
1000
1000
0001
0001
0000
1000
0010
0000
,
0110
0000
1001
0000
0001
0010
0100
0000
,
0011
0000
1100
0000
0010
0100
0001
0000
,
0010
0001
0010
0000
0100
1000
0100
0000
,
1010
0000
0101
0000
1000
0001
0100
0000
,
0001
0000
0000
0010
0000
0100
1000
0000
,
0001
0000
0000
0100
0000
0010
1000
0000
,
0010
0000
0000
0100
0000
0001
0010
0000
,
0100
0000
0000
1000
0000
0000
0001
0000
0000
0100
0000
0000
0010
0000
1000
0000
,
0100
0000
0000
0001
0000
0100
1000
0000
,
0001
0000
0000
0100
0000
0001
0010
0000
,
0100
0000
0000
0010
0000
0001
0100
0000
,
0001
0001
1000
0001
0000
0000
0110
0000
,
0001
0010
0100
0000
1000
0001
0100
0000
,
0010
0000
1000
0000
0100
0000
0000
0000
0001
0000
0100
0000
0010
0000
0000
1000
,
0000
0000
0100
0000
1000
0000
0000
0001
0000
0000
0010
0000
0100
0000
0000
0000
,
1000
0010
0100
0000
0001
0001
1000
0000
,
0010
0010
0100
0010
0000
0001
0100
0000
,
0010
1000
0100
0000
0001
0010
0100
0000
,
1000
0000
0100
0000
0010
0000
0000
0000
0000
1000
0000
0000
0001
0000
0000
0100
,
0000
0001
0000
0000
1000
0000
0000
0100
0000
0001
0000
0000
0100
0000
0000
1000
,
0000
0001
0000
0000
0000
0010
0000
0000
0000
0100
0000
0001
0000
1000
0000
0100
,
0000
0010
0000
0000
0000
0100
0000
0000
0000
1000
0000
1000
0000
0001
0000
0001
,
0000
0010
0000
0010
0000
0100
0000
0100
0000
0001
0000
0001
0000
0100
0000
0100
,
0000
1000
0000
0001
0000
0100
0000
0000
0000
0010
0000
0010
0000
0001
0000
0001
,
0000
0100
0000
0100
0000
1000
0000
1000
0000
0100
0000
0100
0000
0001
0000
0001
,
0000
0010
0000
0100
0000
1000
0000
0000
0000
0001
0000
0000
0000
0010
0000
0000
,
0000
1000
0000
0100
0000
0010
0000
0000
0000
1000
0000
0000
0000
0001
0000
1000
,
0000
0010
0000
0000
0000
0101
0000
0000
0000
0010
0000
0001
0000
0100
0000
0001
,
0000
0000
0000
1000
0000
0010
0000
0000
0000
0001
0000
1000
0000
0100
0000
0010
,
0000
0000
0000
0001
0000
0010
0000
0000
0000
1000
0000
0010
0000
0100
0000
0001
,
0000
0000
0000
1000
0000
0100
0000
0000
0000
0010
0000
0000
0000
0100
0000
1001
,
0000
0000
0000
0100
0000
0001
0000
0000
0000
0010
0000
0000
0000
0001
0000
1100
,
0000
0000
0000
0001
0000
0100
0000
0000
0000
1000
0000
0000
0000
0010
0000
0101
,
0000
0000
0000
1000
0000
0001
0000
0000
0000
0010
0000
0001
0000
0100
0000
0010
,
0000
0000
0000
0100
0000
0001
0000
0000
0000
1000
0000
0100
0000
1000
0000
0000
,
0000
0001
0000
0100
0000
0001
0000
0000
0000
0010
0000
0100
0000
1000
0000
0001
,
0000
0000
0000
1000
0000
0010
0000
0100
0000
0000
0000
1000
0000
0100
0000
0001
,
0000
0000
0000
0010
0000
0100
0000
0000
0000
0001
0000
0100
0000
0010
0000
0100
,
0000
0000
0000
1000
0000
0100
0000
0000
0000
0012
0000
0000
0000
0100
0000
0100
,
0000
0103
0000
0000
0000
2010
0000
0000
0000
0001
0000
0000
0000
3100
0000
0000
,
0000
0102
0000
0000
0000
0010
0000
0010
0000
0013
0000
0000
0000
2100
0000
0000
,
0000
0001
0000
0000
0000
3010
0000
0000
0000
0110
0000
0000
0000
0001
0000
1000
,
0000
0100
0000
0000
0000
1010
0000
0000
0000
0001
0000
0010
0000
0100
0000
0000
,
0000
2000
0000
0000
0000
3020
0000
0000
0000
0230
0000
0000
0000
0302
0000
0000
,
0000
0000
0000
0013
0000
0000
0000
0000
0000
0001
0000
0000
0000
0000
0000
0100
0000
0000
0000
0000
0000
0000
0000
0000
0000
0000
0000
0011
0000
0000
0000
0000
0000
0000
0000
0000
0000
0000
0000
1000
0000
0000
0000
0100
0000
0000
0000
1000
,
0000
0100
0000
0000
0000
0000
0000
0000
0000
0000
0000
0000
0000
0000
0000
0000
;

//--------------- dance-single - KONAMI ----------------
#NOTES:
     dance-single:
     KONAMI:
     Hard:
     14:
     0,0,0,0,0:
0000
0000
0000
0000
,
0000
0000
0000
0000
,
0000
0000
0000
0000
,
0000
0000
0000
0000
,
0000
0000
0000
0000
,
1000
0000
0001
0100
0001
0000
0010
0000
0100
1000
0100
0000
1000
0000
0010
0000
,
0100
0000
0001
0010
0001
0000
0100
0000
0010
1000
0010
0000
1000
0001
0100
0000
,
0010
0000
1000
0100
1000
0000
0001
0000
0100
0001
0100
0000
0001
1000
0010
0000
,
0110
0000
0000
0101
0000
0000
1001
0000
0000
0000
0010
0000
0100
0000
1000
0000
,
0010
0000
0000
0100
0001
0000
1000
0000
0000
0000
0010
0000
1000
0000
0100
0000
,
0001
0000
0000
0100
0010
0000
0001
0000
0000
0000
1000
0000
0001
0010
0000
0100
,
0000
0000
0000
1000
0000
0010
1000
0000
0001
0000
0000
0100
0000
0001
0010
0000
,
0000
0100
1000
0100
1000
0010
0000
0100
0000
0000
2002
0000
0000
0000
3003
0000
,
0010
0000
0000
0000
0001
0000
0000
0100
0001
0000
1000
0000
0010
0000
1000
0000
,
0100
0000
0000
0000
0010
0000
0000
0001
1000
0000
0001
0000
0100
0000
0000
0000
,
1000
0010
0001
0100
1000
0100
0001
0000
,
0010
1000
0010
0100
0000
0001
0000
0100
1000
0000
0100
0000
0010
0000
1000
0000
,
0100
0000
0000
0000
0001
0000
0000
0100
1000
0000
0010
0000
0100
0000
0001
0000
,
0010
0000
0000
0000
0001
0000
0000
1000
0010
0000
0100
0000
0001
0000
0000
0000
,
0100
1000
0001
1000
0010
0100
0001
0010
,
1000
0100
0010
0001
0100
0010
0100
0001
,
1000
0000
0001
0010
0000
0100
1000
0001
,
0100
0000
0001
0010
0000
1000
0001
1000
,
0010
0000
1000
0100
0000
0001
0010
0100
,
1000
0010
0000
1000
0100
0000
1000
0010
0000
1000
0100
0000
1000
0000
0001
0000
,
0100
0000
1000
0100
0000
0001
0100
0010
,
0100
0000
0010
1000
0000
0100
0001
0100
,
1000
0000
0001
0100
0000
0001
0100
0001
,
0010
0100
0010
0000
0100
0000
1000
0001
0000
0000
0000
0000
1010
0000
0000
0000
,
0001
0010
0100
0001
1000
0001
0100
0001
,
0010
0000
1000
0000
0100
0000
1000
0000
0001
0000
0100
0000
0010
1000
0000
0001
,
0000
0000
0100
0000
0001
0010
0000
0001
0000
0000
0100
0000
0010
0000
1000
0000
,
0010
0000
0100
0000
0001
1000
0000
1000
0001
0100
0001
0000
1000
0100
1000
0000
,
0010
0100
0010
0000
1000
0001
1000
0000
0000
0000
0010
0000
0001
0000
0100
0000
,
0001
0010
1000
0100
0010
0001
0010
0100
,
0001
0000
0100
0000
0010
0001
0000
0000
0001
1000
0000
0000
0001
0000
0000
0100
,
0000
0001
0000
0000
1000
0000
0000
0100
0000
0101
0000
0000
1100
0000
0000
0110
,
0000
1001
0000
0000
0000
0010
0000
1000
0000
0100
0000
0001
0000
0100
0000
1000
,
0000
0010
0000
0000
0000
0100
0000
0001
0000
1000
0100
1000
0100
1000
0100
1000
,
0100
0010
0001
0010
0001
0010
0001
0010
0001
0100
0010
0100
0010
0100
0010
0100
,
0010
1000
0000
0001
0000
0100
0000
0000
0000
0010
1000
0010
1000
0010
1000
0010
,
1000
0001
1000
0001
1000
0001
1000
0001
1000
0001
0100
0001
0100
0001
0100
0001
,
0100
0010
0000
0100
0000
1000
0000
0100
0000
0001
0000
0000
0000
0010
0000
0001
,
0000
1000
0000
0100
0000
0010
0000
0100
0000
1000
0000
0000
0000
0010
0000
0001
,
0000
0100
0000
0001
0000
0010
0000
0000
0000
0100
0000
1000
0000
0001
0000
1000
,
0100
0000
0000
1000
0000
0010
0000
0100
0000
0001
0000
1000
0000
0100
0000
0010
,
0100
0000
0000
0010
0000
0001
0000
0100
0000
1000
0000
0001
0000
0010
0000
1000
,
0010
0000
0000
0100
0000
0001
0000
0010
0000
0001
0000
1000
0000
0010
0000
0101
,
0000
0000
0000
0100
0000
0010
0000
1000
0000
0100
0000
0010
0000
0001
0000
0110
,
0000
0000
0000
0001
0000
1000
0000
0010
0000
0100
0000
0001
0000
0010
0000
1100
,
0000
0000
0000
0001
0000
1000
0000
0010
0000
1000
0000
0001
0000
0100
0000
0001
,
1000
0000
0000
0100
0000
0010
0000
0001
0000
1000
0000
0100
0000
1000
0000
0100
,
0000
0001
0000
0100
0000
0001
0000
0100
0000
0010
0000
0100
0000
1000
0000
0001
,
0010
0000
0010
0001
0000
0100
0000
0010
0000
1000
0000
0001
0000
0100
0000
0010
,
1000
0000
1000
0010
0000
0100
0000
0001
0000
1000
0000
0100
0000
0010
0000
0100
,
1000
0000
1000
0100
0000
1000
0000
0001
0000
0010
0000
0000
0000
0100
0000
1000
,
0000
0001
0000
1000
0000
0100
0000
0000
0000
0010
0000
0001
0000
1000
0000
0001
,
0000
0100
0000
0000
0000
0010
0000
1000
0000
0100
0000
1000
0000
0001
0000
0010
,
0000
1000
0000
0001
0000
0100
0000
1000
0000
0010
0000
0100
0000
0001
0000
0010
,
0000
1000
0000
0010
0000
0100
0000
1000
0000
0001
0000
0100
0000
0010
0000
0100
,
0000
0002
0000
0000
0000
0023
0000
0000
0000
0230
0000
0000
0000
1300
0000
0010
,
0000
0000
0000
0100
0000
0000
0000
0000
0000
0010
0000
0000
0000
0000
0000
0001
0000
0000
0000
0000
0000
0010
0000
0000
0000
0000
0000
0100
0000
0000
0000
0000
0000
0000
0000
0000
0000
0000
0000
0001
0000
0000
0000
1000
0000
0000
0000
0100
,
0000
1000
0000
0000
0000
0000
0000
0000
0000
0000
0000
0000
0000
0000
0000
0000
;

//--------------- dance-single - about-blank ----------------
#NOTES:
     dance-single:
     about-blank:
     Challenge:
     17:
     0,0,0,0,0:
0000
0000
0000
0000
,
0000
0000
0000
0000
,
0000
0000
0000
0000
,
0000
0000
0000
0000
,
0000
0000
0000
0000
,
1100
0000
0001
0100
0001
0000
0011
0000
1000
0010
1000
0000
1100
0000
0010
0000
,
0101
0000
1000
0100
1000
0000
1010
0000
0001
0010
0001
0000
0202
0000
0303
0000
,
0011
0000
0010
0100
1000
0000
1100
0000
0100
0010
0001
0000
1001
0000
0100
0000
,
0110
0000
0000
0011
0000
0000
1100
0000
1000
0010
0000
0000
0100
0000
0100
0001
,
0020
0000
0000
0000
0130
0000
1000
0000
0010
0100
0010
0100
0001
0000
1000
0000
,
0100
0010
0100
0010
0001
0000
1000
0000
0001
0000
0100
0001
0010
0100
0000
1010
,
0000
0000
0010
0100
0010
0001
0010
0000
0101
0000
0001
0010
0000
0100
1000
0000
,
0001
0010
0001
0010
0100
1000
0000
1001
0000
0000
0220
0000
0000
0000
0330
0000
,
1000
0001
0100
0000
0101
0000
1000
0010
1000
0000
0100
0000
0110
0000
0010
0001
,
1000
0000
0001
0000
0101
0000
0001
0010
0100
1000
0100
0000
1000
0001
0000
0000
,
2002
0000
3003
0000
0011
0000
1000
0010
0100
0000
0001
0000
0110
0000
1000
0000
,
0001
0010
0100
0001
0000
1000
0000
0010
0001
1000
0010
0100
0001
0010
0001
1000
,
0010
0000
1000
0100
1000
0000
0001
1000
0010
1000
0100
0000
1010
0000
0100
0000
,
0010
0000
0001
0100
0001
0000
1000
0001
0100
0001
0010
0000
0101
0000
0010
1000
,
0001
0000
0100
0010
0100
0000
0010
1000
0001
0100
0010
0000
1001
0000
0100
0000
,
0110
0000
0010
0000
1001
0000
0001
0010
0100
1000
0010
0100
0001
0010
0001
1000
,
0020
0000
0000
1030
0000
1000
0100
0010
,
0001
0000
0000
0101
0000
0001
0010
0100
,
1000
0000
0000
1010
0000
1000
0100
1000
,
0010
0100
0000
0001
1000
0000
0100
0010
0000
0001
1000
0000
0010
0100
0010
0100
,
0001
0001
1000
0010
0010
1000
0100
0010
,
0001
0001
0100
0010
0010
1000
0001
1000
,
0100
0100
0001
0100
0100
1000
0010
0100
,
0001
0010
1000
0000
0001
0000
0100
0010
0000
0000
0000
0000
0220
0000
0330
0000
,
1000
0100
1000
0100
1000
0010
1000
0010
0100
0010
0100
0010
0100
0001
0100
0001
,
0010
0001
0010
0001
0100
0001
0100
0001
1000
0010
1000
0010
0100
0001
0000
2020
,
0000
3030
0001
0000
1000
0100
0000
0011
0000
0001
1000
0100
0010
0001
1000
0010
,
1000
0010
0100
0001
2000
0000
3000
0100
0001
0100
1000
0000
0001
0100
1000
0000
,
0001
0010
1000
0000
0001
0020
0000
0000
0130
1000
0001
1000
0001
1000
0001
0100
,
0001
0100
0001
0010
0001
0010
0100
1000
0100
1000
0010
0100
0010
0100
0001
1000
,
0001
1000
0100
1000
0200
0001
0000
0000
0000
1300
0000
0010
0100
0000
0001
0010
,
0000
0001
0000
0100
0010
0000
1000
0100
0000
1000
0000
0000
1010
0000
0000
1001
,
0000
0101
0000
0000
0000
0001
0000
0001
1000
0100
0010
1000
0010
0100
0010
0001
,
0100
0010
0000
0000
0000
1000
0100
1000
0100
0001
0100
0001
0100
1000
0010
1000
,
0010
0001
0010
0001
0010
1000
0100
0001
0100
1000
0010
0001
0010
1000
0100
0010
,
0001
0100
0000
0100
0000
0100
0000
0001
0000
0001
0010
0001
0010
1000
0010
1000
,
0010
0001
0100
0001
0100
1000
0100
1000
0100
0001
0010
1000
0010
0001
0100
1000
,
0100
0001
0000
0001
0000
1000
0000
0010
0000
0110
0000
0100
0000
0001
0000
1000
,
0000
0001
0100
0001
0000
0010
0000
0100
0000
1100
0000
1000
0000
0010
0000
0100
,
0000
0001
0010
0100
0000
1000
0010
0100
0000
1001
0000
0000
1000
0001
0000
0011
,
0000
0000
0001
1000
0000
0100
0000
1000
0000
1010
0000
0000
0010
0100
0000
0101
,
0000
0000
1000
0001
0000
0010
0000
0001
0000
0101
0000
0020
0000
0000
0030
1000
,
0001
1000
0100
0010
0000
0001
0000
0100
0000
0010
0000
1000
0010
0100
0000
1200
,
0000
0000
0000
0301
0000
0010
0100
1000
0000
0001
0000
0001
0010
0100
0000
0201
,
0000
0000
0000
1300
0000
0001
0010
0100
0000
1000
0000
1000
0010
0100
0000
1200
,
0000
0000
0000
0301
0000
1000
0010
0000
0010
0100
0000
0001
0000
0010
0000
0100
,
0000
1000
0000
0010
0000
0100
0000
0001
0000
1000
0010
1000
0010
1000
0001
1000
,
0001
1000
0100
1000
0100
1000
0001
1000
0001
1000
0000
0001
1000
0001
0000
0020
,
0000
1030
0000
0001
1000
0001
0000
0200
0000
1300
0000
0010
1000
0010
0000
0010
,
0100
0001
0000
1002
0000
0013
0000
0100
0000
1000
0010
1000
0000
0001
0000
0100
,
0010
1000
0000
0001
0000
0010
0100
1000
0001
0200
0000
0000
0300
1010
0000
1000
,
0000
1001
0000
1000
0000
0100
0000
0010
0000
0011
0000
0001
0000
1001
0000
0001
,
0000
0100
0000
0010
0000
1010
0000
1000
0000
1100
0000
1000
0000
0100
0000
0010
,
0000
0011
0000
0001
0000
0101
0000
0001
0000
1000
0000
0100
0000
0101
0000
0100
,
0000
1100
0000
0010
0000
0001
0000
0100
0000
1100
0000
0100
0000
0101
0000
0010
,
0000
1000
0100
1000
0000
0001
0100
0001
0000
1000
0100
1000
0000
0001
0000
0100
,
0000
0000
0000
0011
0000
0000
0000
0000
0000
0100
0000
0000
0000
0000
0000
1010
0000
0000
0000
0000
0000
0100
0000
0000
0000
0000
0000
1001
0000
0000
0000
0000
0000
0000
0000
0000
0000
0000
0000
0101
0000
0000
0000
0010
0000
0000
0000
0010
,
0000
2000
0000
0000
3000
0000
0000
0000
0000
0000
0000
0000
0000
0000
0000
0000
;

//--------------- dance-double - KONAMI ----------------
#NOTES:
     dance-double:
     KONAMI:
     Easy:
     7:
     0,0,0,0,0:
00000000
00000000
00000000
00000000
,
00000000
00000000
00000000
00000000
,
00000000
00000000
00000000
00000000
,
00000000
00000000
00000000
00000000
,
00000000
00000000
00000000
00000000
,
00022000
00000000
00000000
00000000
,
00000000
00000000
00000000
00033000
,
00001000
00000000
00000000
00010000
00000000
00000000
01000000
00000000
,
10000000
00000000
00000000
10000000
00000000
00000000
10000000
00000000
00000000
00000000
00000000
00000000
00100000
00000000
00000000
00000000
,
01000000
00010000
10000000
01000000
,
00100000
00000000
00000000
00000000
00010000
00000000
00000000
00000000
01000000
00000000
00000000
00000000
00100000
00000000
00000000
10000000
,
00000000
00000000
00010000
00000000
,
00000000
00100000
00000000
00000000
00000000
00001000
00000000
00000000
00000000
00000000
00011000
00000000
00000000
00000000
00000000
00000000
,
00001000
00000010
00000001
00000100
,
00001000
00000100
00000001
00000100
,
00000010
00001000
00000100
00000001
,
00000010
00000000
00000100
00001001
,
00000001
00000010
00001000
00010000
,
00100000
10000000
00100000
01000000
,
00010000
00100000
01000000
10000000
,
00010000
10000000
01000000
00100000
,
00010000
00000000
00000000
00010000
00000000
00000000
00000000
00000000
,
00001000
00000000
00000000
00001000
00000000
00000000
00000000
00000000
,
00000100
00000000
00000000
00000100
00000000
00000000
00000000
00000000
,
00001000
00000010
00001000
00000100
,
00000010
00000000
00000000
00000010
00000000
00000000
00000000
00000000
,
00000001
00000000
00000000
00000001
00000000
00000000
00000000
00000000
,
00000100
00000000
00000000
00000100
00000000
00000000
00000000
00000000
,
00001000
00000000
00000100
00000100
00000000
00000000
00001001
00000000
,
00000001
00000100
00000010
00001000
,
00000010
00000000
00000000
00000000
00000100
00000000
00000000
00000000
00000001
00000000
00000000
00000000
00001000
00000000
00000000
00000100
,
00000000
00000000
00000000
00000000
00000000
00000000
00000000
00010000
00000000
00000000
00000000
00000000
00000000
00000000
00000000
00000000
,
00001000
00000010
00001000
00010000
,
00100000
10000000
00000000
01000000
,
10000000
00100000
10000000
00010000
,
01000000
00000000
00000000
00000000
00010000
00000000
00000000
00000000
00000000
10000000
00000000
00000000
10000000
00000000
00000000
10000000
,
00000000
01000000
00000000
00000000
01000000
00000000
00000000
01000000
00000000
00100000
00000000
00000000
00100000
00000000
00000000
00100000
,
00000000
00010000
00000000
00000000
00000000
00001000
00000000
00000000
00000000
00000100
00000000
00000000
00000000
00000010
00000000
00000000
,
00000000
00000001
00000000
00000000
00000000
00000000
00000000
00000000
00000000
00000002
00000000
00000000
00000000
00001000
00000000
00000000
,
00000000
00000203
00000000
00000000
00000000
00000010
00000000
00000000
00000000
00002300
00000000
00000000
00000000
00000100
00000000
00000000
,
00000000
00023000
00000000
00000000
00000000
00001000
00000000
00000000
00000000
02030000
00000000
00000000
00000000
00100000
00000000
00000000
,
00000000
23000000
00000000
00000000
00000000
00010000
00000000
00000000
00000000
30200000
00000000
00000000
00000000
01000000
00000000
00000000
,
00000000
00320000
00000000
00000000
00000000
00001000
00000000
00000000
00000000
00031000
00000000
00000000
00000000
00000100
00000000
00000000
,
00000000
00000001
00000000
00000000
00000000
00000100
00000000
00000000
00000000
00000010
00000000
00000000
00000000
00001000
00000000
00000000
,
00000000
00000010
00000000
00000000
00000000
00000001
00000000
00000000
00000000
00001000
00000000
00000000
00000000
00000000
00000000
00001000
,
00000000
00000000
00000000
00000000
00000000
00000010
00000000
00000000
00000000
00000100
00000000
00000000
00000000
00000000
00000000
00000100
,
00000000
00000000
00000000
00000000
00000000
00000001
00000000
00000000
00000000
00000010
00000000
00000000
00000000
00000000
00000000
00000001
,
00000000
00000000
00000000
00000000
00000000
00000100
00000000
00000000
00000000
00000001
00000000
00000000
00000000
00000000
00000000
00001001
,
00000000
00000000
00000000
00000000
00000000
00000000
00000000
00000000
00000000
00000010
00000000
00000000
00000000
00000000
00000000
00001100
,
00000000
00000000
00000000
00000000
00000000
00000000
00000000
00000000
00000000
00010000
00000000
00000000
00000000
00000000
00000000
00011000
,
00000000
00000000
00000000
00000000
00000000
00000000
00000000
00000000
00000000
00001000
00000000
00000000
00000000
00010000
00000000
00000000
,
00000000
00100000
00000000
00000000
00000000
10000000
00000000
00000000
00000000
01000000
00000000
00000000
00000000
10000000
00000000
00000000
,
00000000
00010000
00000000
00000000
00000000
01000000
00000000
00000000
00000000
00100000
00000000
00000000
00000000
10000000
00000000
00000000
,
00000000
01000000
00000000
00000000
00000000
00010000
00000000
00000000
00000000
00001000
00000000
00000000
00000000
00000010
00000000
00000000
,
00000000
00000001
00000000
00000000
00000000
00000100
00000000
00000000
00000000
00000010
00000000
00000000
00000000
00000100
00000000
00000000
,
00000000
00000001
00000000
00000000
00000000
00000010
00000000
00000000
00000000
00000100
00000000
00000000
00000000
00001000
00000000
00000000
,
00000000
00001000
00000000
00000000
00000000
00000010
00000000
00000000
00000000
00000100
00000000
00000000
00000000
00000100
00000000
00000000
,
00000000
00000001
00000000
00000000
00000000
00001000
00000000
00000000
00000000
00001000
00000000
00000000
00000000
00000100
00000000
00000000
,
00000000
00000010
00000000
00000000
00000000
00000010
00000000
00000000
00000000
00000001
00000000
00000000
00000000
00000100
00000000
00000000
,
00000000
00000100
00000000
00000000
00000000
00001000
00000000
00000000
00000000
00010000
00000000
00000000
00000000
00010000
00000000
00000000
,
00000000
00100000
00000000
00000000
00000000
01000000
00000000
00000000
00000000
01000000
00000000
00000000
00000000
10000000
00000000
00000000
,
00000000
01000000
00000000
00000000
00000000
01000000
00000000
00000000
00000000
00010000
00000000
00000000
00000000
00100000
00000000
00000000
,
00000000
01000000
00000000
00000000
00000000
00000000
00000000
00000000
00000000
00000000
00000000
00000000
00000000
00000000
00000000
00000000
;

//--------------- dance-double - KONAMI ----------------
#NOTES:
     dance-double:
     KONAMI:
     Medium:
     10:
     0,0,0,0,0:
00000000
00000000
00000000
00000000
,
00000000
00000000
00000000
00000000
,
00000000
00000000
00000000
00000000
,
00000000
00000000
00000000
00000000
,
00000000
00000000
00000000
00000000
,
00000010
00000000
00000000
00000001
00000000
00000000
00000100
00000000
00000000
00000000
00001000
00000000
00000100
00000000
00000000
00000000
,
00000010
00000000
00000000
00000100
00000000
00000000
00001000
00000000
00000000
00000000
00010000
00000000
00100000
00000000
00000000
00000000
,
10000000
01000000
01000000
00010000
00000000
01000000
01000000
00000000
,
00100000
00000000
00000000
00010000
00000000
00000000
20000000
00000000
00000000
00000000
00000000
00000000
31000000
00000000
00000000
00000000
,
00010000
00000000
00001000
00000100
00000000
00000001
00000100
00000000
,
00000010
00000000
00000000
00000000
00000001
00000000
00001000
00000000
00000000
00000000
00000010
00000000
00000100
00000000
00000000
00000001
,
00000000
00000000
00000000
00000010
00000000
00001000
00000000
00000000
00010000
00000000
00000000
01000000
00000000
10000000
00000000
00000000
,
00000000
00100000
00000000
01000000
00000000
00010000
00000000
00100000
00000000
00000000
22000000
00000000
00000000
00000000
33000000
00000000
,
00010000
00000000
10000000
00000000
01000000
00100000
01000000
00000000
,
10000000
00000000
00010000
00000000
01000000
00100000
10000000
00000000
,
00100000
00010000
00001000
00000000
00001000
00000100
00000001
00000000
,
00001000
00000001
00000010
00000100
00000000
00000001
00000100
00000000
,
00000010
00000000
00000001
00000000
00001000
00000001
00000100
00000000
,
00000001
00000000
00000100
00000000
00001000
00010000
00100000
00000000
,
10000000
00100000
01000000
00000000
00010000
00100000
01000000
00000000
,
10000000
00000000
01000000
00000000
00010000
01000000
10000000
00000000
,
00020000
00000000
00000000
00130000
00000000
00001000
00010000
00000000
,
00002000
00000000
00000000
00003100
00000000
00000001
00000010
00000000
,
00000200
00000000
00000000
00001300
00000000
00000010
00001000
00000000
,
00000001
00000000
00000000
00000010
00000000
00000000
00000100
00000000
00000000
00000001
00000000
00000000
00000100
00000000
00001000
00000000
,
00020000
00000000
00000000
01030000
00000000
10000000
01000000
00000000
,
00020000
00000000
00000000
00130000
00000000
01000000
10000000
00000000
,
00200000
00000000
00000000
10300000
00000000
01000000
00010000
00000000
,
00001000
00001000
00010000
00001000
00000000
00000000
00011000
00000000
,
00001000
00000010
00000001
00000000
00001000
00000001
00000100
00000000
,
00000010
00000000
00000100
00000000
00000001
00000000
00000000
00000000
00000010
00000000
00001000
00000000
00000100
00000000
00000000
00010000
,
00000000
00000000
00001000
00000000
00100000
00000000
00000000
00010000
00000000
00000000
00100000
00000000
01000000
00000000
00000000
00000000
,
10000000
00010000
01000000
00000000
00100000
00100000
10000000
10000000
,
01000000
01000000
00100000
01000000
00000000
00010000
01000000
00000000
,
00010000
00001000
00000100
00000000
00000001
00001000
00000010
00000000
,
00000100
00000000
00000001
00000000
00000010
00000000
00000000
00000000
00000000
00000100
00000000
00000000
00000010
00000000
00000000
00000001
,
00000000
00000100
00000000
00000000
00000010
00000000
00000000
00000100
00000000
00000001
00000000
00000000
00001000
00000000
00000000
00000100
,
00000000
00000001
00000000
00000000
00000000
00000010
00000000
00000000
00000000
00001000
00000000
00000001
00000000
00000100
00000000
00000001
,
00000000
00001000
00000000
00000000
00000000
00000110
00000000
00000000
00000000
00000001
00000000
00000001
00000000
00000100
00000000
00000100
,
00000000
00001000
00000000
00001000
00000000
00010000
00000000
00010000
00000000
00100000
00000000
00100000
00000000
10000000
00000000
10000000
,
00000000
00010000
00000000
01000000
00000000
10000000
00000000
00000000
00000000
10000000
00000000
10000000
00000000
01000000
00000000
01000000
,
00000000
00010000
00000000
00010000
00000000
00001000
00000000
00001000
00000000
00000010
00000000
00000010
00000000
00000001
00000000
00000001
,
00000000
00000010
00000000
00000100
00000000
00001000
00000000
00000000
00000000
00000001
00000000
00000000
00000000
00000100
00000000
00000000
,
00000000
00000010
00000000
00001000
00000000
00000100
00000000
00000000
00000000
00001000
00000000
00000000
00000000
00000001
00000000
00000100
,
00000000
00000010
00000000
00000000
00000000
00001001
00000000
00000000
00000000
00000010
00000000
00000000
00000000
00000001
00000000
00000100
,
00000000
00000000
00000000
00001000
00000000
00010000
00000000
00000000
00000000
00100000
00000000
00000000
00000000
01000000
00000000
00010000
,
00000000
00000000
00000000
10000000
00000000
01000000
00000000
00000000
00000000
00100000
00000000
00000000
00000000
01000000
00000000
10000000
,
00000000
00000000
00000000
00100000
00000000
01000000
00000000
00000000
00000000
00010000
00000000
00000000
00000000
00100000
00000000
11000000
,
00000000
00000000
00000000
10000000
00000000
01000000
00000000
00000000
00000000
00010000
00000000
00000000
00000000
00001000
00000000
00011000
,
00000000
00000000
00000000
00001000
00000000
00000010
00000000
00000000
00000000
00000001
00000000
00000000
00000000
00001000
00000000
00000110
,
00000000
00000000
00000000
00000001
00000000
00000100
00000000
00000000
00000000
00000010
00000000
00000000
00000000
00000100
00000000
00000001
,
00000000
00000000
00000000
00000010
00000000
00000001
00000000
00000000
00000000
00001000
00000000
00000001
00000000
00000100
00000000
00000000
,
00000000
00000001
00000000
00001000
00000000
00000100
00000000
00000000
00000000
00000010
00000000
00000100
00000000
00000001
00000000
00000100
,
00000000
00000000
00000000
00001000
00000000
00010000
00000000
00000000
00000000
00100000
00000000
00010000
00000000
00001000
00000000
00010000
,
00000000
00000000
00000000
01000000
00000000
10000000
00000000
00000000
00000000
00100000
00000000
01000000
00000000
00010000
00000000
10000000
,
00000000
00000000
00000000
01000000
00000000
00100000
00000000
00000000
00000000
00110000
00000000
00000000
00000000
11000000
00000000
00000000
,
00000000
01100000
00000000
00000000
00000000
10100000
00000000
00000000
00000000
01010000
00000000
00000000
00000000
00011000
00000000
00000000
,
00000000
00001010
00000000
00000000
00000000
00001001
00000000
00000000
00000000
00001100
00000000
00000000
00000000
00000011
00000000
00000000
,
00000000
00001001
00000000
00000000
00000000
00001100
00000000
00000000
00000000
00011000
00000000
00000000
00000000
01001000
00000000
00000000
,
00000000
00011000
00000000
00000000
00000000
00010010
00000000
00000000
00000000
00011000
00000000
00000000
00000000
00101000
00000000
00000000
,
00000000
00020000
00000000
00000000
00000000
00230000
00000000
00000000
00000000
20300000
00000000
00000000
00000000
30200000
00000000
00000000
,
00000000
00000000
00000000
01300000
00000000
00000000
00000000
00000000
00000000
00000000
00000000
00000000
00000000
00000000
00000000
10010000
00000000
00000000
00000000
00000000
00000000
00000000
00000000
00000000
00000000
00000000
00000000
00110000
00000000
00000000
00000000
00000000
00000000
00000000
00000000
00000000
00000000
00000000
00000000
10000000
00000000
00000000
00000000
01000000
00000000
00000000
00000000
00010000
,
00000000
00001000
00000000
00000000
00000000
00000000
00000000
00000000
00000000
00000000
00000000
00000000
00000000
00000000
00000000
00000000
;

//--------------- dance-double - KONAMI ----------------
#NOTES:
     dance-double:
     KONAMI:
     Hard:
     14:
     0,0,0,0,0:
00000000
00000000
00000000
00000000
,
00000000
00000000
00000000
00000000
,
00000000
00000000
00000000
00000000
,
00000000
00000000
00000000
00000000
,
00000000
00000000
00000000
00000000
,
00001000
00000001
00000100
00000010
00000100
00000001
00001000
00000010
,
00010000
00000000
00001000
00000000
00100000
00000000
00010000
00000000
01000000
00000000
00010000
00000000
00100000
01000000
10000000
00000000
,
00100000
00000000
01000000
00000000
00010000
00000000
00001000
00000000
00000010
00000000
00000100
00000000
00000001
00001000
00000100
00000000
,
00001100
00000000
00000000
00000101
00000000
00000000
00001001
00000000
00000000
00000000
00000100
00000000
00001000
00000000
00010000
00000000
,
01000000
00000000
00000000
10000000
01000000
00000000
00010000
00000000
00000000
00000000
00100000
00000000
00001000
00000000
01000000
00000000
,
00010000
00000000
00000000
00100000
00010000
00000000
10000000
00000000
00000000
00000000
01000000
00000000
10000000
00100000
00000000
00010000
,
00000000
00000000
00000000
00001000
00000000
00000010
00000001
00000000
00001000
00000000
00000000
00000100
00000000
00001000
00000010
00000000
,
00000000
00000100
00000001
00000100
00000001
00000010
00000000
00000100
00000000
00000000
00002002
00000000
00000000
00000000
00003003
00000000
,
00000010
00000000
00000000
00000000
00000001
00000000
00000000
00000100
00000001
00000000
00001000
00000000
00000010
00000000
00010000
00000000
,
00001000
00000000
00000000
00000000
00000100
00000000
00000000
00001000
00010000
00000000
00100000
00000000
10000000
00000000
00000000
00000000
,
00100000
00010000
01000000
00000000
00100000
10000000
01000000
00000000
,
10000000
00000000
00010000
00100000
00000000
01000000
00000000
10000000
01000000
00000000
00010000
00000000
00001000
00000000
00000010
00000000
,
00000100
00000000
00000000
00000000
00000001
00000000
00000000
00000100
00001000
00000000
00000010
00000000
00000100
00000000
00000001
00000000
,
00000010
00000000
00000000
00000000
00000100
00000000
00000000
00001000
00000001
00000000
00000100
00000000
00000010
00000000
00000000
00000000
,
00000001
00000010
00001000
00010000
01000000
10000000
01000000
00010000
,
01000000
00100000
00010000
00001000
00000100
00000010
00000100
00000001
,
00001000
00000000
00001000
00000001
00000000
00000001
00000010
00000100
,
00001000
00000000
00001000
00000010
00000000
00000010
00000100
00001000
,
00010000
00000000
00010000
00100000
00000000
00100000
10000000
01000000
,
10000000
00010000
00000000
01000000
00100000
00000000
10000000
00010000
00000000
00100000
01000000
00000000
10000000
00000000
00010000
00000000
,
01000000
00000000
01000000
00100000
00000000
00100000
10000000
01000000
,
00010000
00000000
00010000
00001000
00000000
00001000
00000100
00000001
,
00000100
00000000
00000100
00000010
00000000
00000010
00001000
00000100
,
00001000
00000001
00000100
00000000
00000001
00000000
00001000
00000100
00000000
00000000
00000000
00000000
00000110
00000000
00000000
00000000
,
00000001
00000010
00000100
00000001
00000100
00001000
00010000
00100000
,
10000000
00000000
00010000
00000000
01000000
00000000
10000000
00000000
00100000
00000000
01000000
00000000
00010000
00100000
00000000
01000000
,
00000000
00000000
10000000
00000000
00010000
01000000
00000000
00010000
00000000
00000000
10000000
00000000
01000000
00000000
00010000
00000000
,
00001000
00000000
00000010
00000000
00000001
00001000
00000000
00001000
00000010
00000000
00000010
00000000
00000100
00000000
00000100
00000000
,
00000001
00000000
00000001
00000000
00001000
00000100
00000010
00000000
00000000
00000000
00000001
00000000
00000100
00000000
00000001
00000000
,
00000010
00001000
00010000
01000000
00100000
00010000
01000000
10000000
,
01000000
00000000
00010000
00000000
10000000
00100000
00000000
00000000
10000000
01000000
00000000
00000000
10000000
00000000
00000000
00100000
,
00000000
01000000
00000000
00000000
00010000
00000000
00000000
00100000
00000000
11000000
00000000
00000000
10010000
00000000
00000000
01010000
,
00000000
00011000
00000000
00000000
00000000
00001000
00000000
00000100
00000000
00000001
00000000
00001000
00000000
00000100
00000000
00000010
,
00000000
00000001
00000000
00000000
00000000
00001000
00000000
00000010
00000000
00000100
00000001
00000100
00000001
00000100
00000001
00000100
,
00000001
00001000
00000100
00001000
00000100
00001000
00000100
00001000
00000100
00010000
00001000
00010000
00001000
00010000
00001000
00010000
,
00001000
00100000
00000000
00010000
00000000
01000000
00000000
00000000
00000000
00100000
10000000
00100000
10000000
00100000
10000000
00100000
,
10000000
01000000
00010000
01000000
00010000
01000000
00010000
01000000
00010000
00001000
00010000
00001000
00010000
00001000
00010000
00001000
,
00000100
00000010
00000000
00000100
00000000
00000001
00000000
00000010
00000000
00000100
00000000
00001000
00000000
00000010
00000000
00000001
,
00000000
00001000
00000000
00000100
00000000
00000010
00000000
00000100
00000000
00000001
00000000
00000000
00000000
00000010
00000000
00000001
,
00000000
00001000
00000000
00000100
00000000
00010000
00000000
00000000
00000000
00001000
00000000
00000010
00000000
00001000
00000000
00010000
,
00001000
00000000
00000000
00010000
00000000
00100000
00000000
10000000
00000000
01000000
00000000
00000000
00000000
10000000
00000000
00010000
,
01000000
00000000
00000000
00100000
00000000
10000000
00000000
01000000
00000000
00100000
00000000
00000000
00000000
00010000
00000000
10000000
,
01000000
00000000
00000000
00010000
00000000
00001000
00000000
00000010
00000000
00000001
00000100
00000001
00000000
00001000
00000000
00000200
,
00000000
00000000
00000000
00000301
00000000
00000100
00000000
00001000
00000000
00000001
00000010
00000001
00000000
00000100
00000000
00000020
,
00000000
00000000
00000000
00001030
00000000
00000100
00000000
00000001
00000000
00000100
00000010
00000100
00000000
00000010
00000000
00000002
,
00000000
00000000
00000000
00000103
00000000
00001000
00000000
00010000
00000000
00001000
00000000
00000100
00000000
00001000
00000000
00010000
,
00100000
00000000
00000000
00100000
00000000
01000000
00000000
00010000
00000000
10000000
00000000
01000000
00000000
00100000
00000000
01000000
,
00000000
00010000
00000000
01000000
00000000
10000000
00000000
01000000
00000000
00010000
00000000
00001000
00000000
00000010
00000000
00001000
,
00000000
00010000
00000000
00100000
00000000
00010000
00000000
00001000
00000000
00000100
00000000
00000001
00000000
00000100
00000000
00001000
,
00000000
00010000
00000000
01000000
00000000
10000000
00000000
01000000
00000000
00010000
00000000
00001000
00000000
00010000
00000000
00000100
,
00000000
00010000
00000000
00000010
00000000
00010000
00000000
00001000
00000000
00000100
00000000
00000000
00000100
00000001
00000000
00000000
,
00000001
00000010
00000000
00000000
00000010
00001000
00000000
00000000
00001000
00010000
00000000
00000000
00010000
00100000
00000000
00000000
,
00100000
10000000
00000000
00000000
10000000
01000000
00000000
00000000
01000000
00010000
00000000
00000000
00010000
01000000
00000000
00000000
,
01000000
00100000
00000000
00000000
00100000
00010000
00000000
00000000
00010000
10000000
00000000
00000000
10000000
00010000
00000000
00000000
,
00010000
00001000
00000000
00000000
00001000
00000001
00000000
00000000
00000001
00000010
00000000
00000000
00000010
00000100
00000000
00000000
,
00000100
00001000
00000000
00000000
00001000
00000010
00000000
00000000
00000010
00010000
00000000
00000000
00010000
00001000
00000000
00000000
,
00001000
00000000
00000000
01000000
00000000
00000000
00000000
00000000
00000000
00000000
00000000
00000000
01000000
00000000
00000000
00010000
00000000
00000000
00000000
00000000
00000000
00000000
00000000
00000000
00010000
00000000
00000000
10000000
00000000
00000000
00000000
00000000
00000000
00000000
00000000
00000000
00000000
00000000
00000000
00100000
00000000
00000000
00000000
10000000
00000000
00000000
00000000
00010000
,
00000000
01000000
00000000
00000000
00000000
00000000
00000000
00000000
00000000
00000000
00000000
00000000
00000000
00000000
00000000
00000000
;

//--------------- dance-double - about-blank ----------------
#NOTES:
     dance-double:
     about-blank:
     Challenge:
     17:
     0,0,0,0,0:
00000000
00000000
00000000
00000000
,
00000000
00000000
00000000
00000000
,
00000000
00000000
00000000
00000000
,
00000000
00000000
00000000
00000000
,
00000000
00000000
00000000
00000000
,
10000000
00000000
01000000
00100000
01000000
00000000
00010000
00000000
00001000
00000100
00000010
00000000
00001000
00000000
00001000
00000000
,
00000001
00000000
00000100
00000010
00000100
00000000
00001000
00000000
00100000
01000000
00010000
00000000
02200000
00000000
03300000
00000000
,
10010000
00000000
10000000
00010000
10000000
00000000
01100000
00000000
00010000
00000000
01000000
00000000
00100000
00000000
00010000
00000000
,
00011000
00000000
00000000
00001100
00000000
00000000
00000101
00000000
00000001
00001000
00000000
00000000
00000100
00000000
00000100
00010000
,
00002000
00000000
00000000
00000000
00103000
00000000
01000000
00000000
10000000
00010000
10000000
00010000
10000000
00000000
00100000
00000000
,
01000000
00010000
01000000
00010000
01000000
00000000
00100000
00000000
00010000
00001000
00010000
00001000
00000100
00000010
00000000
00001010
,
00000000
00000000
00000000
00000010
00001000
00010000
01000000
00000000
01100000
00000000
00000000
00100000
00010000
00001000
00000100
00000000
,
00001000
00010000
00001000
00010000
00100000
10000000
00000000
11000000
00000000
00000000
00202000
00000000
00000000
00000000
00303000
00000000
,
10000000
00000000
00100000
00000000
01000000
00100000
01000000
00000000
00010000
00000000
00100000
00000000
00001000
00010000
00001000
00000000
,
00000010
00000000
00000100
00000000
00001000
00000010
00001000
00000000
00000001
00000000
00000100
00000000
00000001
00000010
00000100
00000000
,
00001001
00000000
00000001
00000000
00000100
00001000
00000100
00000000
00001000
00000000
00010000
00000000
00100000
01000000
00100000
00000000
,
10000000
01000000
10000000
00100000
00000000
01000000
00000000
01000000
00010000
00100000
00010000
00100000
00001000
00010000
00000010
00000100
,
00000001
00000000
00000010
00000100
00001000
00000000
00000010
00000100
00001000
00000100
00001000
00000000
00010000
00000000
00100000
00000000
,
10000000
00000000
01000000
00100000
00010000
00000000
01000000
00100000
00010000
00100000
00010000
00000000
00001000
00000000
00010000
00000000
,
00000100
00001000
00000100
00001000
00000010
00000000
00010000
00000000
00000100
00001000
00000100
00001000
00000010
00000000
00010000
00000000
,
00001000
00100000
00001000
00100000
00010000
00000000
01000000
00000000
00001000
00100000
00001000
00100000
00010000
01000000
00010000
01000000
,
00200000
00000000
00000000
10300000
00000000
10000000
01000000
00100000
,
00010000
00000000
00000000
00011000
00000000
00001000
00000100
00000010
,
00000001
00000000
00000000
00001001
00000000
00000001
00001000
00000001
,
00000001
00000100
00000000
00000010
00001000
00000000
00010000
01000000
00000000
00100000
10000000
00000000
01000000
00100000
01000000
00000000
,
00011000
00000000
00000000
00000000
00001000
00000000
00000100
00000000
00000000
00000000
00000100
00000001
00000010
00000000
00001000
00000000
,
00011000
00000000
00000000
00000000
00010000
00000000
01000000
00000000
00000000
00000000
01000000
10000000
00100000
00000000
00010000
00000000
,
00011000
00000000
00000000
00000000
00001000
00000000
00000010
00000000
00000000
00000000
00000010
00000001
00000100
00000000
00001000
00000000
,
00010000
00100000
10000000
00000000
01000000
00000000
00100000
00010000
00000000
00000000
00000000
00000000
10010000
00000000
00000000
00000000
,
10000000
01000000
10000000
01000000
00100000
00010000
00100000
00010000
00001000
00000100
00001000
00000100
00000020
00000000
00000031
00001000
,
00000001
00000100
00000001
00000100
00000010
00001000
00000010
00001000
00010000
01000000
00010000
01000000
00100000
00000000
00000000
10010000
,
00000000
00000000
10000000
00000000
01000000
00010000
00000000
00001000
00000000
00000010
00000001
00000010
00000100
00001000
00000100
00000010
,
00001000
00010000
01000000
00100000
00010000
10000000
00000000
01000000
10000000
00100000
00010000
00000000
00001000
00000010
00000001
00000000
,
00000001
00000100
00001000
00000000
00000100
00000002
00000000
00000003
00001000
00000010
00000100
00000010
00000100
00000001
00000100
00000001
,
00001000
00000010
00001000
00000010
00010000
00001000
00010000
00001000
00100000
00010000
00100000
00010000
00100000
01000000
00100000
01000000
,
00100000
00001000
00100000
00001000
00020000
00000010
00000000
00000000
00000000
00130000
00000000
00010000
00001000
00000000
00010000
00001000
,
00000000
00000010
00000000
00001000
00010000
00000000
00001000
00010000
00000000
00100000
00000000
00000000
01000000
00000000
00000000
00100000
,
00000000
10010000
00000000
00000000
00000000
10000000
00000000
10000000
01000000
00010000
01000000
10000000
00100000
00010000
00100000
10000000
,
01000000
00010000
00000000
00000000
00000000
00010000
00001000
00010000
00001000
00000100
00000001
00000100
00000001
00000010
00001000
00000010
,
00001000
00010000
01000000
00010000
01000000
10000000
00100000
10000000
00100000
00010000
00001000
00010000
00001000
00000100
00000010
00010000
,
00001000
00010000
01000000
00100000
00001000
00010000
00000000
00011000
00000000
00001000
00010000
00001000
00010000
01000000
10000000
01000000
,
10000000
00100000
00010000
00100000
00010000
00001000
00000100
00001000
00000100
00000001
00000010
00001000
00010000
00100000
10000000
01000000
,
00000000
00011000
00000000
00000010
00000000
00001000
00000000
00010000
00000000
00011000
00000000
01000000
00000000
00010000
00000000
10000000
,
00000000
00100000
00000000
10000000
00000000
01000000
00000000
00100000
00000000
00110000
00000000
00001000
00000000
00010000
00000000
00000010
,
00000000
00000100
00000001
00000100
00000000
00000010
00001000
00000010
00000000
00010100
00000000
00000000
00010000
00001000
00000000
00110000
,
00000000
00000000
10000000
00100000
00000000
01000000
00000000
00010000
00000000
00110000
00000000
00000000
00001000
00010000
00000000
00001100
,
00000000
00000000
00000001
00000100
00000000
00000010
00000000
00000100
00000000
00001001
00000000
00000220
00000000
00000330
00000000
00000001
,
00001000
00000001
00001000
00000001
00000000
00000100
00000000
00000010
00000000
00011000
00000000
00010000
01000000
00100000
00000000
00002000
,
00000000
00003000
00000000
00010000
00000000
00100000
00000000
00010000
00000000
00011000
00000000
00001000
00000100
00000010
00000000
00020000
,
00000000
00030000
00000000
00001000
00000000
00000010
00000000
00001000
00000000
00011000
00000000
00010000
01000000
00100000
00000000
00002000
,
00000000
00000000
00000000
00013000
00000000
00100000
10000000
00000000
01000000
00100000
00000000
00010000
00000000
01000000
00000000
00001000
,
00000000
00010000
00000000
00000010
00000000
00000100
00000000
00000001
00000000
00000010
00000100
00000010
00000100
00010000
00001000
00010000
,
00001000
00100000
01000000
00100000
01000000
10000000
00010000
10000000
00010000
00100000
00000000
01000000
00010000
01000000
00000000
00011000
,
00000000
00000010
00000000
00000100
00001000
00000100
00000000
00011000
00000000
01000000
00000000
00100000
00010000
00100000
00000000
00011000
,
00000000
00000100
00000000
00000010
00001000
00000010
00000000
00011000
00000000
00001000
00100000
00010000
00000000
01010000
00000000
00100000
,
10000000
01000000
00000000
00110000
00000000
00001000
00010000
00000100
00000000
00000011
00000000
00000100
00000000
00001010
00000000
00000100
,
00000000
00011000
00000000
01000000
00000000
10100000
00000000
01000000
00000000
00110000
00000000
01000000
00000000
00011000
00000000
00000010
,
00000000
00000101
00000000
00000010
00000000
00001100
00000000
00000010
00000000
00011000
00000000
00100000
00000000
11000000
00000000
00100000
,
00000000
01010000
00000000
00100000
00000000
00011000
00000000
00000010
00000000
00000101
00000000
00000010
00000000
00011000
00000000
00000100
,
00000000
00011000
00000000
00100000
00000000
11000000
00000000
00100000
00000000
00011000
00000000
01000000
00000000
00011000
00000000
00100000
,
00000000
20000000
00000000
00000000
30000000
00020000
00000000
00000000
00030000
00000020
00000000
00000030
00000000
00000011
00000000
00000100
,
00000000
00000000
00000000
00011000
00000000
00000000
00000000
00000000
00000000
00100000
00000000
00000000
00000000
00000000
00000000
11000000
00000000
00000000
00000000
00000000
00000000
00100000
00000000
00000000
00000000
00000000
00000000
00011000
00000000
00000000
00000000
00000000
00000000
00000000
00000000
00000000
00000000
00000000
00000000
00100000
00000000
00000000
00000000
00010000
00000000
00000000
00000000
00001000
,
00000000
00000010
00000000
00000000
00000000
00000000
00000000
00000000
00000000
00000000
00000000
00000000
00000000
00000000
00000000
00000000
;
