#TITLE:Kiss Me Thru The Phone;
#SUBTITLE:;
#ARTIST:Soulja Boy;
#TITLETRANSLIT:;
#SUBTITLETRANSLIT:;
#ARTISTTRANSLIT:;
#GENRE:;
#CREDIT:;
#MUSIC:Kiss Me Thru The Phone.ogg;
#BANNER:;
#BACKGROUND:;
#CDTITLE:;
#SAMPLESTART:12.878;
#SAMPLELENGTH:12.800;
#SELECTABLE:YES;
#OFFSET:-0.078;
#BPMS:0.000=150.000
,152.000=75.000
,156.000=150.000
;
#STOPS:;
#BGCHANGES:-0.156=Kiss Me Thru The Phone.avi=1.000=1=0=0=StretchNoLoop==CrossFade==,
99999.000=-nosongbg-=1.000=0=0=0=StretchNoLoop====
;
#FGCHANGES:;

//--------------- dance-single - Soulja Ninja ----------------
#NOTES:
     dance-single:
     Soulja Ninja:
     Beginner:
     1:
     0,0,0,0,0:
0000
0000
0000
0000
,
0000
0000
0000
0000
,
0000
0000
0000
0000
,
0000
0000
0000
0000
,
0000
0000
0000
0000
,
0000
0000
0000
0000
,
0000
0000
0000
0000
,
0000
0000
0000
0000
,
1000
0000
0000
0000
,
0001
0000
0000
0000
,
0100
0000
0000
0000
,
0010
0000
0010
0000
,
0100
0000
0000
0000
,
0001
0000
0000
0000
,
1000
0000
0000
0000
,
0100
0000
0100
0000
,
0020
0000
0030
0000
,
0200
0000
0300
0000
,
0020
0000
0030
0000
,
0001
0000
1000
0000
,
0020
0000
0030
0000
,
0200
0000
0300
0000
,
0020
0000
0030
0000
,
1000
0000
0001
0000
,
0010
0000
0000
0000
,
0100
0000
0000
0000
,
1000
0000
0000
0000
,
0001
0000
0000
0000
,
0100
0000
0000
0000
,
0010
0000
0000
0000
,
1000
0000
0000
0000
,
0001
0000
0000
0000
,
1000
0000
1000
0000
,
0100
0000
0000
0000
,
0001
0000
0001
0000
,
0100
0000
0000
0000
,
1000
0000
0001
0000
,
1000
0000
0000
0000
,
0000
0000
0000
0000
,
0001
0000
0000
0000
,
1000
0000
0000
0000
,
0010
0000
0000
0000
,
0100
0000
0100
0000
,
0010
0000
0000
0000
,
1000
0000
0000
0000
,
0001
0000
0000
0000
,
0010
0000
0010
0000
,
0200
0000
0300
0000
,
0020
0000
0030
0000
,
0200
0000
0300
0000
,
1000
0000
0001
0000
,
0200
0000
0300
0000
,
0020
0000
0030
0000
,
0200
0000
0300
0000
;

//--------------- dance-single - Soulja Ninja ----------------
#NOTES:
     dance-single:
     Soulja Ninja:
     Easy:
     5:
     0,0,0,0,0:
0000
0000
0000
0000
,
0000
0000
0000
0000
,
0000
0000
0000
0000
,
0000
0000
0000
0000
,
0000
0000
0000
0000
,
0000
0000
0000
0000
,
0000
0000
0000
0000
,
0000
0000
0000
0000
,
0010
0100
1001
0000
,
0100
0010
1001
0000
,
0001
0100
0001
0000
,
1000
0100
0010
0001
,
0100
0010
1001
0000
,
0010
0100
1001
0000
,
1000
0001
0001
0000
,
0001
0010
0100
1000
,
0002
0000
1003
0000
,
2000
0000
3010
0000
,
0002
0000
0013
0000
,
1000
0001
1000
1000
,
0020
0000
0130
0000
,
0200
0000
0301
0000
,
2000
0000
3001
0000
,
0010
0100
1000
0000
,
1001
1001
0100
0000
,
0010
0100
0001
0000
,
0010
0100
1000
0000
,
0001
0100
1000
0100
,
0020
0130
0001
0000
,
2001
0000
3100
0000
,
1002
0000
0103
0000
,
0010
0100
0001
0000
,
0010
0010
0100
0100
,
1000
0001
1000
1001
,
0010
0100
0001
1000
,
0100
0001
0100
1000
,
0001
0010
0011
0000
,
0001
0100
0010
0010
,
1000
0000
0000
0000
,
0100
0010
1001
0000
,
0010
0100
1001
0000
,
1000
0010
1000
0000
,
0001
0010
0100
1000
,
0010
0100
1001
0000
,
0100
0010
1001
0000
,
0001
1000
1000
0000
,
1000
0100
0010
0001
,
2000
0000
3001
0000
,
0002
0000
0103
0000
,
2000
0000
3100
0000
,
0001
1000
0001
0001
,
0200
0000
0310
0000
,
0020
0000
1030
0000
,
0002
0000
0003
0000
;

//--------------- dance-single - Soulja Ninja ----------------
#NOTES:
     dance-single:
     Soulja Ninja:
     Medium:
     8:
     0,0,0,0,0:
0000
0000
0000
0000
,
0000
0000
0000
0000
,
0000
0000
0000
0000
,
0000
0000
0000
0000
,
0000
0000
0000
0000
,
0000
0000
0000
0000
,
0000
0000
0000
0000
,
0000
0000
0000
0000
,
1001
0000
0110
0000
0100
0100
0100
0000
,
1001
0000
0110
0000
0010
0010
1000
0000
,
0001
0000
1000
0000
0100
0010
0001
0000
,
0100
0010
1000
0000
0001
0000
0100
0000
,
1100
0000
0101
0000
0001
1000
0001
0000
,
1100
0000
0101
0000
1000
1000
0001
0000
,
0100
0000
0010
0000
0001
0010
1000
0000
,
0100
0010
0001
0000
1000
0001
1000
0001
,
0200
0000
0300
0000
0001
1000
0001
1000
,
0200
0000
0300
0000
0010
0001
0010
0001
,
0200
0300
0010
1000
,
0001
0100
0010
0000
1000
0001
1000
0100
,
0020
0000
0030
0000
0001
1000
0001
1000
,
0020
0000
0030
0000
0100
0001
1000
0100
,
0020
0030
0001
1000
,
0010
0100
0001
0000
1000
0000
1000
0000
,
0100
0110
0001
0000
,
0100
0110
1000
0000
,
0001
0000
1001
0000
1000
0100
0001
0000
,
0001
0010
1000
0000
0001
0100
0001
0000
,
2000
0000
3100
0000
0010
0001
1000
0000
,
0020
0000
0030
0000
0100
0001
1000
0000
,
0200
0300
0010
0110
,
1000
0000
0001
0000
0100
0100
0100
0000
,
0010
1000
1001
0110
,
0100
0001
0100
0000
0020
0000
1030
0000
,
0100
0010
0001
0000
2000
0000
3001
0000
,
0100
1000
0100
0001
,
2000
0000
3001
0010
0002
0000
1003
0000
,
0010
0100
0001
0000
0010
0100
1000
0000
,
0001
0000
0000
0000
,
1001
0000
0110
0000
0010
0010
0010
0000
,
1001
0000
0110
0000
0100
0100
0001
0000
,
1000
0000
0001
0000
0010
0100
1000
0000
,
0010
0100
0001
0000
1000
0000
0010
0000
,
0011
0000
1010
0000
1000
0001
1000
0000
,
0011
0000
1010
0000
0001
0001
1000
0000
,
0010
0000
0100
0000
1000
0100
0001
0000
,
0010
0100
1000
0000
0001
1000
0001
1000
,
0020
0000
0030
0000
1000
0001
1000
0001
,
0020
0000
0030
0000
0100
1000
0100
1000
,
0020
0030
0100
0001
,
1000
0010
0100
0000
0001
1000
0001
0010
,
0200
0000
0300
0000
1000
0001
1000
0001
,
0200
0000
0300
0000
0010
1000
0001
0010
,
0200
0300
0000
0000
;

//--------------- dance-single - Soulja Ninja ----------------
#NOTES:
     dance-single:
     Soulja Ninja:
     Hard:
     11:
     0,0,0,0,0:
0000
0000
0000
0000
,
0000
0000
0000
0000
,
0000
0000
0000
0000
,
0000
0000
0000
0000
,
0000
0000
0000
0000
,
0000
0000
0000
0000
,
0000
0000
0000
0000
,
0000
0000
0000
0000
,
1001
0000
1100
0000
0001
1000
0010
0010
,
1010
0000
0101
0000
0001
1000
0100
0100
,
1001
0000
0101
0000
1000
0001
1000
0010
,
0001
0010
1000
0001
0001
0010
0100
1000
,
1100
0000
0101
0000
1000
0001
0010
0010
,
0011
0000
1010
0000
0001
1000
0010
0100
,
0110
0000
1001
0000
1000
0100
0010
0001
,
0100
1000
0100
0001
1000
1000
0100
0010
,
2001
0000
0000
0000
3001
0001
0100
0010
,
1002
0000
0000
0000
1003
0100
0001
0100
,
2000
0000
0000
0000
3001
0100
0010
1000
,
0100
0010
0001
1000
0010
0001
0010
1000
,
2001
0000
0000
0000
3100
0100
0010
0001
,
1002
0000
0000
0000
1003
0010
0001
0010
,
2000
0000
3010
0202
,
0303
0000
1000
0000
0001
0010
0100
1000
,
0001
0000
1100
0000
0100
0010
0001
0000
,
1000
0000
1010
0000
0001
0100
0010
0000
,
0100
0000
1001
0000
0001
0100
1000
0000
,
0100
0001
0020
0000
0130
1000
0001
0001
,
0201
0000
1300
0000
1000
0100
0001
1000
,
0200
0000
0300
0000
0001
0100
1000
0001
,
0200
0300
0010
0110
,
0001
1000
0001
0000
0010
0100
1000
0000
,
0001
1000
0001
0001
0110
0000
1001
0000
,
0010
0100
1000
0010
0100
0000
0101
0000
,
1000
0010
0001
0010
1000
0001
0010
0000
,
0010
0100
1000
0000
1100
0000
0101
0001
,
1000
0000
1010
1000
0001
0000
0011
0010
,
0100
0001
0100
1000
0001
0001
1000
0010
,
0100
0000
0000
0000
,
1001
0000
0101
0000
1000
0001
0010
0010
,
0011
0000
1100
0000
1000
0001
0100
0100
,
1001
0000
1100
0000
0001
1000
0001
0010
,
1000
0010
0001
1000
1000
0010
0100
0001
,
0101
0000
1100
0000
0001
1000
0010
0010
,
1010
0000
0011
0000
1000
0001
0010
0100
,
0110
0000
1001
0000
0001
0100
0010
1000
,
0100
0001
0100
1000
0001
0001
0100
0010
,
1002
0000
0000
0000
1003
1000
0100
0010
,
2001
0000
0000
0000
3001
0100
1000
0100
,
0002
0000
0000
0000
1003
0100
0010
0001
,
0100
0010
1000
0001
0010
1000
0010
0001
,
1002
0000
0000
0000
0103
0100
0010
1000
,
2001
0000
0000
0000
3001
0010
1000
0010
,
0200
0000
0300
0000
;

//--------------- dance-double - forcednature ----------------
#NOTES:
     dance-double:
     forcednature:
     Easy:
     5:
     0,0,0,0,0:
00000000
00000000
00000000
00000000
,
00000000
00000000
00000000
00000000
,
00000000
00000000
00000000
00000000
,
00000000
00000000
00000000
00000000
,
00000000
00000000
00000000
00000000
,
00000000
00000000
00000000
00000000
,
00000000
00000000
00000000
00000000
,
00000000
00000000
00000000
00000000
,
00001000
00000000
01000000
00010000
,
10000000
00000000
01000000
00000000
,
00100000
00000000
00001000
00010000
,
00000010
00001000
00000001
00000100
,
00000001
00000000
00001000
00000000
,
00000100
00000000
00010000
00001000
,
00100000
00000000
00010000
00000000
,
01000000
00010000
10000000
00100000
,
20000000
00000000
31000000
00000000
,
02000000
00000000
03100000
00000000
,
00200000
00000000
00301000
00000000
,
00010000
00000100
00001000
00000000
,
00000002
00000000
00000103
00000000
,
00000200
00000000
00000310
00000000
,
00000020
00000000
00001030
00000000
,
00000100
00010000
00001000
00000000
,
00011000
00000000
00001000
01000000
,
00010000
00000000
10000000
00100000
,
10000000
00000000
00010000
00000000
,
00100000
00000000
01000000
00100000
,
00010000
00000000
00100000
00001000
,
00010000
00000000
00000010
00001000
,
00000001
00000000
00000100
00000000
,
00000100
00000000
00000010
00000000
,
00001001
00000000
00000110
00000000
,
00000001
00000100
00001000
00000000
,
00010000
00000100
00001000
00000000
,
00000010
00000000
00010000
00000000
,
00101000
00000000
00101000
00000000
,
01000000
00010000
10000000
00000000
,
01000000
00000000
00000000
00000000
,
00100000
00000000
00001000
00010000
,
00000010
00000000
00001000
00000000
,
00000001
00000000
00000010
00000100
,
00001000
00000100
00010000
00000000
,
00001000
00000000
00100000
00010000
,
10000000
00000000
00100000
00000000
,
01000000
00000000
00010000
10000000
,
01000000
00100000
00010000
00000000
,
02000000
00000000
03001000
00000000
,
00002000
00000000
00013000
00000000
,
00020000
00000000
00030010
00000000
,
00001000
00000001
00000010
00000100
,
00002000
00000000
00003001
00000000
,
00000002
00000000
00000103
00000000
,
00002002
00000000
00003003
00000000
;

//--------------- dance-double - forcednature ----------------
#NOTES:
     dance-double:
     forcednature:
     Medium:
     8:
     0,0,0,0,0:
00000000
00000000
00000000
00000000
,
00000000
00000000
00000000
00000000
,
00000000
00000000
00000000
00000000
,
00000000
00000000
00000000
00000000
,
00000000
00000000
00000000
00000000
,
00000000
00000000
00000000
00000000
,
00000000
00000000
00000000
00000000
,
00000000
00000000
00000000
00000000
,
00011000
01001000
01000000
00010000
,
10010000
01100000
10000000
01000000
,
00110000
00101000
00001000
00010000
,
00000010
00001000
00000001
00000010
,
00000110
00001001
00000001
00000100
,
00001010
00010010
00010000
00001000
,
00110000
11000000
10000000
00010000
,
01000000
00000000
00001000
00000000
00010000
00000100
00010000
00000100
,
00002000
00000000
00003000
00000000
00000010
00010000
00000010
00010000
,
00002000
00000000
00003000
00000000
00100000
00010000
00100000
00010000
,
02000000
03000000
00100000
10000000
,
01000000
00000000
00010000
00000000
00001000
00010000
00001000
00010000
,
00000200
00000000
00000300
00000000
00001000
00000001
00001000
00000001
,
00000200
00000000
00000300
00000000
00000010
00010000
00000010
00010000
,
00002000
00003000
00100000
00010000
,
01000000
00100000
10000000
01000000
,
00100000
00000000
00100000
00000000
01000000
10000000
00010000
00000000
,
01000000
00000000
00001000
00000000
00010000
00000100
00001000
00000000
,
00000001
00000000
00000001
00000000
00000100
00000010
00001000
00000000
,
00000100
00000000
00000010
00000000
00000100
00000000
00000100
00010000
,
00002000
00000000
00003000
00000000
01000000
00000000
01000000
00001000
,
00020000
00000000
00030000
00000000
00000010
00000000
00000010
00010000
,
00002000
00003000
00100000
00100000
,
01000000
00000000
01000000
00000000
10000000
00010000
10000000
00010000
,
01000000
00001000
00010000
00000100
,
00001000
00000001
00001000
00000001
00000100
00000000
00000010
00000000
,
00001000
00000100
00001000
00000100
00010000
00000000
00001000
00000000
,
01000000
00000000
01000000
00000000
00100000
00000000
00100000
00100000
,
20000000
00000000
30100000
00100000
20000000
00000000
30100000
00000000
,
01000000
00000000
00001000
00000000
00010000
00000100
00010000
00000100
,
00001000
00000000
00000000
00000000
,
00001001
00000110
00000001
00000100
,
00010010
00011000
00100000
00010000
,
01001000
10010000
10000000
01000000
,
00100000
00001000
00010000
00000010
,
00001010
00000101
00000001
00000010
,
00000110
00001100
00010000
00001000
,
00101000
10010000
10000000
00010000
,
01000000
00000000
00001000
00000000
00010000
00000100
00010000
00000100
,
00002000
00000000
00003000
00000000
00000010
00010000
00000010
00010000
,
00002000
00000000
00003000
00000000
00100000
00010000
00100000
00010000
,
02000000
03000000
00100000
10000000
,
01000000
00000000
00010000
00000000
00001000
00010000
00001000
00010000
,
00000200
00000000
00000300
00000000
00001000
00000001
00001000
00000001
,
00000200
00000000
00000300
00000000
00000010
00010000
00000010
00010000
,
00002000
00000000
00003000
00000000
;

//--------------- dance-double - forcednature ----------------
#NOTES:
     dance-double:
     forcednature:
     Hard:
     11:
     0,0,0,0,0:
00000000
00000000
00000000
00000000
,
00000000
00000000
00000000
00000000
,
00000000
00000000
00000000
00000000
,
00000000
00000000
00000000
00000000
,
00000000
00000000
00000000
00000000
,
00000000
00000000
00000000
00000000
,
00000000
00000000
00000000
00000000
,
00000000
00000000
00000000
00000000
,
00010100
00000000
00101000
00000000
00001000
00010000
01000000
00100000
,
00010000
00000000
10010000
00000000
10000000
00100000
00010000
00001000
,
00000010
00000000
00000110
00000000
00000100
00001000
00000001
00000100
,
00000010
00010000
00001000
00000010
00000100
00001000
00000001
00000100
,
00001000
00000000
00011000
00000000
00010000
00100000
10000000
01000000
,
00100000
00000000
10010000
00000000
10000000
00010000
01000000
00001000
,
00010000
00000000
00001100
00000000
00000001
00000100
00000010
00010000
,
00001000
00000010
00000100
00001000
00000001
00000100
00001000
00010000
,
00200000
00000000
00000000
00000000
10300000
01000000
00010000
00001000
,
00000020
00000000
00000000
00000000
00000031
00000100
00001000
00010000
,
00200000
00000000
00000000
00000000
10300000
01000000
00100000
00010000
,
01000000
00001000
00010000
00000100
00001000
00000010
00000100
00000001
,
00000020
00000000
00000000
00000000
00000130
00010000
00001000
01000000
,
00200000
00000000
00000000
00000000
10300000
01000000
00100000
00010000
,
02000000
00000000
00000000
00000000
03001000
00010000
00000100
00001000
,
00000001
00000100
00000010
00010000
00001000
00000010
00000100
00000000
,
00001000
00000000
00000101
00000000
00001000
00000001
00000100
00001000
,
00010000
00000000
01100000
00000000
00010000
10000000
00100000
00010000
,
00001000
00000000
01010000
00000000
10000000
00010000
00100000
00000000
,
01000000
00100000
00010000
00000000
01000000
00001000
00010000
00000100
,
00002200
00000000
00003300
00000000
00001000
00000001
00000100
00000010
,
00020020
00000000
00030030
00000000
00010000
00001000
00100000
00010000
,
20020000
30030000
10000000
11000000
,
00010000
00000000
01000000
00001000
00010000
00000100
00000010
00000001
,
00000100
00001001
00000010
00001001
,
00000001
00000100
00001000
00010000
00100000
00000000
10010000
00000000
,
10000000
01000000
00010000
00001000
00000010
00000000
00001001
00000000
,
00000001
00000100
00001000
00000000
00011000
00000000
00010000
01000000
,
00100000
00000000
00010000
01000000
00100000
00000000
00010000
00001000
,
00000010
00000100
00001000
00000001
00000100
00000010
00010000
00001000
,
00100000
00000000
00000000
00000000
,
01100000
00000000
10010000
00000000
00010000
01000000
00001000
00010000
,
00000100
00000000
00001001
00000000
00000001
00000100
00000010
00010000
,
00001000
00000000
00101000
00000000
01000000
00010000
00100000
01000000
,
00010000
00001000
01000000
00010000
10000000
00100000
00010000
00001000
,
00100000
00000000
01100000
00000000
01000000
10000000
00010000
01000000
,
00001000
00000000
00110000
00000000
00001000
00010000
00000010
00001000
,
00000100
00000000
00000110
00000000
00000010
00000001
00001000
00000001
,
00000100
00001000
00010000
01000000
10000000
00100000
00010000
00100000
,
02200000
00000000
03300000
00000000
01000000
00001000
00010000
00000100
,
00002200
00000000
00003300
00000000
00001000
00000001
00000100
00000010
,
00000220
00000000
00000330
00000000
00000100
00000001
00000010
00001000
,
00010000
00100000
00010000
00001000
00010000
01000000
00100000
00010000
,
20020000
00000000
30030000
00000000
10000000
01000000
00010000
00001000
,
00022000
00000000
00033000
00000000
00000100
00001000
00000001
00000100
,
00000220
00000000
00000330
00000000
;
