#TITLE:KURU KURU ABEBA!;
#SUBTITLE:;
#ARTIST:Keiichi Okabe featuring Maon Kurosaki;
#TITLETRANSLIT:;
#SUBTITLETRANSLIT:;
#ARTISTTRANSLIT:;
#GENRE:;
#CREDIT:;
#MUSIC:KURU KURU ABEBA!.mp3;
#BANNER:;
#BACKGROUND:;
#CDTITLE:;
#SAMPLESTART:67.238;
#SAMPLELENGTH:15.000;
#SELECTABLE:YES;
#OFFSET:1.529;
#BPMS:0.000=150.000;
#STOPS:;
#DISPLAYBPM:150.000;
#BGCHANGES:;
#FGCHANGES:;

//--------------- dance-single - forcednature ----------------
#NOTES:
     dance-single:
     forcednature:
     Beginner:
     3:
     0,0,0,0,0:
0000
0000
0000
0000
,
0000
0000
0000
0000
,
0000
0000
0000
0000
,
0000
0000
0000
0000
,
0000
0000
0000
0000
,
1001
0000
0000
0000
,
0000
0000
0000
0000
,
0001
0000
0001
0000
,
1000
0000
1000
0000
,
0010
0000
0000
0000
,
0100
0000
0000
0000
,
0001
0000
0000
0000
,
1000
0000
0000
0000
,
0100
0000
0000
0000
,
0010
0000
0000
0000
,
0001
0000
0000
0000
,
1000
0000
0000
0000
,
0100
0000
0000
0000
,
0000
0000
0000
0000
,
0010
0000
0000
0000
,
0000
0000
0000
0000
,
0001
0000
0000
0000
,
0000
0000
0000
0000
,
1000
0000
0000
0000
,
0000
0000
0010
0000
,
0000
0001
0000
0001
,
0000
1000
0000
1000
,
0000
0010
0000
0010
,
0000
0100
0000
0100
,
0000
0001
0000
1000
,
0000
0100
0000
0010
,
0000
0100
0000
0100
,
0000
0000
0000
0000
,
1001
0000
0100
0000
,
0100
0000
0000
0000
,
1001
0000
0010
0000
,
0010
0000
0000
0000
,
0110
0000
0000
0000
,
1000
0000
0001
0000
,
0100
0100
0100
0000
,
0010
0000
0010
0000
,
1000
1000
0001
0001
,
0000
1001
0000
0100
,
0010
0100
0000
0100
,
0000
0001
0000
1000
,
0000
0100
0000
0100
,
0000
1000
0000
0001
,
0000
0010
0000
0001
,
0000
0000
1000
0000
,
1000
0000
0001
0000
,
0001
0001
1000
0000
,
0000
0010
0000
0010
,
0000
1000
0000
0001
,
0000
0010
0000
0010
,
0000
0100
0000
1000
,
0000
0010
0000
0010
,
0000
0000
0100
0000
,
0001
0000
1000
0000
,
0001
0001
1000
1000
,
0000
0001
0000
0100
,
0000
0010
0000
0000
,
0000
1000
0000
0100
,
0000
0010
0000
0000
,
0000
0001
0000
0100
,
0000
1000
0000
0000
,
0000
0001
0000
0010
,
0000
1000
0000
1001
;

//--------------- dance-single - forcednature ----------------
#NOTES:
     dance-single:
     forcednature:
     Easy:
     5:
     0,0,0,0,0:
0000
0000
0000
0000
,
0000
0000
0000
0000
,
0000
0000
0000
0000
,
0000
0000
0000
0000
,
0000
0000
0000
0000
,
1000
0000
0000
0001
0000
0000
0000
1001
,
0000
0000
0100
0100
,
1001
0010
1000
0000
,
0001
0001
1000
0010
,
1000
0001
0000
0001
,
0100
0001
0010
0100
,
1000
0100
0000
0100
,
1000
0010
1000
0001
,
0010
0100
0000
0100
,
0010
0001
0100
0010
,
1000
0010
0000
0010
,
0100
0000
0010
0000
1000
0001
0000
0000
,
0000
0100
0000
0100
,
0000
0010
0000
1000
,
0001
1000
0000
0001
,
0000
0010
0000
0010
,
0001
1000
0000
0001
,
0000
0001
0000
0100
,
0010
0100
0000
0010
,
0000
0000
1000
0000
0001
1000
0000
0000
,
1001
0100
0000
0010
,
1000
0010
1000
0001
,
0010
0100
0000
0010
,
0001
0010
0001
0100
,
0010
1000
0001
0000
,
0100
0001
1000
0000
,
0100
0100
0010
0010
,
0001
1000
0010
0000
,
1001
0100
0100
0010
,
1000
0000
0001
0000
,
0100
0100
0010
0001
,
0100
0000
0010
0000
,
1001
0000
0100
1000
,
0001
0100
0010
0000
,
0100
0100
1000
1000
,
0100
0100
0001
0001
,
0010
1000
0010
0001
,
0100
0110
0000
1001
,
1001
0100
1000
0001
,
0100
0000
0010
0000
,
1000
0001
0010
0001
,
0100
0000
0010
0000
,
1000
0100
1000
0010
,
1000
0000
0001
0000
,
0100
1000
0100
0001
,
0100
0100
0010
0010
,
1001
0010
1000
0001
,
0010
0000
0100
0000
,
1000
0010
1000
0001
,
0010
0000
0100
0000
,
0010
0001
0100
0010
,
1000
0000
0001
0000
,
0100
1000
0100
0001
,
0010
0010
0100
0100
,
1001
0000
0010
0010
,
1000
0001
0010
0100
,
0000
0000
0010
1000
,
0001
0100
0001
0010
,
0000
0000
0010
0001
,
0100
0010
1000
0001
,
0000
0000
0100
1000
,
0001
0000
0100
0000
0010
0000
0000
2002
,
0000
0000
0000
0000
,
0000
0000
0000
0000
,
0000
3003
0000
0000
;

//--------------- dance-single - forcednature ----------------
#NOTES:
     dance-single:
     forcednature:
     Medium:
     8:
     0,0,0,0,0:
0000
0000
0000
0000
,
0000
0000
0000
0000
,
0000
0000
0000
0000
,
0000
0000
0000
0000
,
0000
0000
0000
0000
,
1001
0000
0000
0110
0000
0000
0000
1001
,
0000
0000
0000
0000
1000
0001
1000
0000
,
0101
0001
1000
0100
,
0010
0010
0001
0001
1000
1000
0010
0000
,
0110
0001
1000
0100
,
1000
0000
0010
0000
1000
0001
0000
1001
,
0000
0001
0010
0100
,
1000
0000
0010
0000
0100
0001
0000
0101
,
0000
0001
1000
0010
,
1000
0000
0100
0000
0010
0001
0010
0011
,
0000
0001
1000
0010
,
1000
1000
0001
0001
0100
0010
0000
0000
,
1000
0001
0000
0001
,
0100
0010
1000
0010
,
1000
0100
0000
0100
,
0000
0010
0000
0010
,
0001
1000
0000
1000
,
0010
1000
0001
0100
,
0001
0010
0000
0010
,
0000
0000
0100
0000
1000
1001
0000
0000
,
0101
1000
0010
1000
,
0001
0000
0010
0000
0100
1000
0100
0000
,
0010
0001
0100
0010
,
1000
0000
0001
0000
1000
0010
1000
0001
,
0100
0010
0100
0001
,
0100
0000
1000
0000
0100
0010
0100
0000
,
0001
0000
0010
0000
0100
0000
1000
0001
,
0000
0100
1000
0100
0000
0001
1000
0001
,
0010
0000
1001
0000
0100
0010
0000
0220
,
0000
0000
0330
0000
,
1000
0000
0110
0000
0001
0010
0000
2002
,
0000
0000
3003
0000
,
1100
0000
0001
0000
1000
0100
1000
0001
,
0010
0000
0001
0000
1000
0010
0100
0001
,
0100
1100
0100
0101
,
0010
1010
0010
0011
,
0001
0001
1000
1000
0100
0100
0010
0100
,
0000
1000
0001
0000
0000
0000
1001
0000
,
0010
0000
1001
0000
0100
0000
1000
0010
,
1000
0100
0010
0001
,
0100
0000
0010
0000
1000
0000
0001
0010
,
0001
0100
1000
0100
,
0001
0000
0010
0000
0100
0000
1000
0001
,
1000
0000
0010
0000
0100
0001
0100
0000
,
1000
0000
0100
0010
0100
0000
0001
0000
,
0001
0001
1000
1000
0010
0010
0100
0000
,
1001
0000
0001
0000
0010
0000
0100
1000
,
0100
0010
0001
0100
,
0010
0000
1000
0000
0001
0000
1000
0100
,
1000
0010
0100
0001
,
0010
0000
0100
0000
1000
0000
0010
0100
,
0010
0000
1000
0000
0100
0010
0100
0000
,
1001
0100
0010
1000
,
0001
0001
1000
1000
0100
0100
0010
0000
,
0110
1000
0001
0100
,
0010
0000
1000
0000
0001
0010
0000
0011
,
0000
0001
0100
0010
,
1000
0000
0010
0000
1000
0100
1000
1100
,
0000
1000
0010
0100
,
0001
0000
0010
0000
0100
0010
0000
0110
,
0000
0001
1000
0010
,
1000
1000
0001
0001
0100
0100
0010
0220
,
0000
0000
0000
0000
,
0000
0000
0000
0000
,
0000
0330
0000
0000
;

//--------------- dance-single - forcednature ----------------
#NOTES:
     dance-single:
     forcednature:
     Hard:
     11:
     0,0,0,0,0:
0000
0000
0000
0000
,
0000
0000
0000
0000
,
0000
0000
0000
0000
,
0000
0000
0000
0000
,
0000
0000
0000
0000
,
1001
0000
0000
0101
0000
0000
0000
1100
,
0000
0000
0000
0000
1000
0100
0010
0001
,
0100
1000
0100
0001
,
0010
0001
0000
0000
0001
0100
0000
0000
0100
0010
0000
0000
0010
1000
0000
0000
,
1001
0000
1000
0100
0000
0001
0000
0100
,
0000
0010
0001
0000
0100
0110
0000
1001
,
0000
0000
0001
0100
0000
1000
0000
0100
,
0000
0010
1000
0000
0001
0011
0000
1100
,
0000
0000
1000
0010
0000
0001
0000
0010
,
0000
0100
0001
0000
0010
0110
0100
1001
,
0000
0000
0001
0100
0000
1000
0100
0000
,
0001
1000
0000
0000
1000
0100
0000
0000
0010
0000
0110
0000
0000
0000
0000
0000
,
0001
0000
0100
0010
0100
0000
0000
0000
,
0010
0000
1000
0001
1000
0000
0100
0000
,
0010
0000
0001
0200
0010
0000
0000
0000
,
1300
0100
0001
1000
,
0100
0000
0010
0001
0010
0000
0000
0001
,
1000
0000
0010
0100
0000
0010
0000
1000
,
0002
0000
0010
0010
0010
0000
0100
0000
,
1003
0000
0001
0000
0100
0110
0000
0000
,
0101
0000
1100
0000
0010
1000
0001
0000
,
0100
0000
1010
0000
0001
1000
0100
0010
,
0001
0000
0110
0000
0001
0100
1000
0000
,
0100
0000
0110
0000
0010
1000
0001
0100
,
0010
0000
1001
0000
0100
0001
0010
0100
,
1000
0000
0101
0001
1000
0010
1000
0100
,
0010
0000
0001
0100
0010
0000
1001
0001
,
0000
0100
1000
0100
0000
0001
1001
1000
,
0110
0000
0001
0000
1000
0010
0000
2000
,
0000
0001
0001
0100
0100
0001
3001
0000
,
0001
0000
0010
0000
0100
1000
0000
0002
,
0000
1000
1000
0100
0100
1000
1003
0000
,
1001
0000
1000
0000
0010
1000
0001
0010
,
0100
0000
0001
0000
0100
1000
0010
0100
,
0110
0000
0001
0000
1000
0010
1000
0002
,
0010
0100
1000
0013
,
0001
0100
0000
0000
0100
0010
0000
0000
0010
1000
0000
0000
1000
0000
1001
0000
,
0000
0010
0110
0000
0000
0000
1001
0000
,
0110
0000
1000
0100
0000
0010
0100
1000
,
0001
1100
1000
0101
,
0010
0000
1000
0001
0000
0010
0100
1000
,
0001
0011
0100
0110
,
0001
0000
1000
0010
0000
0001
0010
0100
,
0001
0000
0110
0000
1000
0100
0010
0000
,
0110
0000
0001
0100
0010
0000
1000
0000
,
0100
0010
0000
0000
0010
0001
0000
0000
0001
1000
0000
0000
1000
0010
0000
0000
,
0110
0000
0001
0100
1000
0100
0010
0100
,
0001
1100
1000
0101
,
0001
0000
1000
0010
1000
0100
0001
0100
,
0010
0101
1000
1100
,
0001
0000
0010
0100
0001
0100
1000
0001
,
0100
0000
0110
0000
0010
1000
0001
0000
,
1000
0000
0100
0010
0001
0000
0100
0000
,
0010
1000
0000
0000
1000
0001
0000
0000
0001
0010
0000
0000
0010
0100
0000
0000
,
1100
0000
0001
0100
0000
0010
0000
1000
,
0000
0001
0010
0000
0100
0110
0000
1001
,
0000
0000
1000
0100
0000
1000
0000
0010
,
0000
0100
0001
0000
0010
0110
0100
1001
,
0000
0000
1000
0010
0000
1000
0000
0001
,
0000
0010
0001
0000
0100
0101
0000
1100
,
0000
0000
1000
0100
0000
0010
0000
0001
,
0100
0010
0000
0000
0010
1000
0000
0000
1000
0000
1001
0000
0100
0000
0220
0000
,
0000
0000
0000
0000
,
0000
0000
0000
0000
,
0000
0330
0000
0000
;
