#TITLE:KIMI NARA DEKIRU SA!!;
#SUBTITLE:;
#ARTIST:Koji Hayama;
#TITLETRANSLIT:;
#SUBTITLETRANSLIT:;
#ARTISTTRANSLIT:;
#GENRE:;
#CREDIT:;
#MUSIC:KIMI NARA DEKIRU SA!!.mp3;
#BANNER:;
#BACKGROUND:;
#CDTITLE:;
#SAMPLESTART:40.058;
#SAMPLELENGTH:19.990;
#SELECTABLE:YES;
#OFFSET:1.921;
#BPMS:0.000=240.120;
#STOPS:;
#BGCHANGES:;
#FGCHANGES:;

//--------------- dance-single - aboutblank ----------------
#NOTES:
     dance-single:
     aboutblank:
     Beginner:
     2:
     0,0,0,0,0:
0000
0000
0000
0000
,
0000
0000
0000
0000
,
0000
0000
0000
0000
,
0000
0000
0000
0000
,
0000
0000
0000
0000
,
0000
0000
0000
0000
,
0000
0000
0000
0000
,
0000
0000
0000
0000
,
0000
0000
0000
0000
,
0000
0000
0000
0000
,
1000
0000
0000
0000
,
0000
0000
0000
0000
,
1000
0000
0000
0000
,
0000
0000
0000
0000
,
0001
0000
0000
0000
,
0000
0000
0000
0000
,
0001
0000
0000
0000
,
0000
0000
0000
0000
,
0100
0000
0000
0000
,
0000
0000
0000
0000
,
0010
0000
0000
0000
,
0000
0000
0000
0000
,
0100
0000
0000
0000
,
0000
0000
0000
0000
,
0010
0000
0000
0000
,
0000
0000
0000
0000
,
1000
0000
0000
0000
,
0000
0000
0000
0000
,
2000
0000
3000
0000
,
2000
0000
3000
0000
,
0001
0000
0000
0000
,
0000
0000
0000
0000
,
1001
0000
0000
0000
,
0000
0000
0000
0000
,
0001
0000
0000
0000
,
0000
0000
0000
0000
,
0002
0000
0003
0000
,
0001
0000
1000
0000
,
0200
0000
0300
0000
,
0100
0000
0000
0000
,
0010
0000
0010
0000
,
0001
0000
0001
0000
,
1000
0000
0000
0000
,
1000
0000
0000
0000
,
0010
0000
0000
0000
,
0010
0000
0000
0000
,
0002
0000
0000
0000
,
0003
0000
0000
0000
,
0002
0000
0000
0000
,
0003
0000
0000
0000
,
0100
0000
0000
0000
,
0100
0000
0000
0000
,
0100
0000
0000
0000
,
0000
0000
0000
0000
,
1000
0000
0000
0000
,
1000
0000
0000
0000
,
1000
0000
0000
0000
,
0000
0000
0000
0000
,
0010
0000
0000
0000
,
0010
0000
0000
0000
,
0010
0000
0000
0000
,
0000
0000
0000
0000
,
0001
0000
0000
0000
,
0001
0000
0000
0000
,
0001
0000
0000
0000
,
0000
0000
0000
0000
,
0001
0000
0000
0000
,
0001
0000
0000
0000
,
1000
0000
0000
0000
,
1000
0000
0000
0000
,
0010
0000
0000
0000
,
0010
0000
0000
0000
,
0100
0000
0000
0000
,
0000
0000
0000
0000
,
1000
0000
0000
0000
,
1000
0000
0000
0000
,
0001
0000
0000
0000
,
0001
0000
0000
0000
,
0100
0000
0000
0000
,
0100
0000
0000
0000
,
0010
0000
0000
0000
,
0000
0000
0000
0000
,
1001
0000
0000
0000
,
0000
0000
0000
0000
,
1001
0000
0000
0000
,
0000
0000
0000
0000
,
0110
0000
0000
0000
,
0000
0000
0000
0000
,
0010
0000
0000
0000
,
0000
0000
0000
0000
,
1001
0000
0000
0000
,
0000
0000
0000
0000
,
1001
0000
0000
0000
,
0000
0000
0000
0000
,
0110
0000
0000
0000
,
0000
0000
0000
0000
,
0110
0000
0000
0000
,
0010
0000
0000
0000
,
1000
0000
0000
0000
,
0000
0000
0000
0000
,
0100
0000
0000
0000
,
0000
0000
0000
0000
,
0001
0000
0000
0000
,
0000
0000
0000
0000
,
0010
0000
0000
0000
,
0000
0000
0000
0000
,
1000
0000
0000
0000
,
0000
0000
0000
0000
,
0010
0000
0000
0000
,
0000
0000
0000
0000
,
0001
0000
0000
0000
,
0000
0000
0000
0000
,
0100
0000
0000
0000
,
0000
0000
0000
0000
,
1001
0000
0000
0000
;

//--------------- dance-single - aboutblank ----------------
#NOTES:
     dance-single:
     aboutblank:
     Easy:
     6:
     0,0,0,0,0:
0000
0000
0000
0000
,
0000
0000
0000
0000
,
0000
0000
0000
0000
,
0000
0000
0000
0000
,
0000
0000
0000
0000
,
0000
0000
0000
0000
,
0000
0000
0000
0000
,
0000
0000
0000
0000
,
0000
0000
0000
0000
,
0000
0000
0000
0000
,
1000
0000
1000
0000
,
1000
0000
0000
0000
,
0001
0000
0001
0000
,
0001
0000
0000
0000
,
0100
0000
0100
0000
,
0100
0000
0000
0000
,
0010
0000
0010
0000
,
0010
0000
0000
0000
,
0002
0000
0103
0000
,
0001
1000
0001
0000
,
0200
0000
0310
0000
,
0010
1000
0002
0000
,
0203
0000
0310
0000
,
1000
0100
0010
0000
,
0002
0000
1003
0000
,
0010
1000
0001
0000
,
0200
0000
0001
0000
,
1000
0000
0001
0000
,
0320
0000
1000
0000
,
0001
0000
1000
0000
,
0230
0000
0301
0000
,
1000
0100
0010
0000
,
0200
0000
0310
0000
,
0001
1000
0001
0000
,
2000
0000
0100
0000
,
0001
0000
0010
0000
,
3002
0000
0010
0000
,
1000
0000
0100
0000
,
0023
0000
0130
0000
,
1000
0001
0100
0000
,
0001
0000
1000
0000
,
0100
0010
0100
0000
,
1000
0000
0010
0000
,
0001
0000
0100
0000
,
1000
0000
0010
0000
,
0001
0000
0000
0000
,
0001
0000
0100
0000
,
1000
0000
0100
0000
,
0001
0000
0010
0000
,
1000
0000
0010
0000
,
0001
0000
1000
0000
,
0002
0000
0000
0000
0000
0003
0000
0000
0000
0000
0000
0000
,
0100
0000
0001
0000
,
0020
0000
0000
0000
0000
0030
0000
0000
0000
0000
0000
0000
,
0100
0000
0010
0000
,
0002
0000
0000
0000
0000
0003
0000
0000
0000
0000
0000
0000
,
0010
0100
1000
0000
,
0001
1000
0100
0000
,
0110
0000
0010
0000
,
0001
1000
0001
0000
,
0200
0000
0301
0000
,
0010
0100
1000
0000
,
0002
0000
0103
0000
,
0001
0100
0010
0000
,
1000
0100
1000
0000
,
0001
0100
0001
0000
,
2000
0000
3010
0000
,
0100
0000
1000
0000
,
0200
0000
0310
0000
,
1000
0000
0100
0000
,
0020
0000
0130
0000
,
1000
0000
0001
0000
,
0002
0003
2000
3000
,
1001
0000
0000
0000
,
0002
0000
0103
0000
,
0010
0000
0001
0000
,
0020
0000
0130
0000
,
0001
0000
0010
0000
,
0200
0000
0310
0000
,
0001
0000
1000
0000
,
2000
3000
0002
0003
,
0100
0010
0100
0000
,
0001
0100
0000
0000
,
0020
0030
0020
0030
,
1000
0100
0000
0000
,
0002
0003
0002
0003
,
0100
0010
0000
0000
,
0020
0030
1001
0000
,
0001
0100
0010
0000
,
2000
3000
1001
0000
,
1000
0100
0001
0000
,
0200
0300
0110
0000
,
0010
0001
0100
0000
,
0002
0003
1001
0000
,
0001
0010
1000
0000
,
0002
0003
1001
0000
,
1100
0000
0011
0000
,
1010
0000
0101
0000
,
0001
0000
0001
0000
,
0100
0001
0100
0000
,
1000
0000
1000
0000
,
0100
1000
0100
0000
,
0010
0000
0010
0000
,
1000
0010
1000
0000
,
0100
0000
0100
0000
,
0001
0100
0010
0001
,
1000
0000
1000
0000
,
0001
1000
0100
0000
,
0010
0000
0010
0000
,
0001
0100
0010
0000
,
1000
0000
0100
0000
,
0010
0001
0100
0000
,
1000
0000
0100
0000
,
0001
0010
0100
1000
,
1001
0000
0000
0000
;

//--------------- dance-single - aboutblank ----------------
#NOTES:
     dance-single:
     aboutblank:
     Medium:
     10:
     0,0,0,0,0:
0000
0000
0000
0000
,
0000
0000
0000
0000
,
0000
0000
0000
0000
,
0000
0000
0000
0000
,
0000
0000
0000
0000
,
0000
0000
0000
0000
,
1000
0100
1000
0100
,
0010
0001
0010
0001
,
1000
0010
1000
0010
,
0110
1001
0110
0000
,
0002
0000
0103
0000
,
0001
0100
1000
0000
,
2000
0000
3010
0000
,
1000
0010
0001
0000
,
0002
0000
0013
0000
,
0001
0010
1000
0000
,
2000
0000
3100
0000
,
1000
0100
0110
0000
,
0001
0000
1100
0000
,
0001
1000
0100
0000
,
0010
0000
1001
0000
,
0001
1000
0010
0100
,
0010
0000
1001
0000
,
0001
0010
0100
0000
,
0001
0000
1010
0000
,
0010
0100
0001
1000
,
0020
0000
0130
0000
,
0010
0010
0110
0000
,
0002
0000
0103
0000
,
0001
0001
0011
0000
,
0200
0000
1300
0000
,
1100
0100
0110
0000
,
0002
0000
0013
0000
,
0011
0010
0110
0000
,
2000
0000
3001
0000
,
1000
1000
0100
0010
,
0002
0000
0103
0000
,
0001
0001
0010
0100
,
2000
0000
3010
0000
,
0002
0000
0103
0000
,
1000
0100
0010
0001
,
0100
0100
0010
1000
,
0002
0000
0013
0000
,
0010
0010
0100
1000
,
0020
0000
0130
0000
,
0001
0001
0010
1000
,
0020
0000
0230
0000
,
2300
0000
3020
0000
,
0130
0001
0100
0010
,
1000
1000
0001
0001
,
0200
0000
1000
0000
,
0320
0000
0001
0000
,
0230
0000
1000
0000
,
0320
0000
0001
0000
,
0230
0000
1300
0000
,
0001
0010
1000
0000
,
0001
0100
1000
0010
,
0001
0010
1000
0000
,
0101
0000
1010
0000
,
0001
0100
0010
0000
,
1100
0000
0011
0000
,
1000
0100
0010
0000
,
0001
1000
0001
0000
,
0001
0100
0001
0000
,
1000
0100
0010
0001
,
0100
0001
1000
0000
,
0020
0000
0100
0000
,
1030
0100
0100
0010
,
0002
0000
1000
0000
,
0013
0100
0010
0010
,
0002
0000
0100
0000
,
1003
0100
0010
0010
,
0100
1000
0100
1000
,
0001
0011
1100
0000
,
0200
0000
0010
0000
,
1300
0001
0100
0100
,
0020
0000
1030
0000
,
0001
0010
0100
0100
,
0020
0000
0031
0000
,
0001
0100
0010
0010
,
1000
0010
1000
0010
,
1000
1010
0101
0000
,
1000
0100
0001
0100
,
1100
0001
0101
0000
,
0001
0010
1000
0010
,
0011
1000
1010
0000
,
0100
0001
0010
0001
,
0101
0001
0011
0000
,
0100
1000
0010
1000
,
1100
1000
1010
0000
,
0100
0001
1000
0001
,
0011
1010
0011
0000
,
0100
1000
0001
1000
,
1010
0011
1010
0000
,
1000
0100
0010
0001
,
1100
0110
0011
0000
,
0001
0100
1000
0000
,
1000
0010
0001
0000
,
1001
0000
1100
0000
,
0001
1000
0100
0010
,
1001
0000
0101
0000
,
1000
0001
0100
0010
,
1010
0000
1100
0000
,
1000
0100
0010
0100
,
0110
0000
0011
0000
,
0010
0001
0100
0001
,
0101
0000
1010
0000
,
0001
0010
0100
1000
,
1100
0000
0011
0000
,
1000
0100
0001
0100
,
1100
0000
0011
0000
,
0001
0010
1010
0010
,
0011
0000
1100
0000
,
1000
0010
0011
0010
,
1001
0000
0000
0000
;

//--------------- dance-single - aboutblank ----------------
#NOTES:
     dance-single:
     aboutblank:
     Hard:
     12:
     0,0,0,0,0:
0000
0000
0000
0000
,
0000
0000
0000
0000
,
0000
0000
0000
0000
,
0000
0000
0000
0000
,
0000
0000
0000
0000
,
0000
0000
0000
0000
,
1000
1000
0100
0100
,
0001
0001
0010
0010
,
1000
1000
0100
0100
,
0002
0100
1003
0000
,
1002
0000
0000
0000
0000
0000
0103
0000
0000
0000
0000
0001
,
0000
0000
0100
0000
0000
0001
0100
0000
0000
0000
0000
0000
,
2010
0000
0000
0000
0000
0000
3100
0000
0000
0000
0000
1000
,
0000
0000
0100
0000
0000
1000
0100
0000
0000
0000
0000
0000
,
0120
0000
0000
0000
0000
0000
0031
0000
0000
0000
0000
0010
,
0000
0000
0001
0000
0000
0010
0001
0000
0000
0000
0000
0000
,
2001
0000
0000
0000
0000
0000
3010
0000
0000
0000
0000
1000
,
0000
0000
0010
0000
0000
0100
0001
0000
0000
0000
0000
0000
,
1000
0000
0000
0100
0000
0000
0010
0000
0000
0000
0000
0001
,
0100
0100
0010
0000
,
0100
0000
0000
0001
0000
0000
1000
0000
0000
0000
0000
0100
,
1000
1001
1010
0000
,
0001
0000
0000
1000
0000
0000
0010
0000
0000
0000
0000
0100
,
0001
1000
0001
0000
,
0101
0010
1000
0001
,
0010
0000
0100
0010
0000
0000
0001
0000
0000
0100
0000
0000
,
0020
0000
0001
0001
,
1000
0000
0000
1000
0000
0000
0031
0000
0000
1000
0000
0100
,
2000
0000
0000
0000
0000
0000
3001
0000
0000
0000
0000
1000
,
0200
0310
0011
1000
,
0002
0000
0000
0000
0000
0000
0103
0000
0000
0000
0000
0001
,
0100
0010
1000
0100
,
0001
0000
0000
0100
0000
0000
1000
0000
0000
0000
0000
0001
,
0010
0100
0100
1000
,
0020
0000
0000
0000
0000
0000
0130
0000
0000
0000
0000
0010
,
0100
0000
0000
0001
0000
0000
1000
0000
0000
0100
0000
0010
,
0002
0000
1003
0010
,
0100
0100
0001
0001
,
1020
0000
0000
0000
0000
0000
0130
0000
0000
0000
0000
0001
,
1000
0100
1000
0001
,
0010
0010
0100
0100
,
1000
0001
1000
0000
,
0201
0000
1300
0000
,
0001
0010
1000
0100
,
0201
0000
1300
0000
,
0001
1000
0001
0000
,
1000
1000
0100
0100
,
0010
0000
0100
0010
0000
0000
0001
0000
0000
1000
0000
0000
,
0001
0001
0100
0100
,
0010
0000
0100
0010
0000
0000
1000
0000
0000
1000
0000
0000
,
0021
0000
1000
0000
,
0031
0000
0000
0100
0000
0001
0010
0000
0000
0000
0000
0000
,
1200
0000
0001
0000
,
1300
0000
0000
0100
0000
1000
0010
0000
0000
0000
0000
0000
,
1020
0000
0001
0000
,
1030
0000
0000
0001
0000
0100
0000
0000
0010
0000
0000
0000
,
1000
0000
0000
0100
0000
0000
0110
0000
0000
0001
0000
0010
,
0000
0000
0100
1000
0000
0000
0001
0000
0000
0010
0000
0000
,
0200
0000
0001
0000
,
1300
0000
0000
0100
0000
0010
0001
0000
0000
1000
0000
0000
,
0020
0000
0001
0000
,
1030
0000
0000
0100
0000
1000
0001
0000
0000
0010
0000
0000
,
0002
0000
1000
0000
,
1003
0000
0000
0001
0000
1000
0100
0000
0000
0010
0000
0001
,
1000
0000
0000
0010
0000
0000
0110
0000
0000
0100
0000
0001
,
0000
0000
1000
0001
0000
0000
0100
0000
0000
0100
0000
0000
,
1020
0000
0031
0000
,
1000
0100
0001
0010
,
1020
0000
0031
0000
,
1000
0010
0001
0100
,
1200
0000
0301
0000
,
1000
0100
0001
0100
,
0010
0000
0000
0010
0000
0000
0010
0000
0001
0010
0000
0001
,
1000
1100
0011
0000
,
1002
0000
0103
0000
,
0001
1000
0100
0001
,
2000
0000
3010
0000
,
0001
0100
0010
0001
,
0020
0000
1030
0000
,
0100
0010
0001
1000
,
0100
0000
0000
0100
0000
0000
0100
0000
0010
0100
0000
0010
,
0001
1010
0101
1000
,
0020
0001
1000
0031
,
0010
0000
0100
0010
0000
0000
0100
0000
0000
0001
0000
0000
,
0200
1000
0001
1300
,
0100
0000
0010
0100
0000
0000
0001
0000
0000
1000
0000
0000
,
0200
0001
1000
0301
,
1100
0101
1100
1000
,
0020
0001
1000
0031
,
1010
0011
1010
0001
,
0200
0300
0000
0100
0000
0001
0100
0000
0001
0100
0000
0000
,
0101
1100
0101
1000
,
0020
0000
0030
0010
0000
1000
0010
0000
1000
0010
0000
0000
,
1010
0011
1001
0001
,
2000
0000
3000
1000
0000
0010
1000
0000
0010
1000
0000
0000
,
1100
0110
0021
0130
,
1020
0130
0021
0130
,
1020
0130
0021
0130
,
2000
3001
1000
0100
,
0010
0000
0001
0010
0000
0000
0001
0000
0010
0001
0000
0000
,
0001
1000
0010
0100
,
0010
0000
1000
0010
0000
0000
1000
0000
0010
1000
0000
0000
,
0001
1000
0100
0010
,
0001
0000
0100
0001
0000
0000
0100
0000
0001
0100
0000
0000
,
0010
1000
0001
0010
,
0100
0000
0010
0100
0000
0000
1000
0000
0100
1000
0000
0000
,
1001
1000
0010
0100
,
0001
0000
1000
0100
0000
0000
1000
0000
0100
0010
0000
0000
,
0001
0100
0001
0010
,
0100
0000
0010
0001
0000
0000
0010
0000
0001
1000
0000
0000
,
0010
1000
0001
1000
,
0010
0000
1000
0001
0000
0000
1000
0000
0010
0100
0000
0000
,
0001
0110
1000
0110
,
0001
0000
0000
1000
0000
0010
0100
0000
0000
0110
0000
0000
,
1001
0000
0000
0000
;
