#TITLE:Just A Guy;
#SUBTITLE:;
#ARTIST:BC Jean;
#TITLETRANSLIT:;
#SUBTITLETRANSLIT:;
#ARTISTTRANSLIT:;
#GENRE:;
#CREDIT:;
#MUSIC:Just A Guy.mp3;
#BANNER:;
#BACKGROUND:;
#CDTITLE:;
#SAMPLESTART:28.840;
#SAMPLELENGTH:18.000;
#SELECTABLE:YES;
#OFFSET:-7.840;
#BPMS:0.000=110.000;
#STOPS:;
#BGCHANGES:;
#FGCHANGES:;

//--------------- dance-single - eataninja ----------------
#NOTES:
     dance-single:
     eataninja:
     Beginner:
     2:
     0,0,0,0,0:
0000
0000
0000
0000
,
0000
0000
0000
0000
,
0000
0000
0000
0000
,
0000
0000
0000
0000
,
1000
0000
0001
0000
,
0010
0000
0100
0000
,
1000
0000
0001
0000
,
0100
0000
0010
0000
,
0020
0030
0000
0000
,
0200
0300
0000
0000
,
1001
0000
0000
0000
,
1001
0000
0000
0000
,
1000
0000
0010
0000
,
0001
0000
0010
0000
,
0110
0000
0000
0000
,
0110
0000
0000
0000
,
0100
0000
0001
0000
,
0010
0010
0010
0000
,
0100
0000
0100
0000
,
1000
0000
0001
0000
,
0100
0000
0100
0000
,
0001
0000
1000
0000
,
0100
0000
0010
0000
,
0001
0000
0001
0000
,
0100
0000
0010
0000
,
1000
0000
1000
0000
,
0020
0030
0000
0000
,
0200
0300
0000
0000
,
1001
0000
0000
0000
,
0110
0000
0000
0000
,
0100
0000
1000
0000
,
0100
0000
0001
0000
,
1001
0000
0000
0000
,
0110
0000
0000
0000
,
0010
0000
0100
0000
,
1000
1000
1000
0000
,
0001
0000
0000
0000
,
0100
0000
0000
0000
,
0010
0000
0000
0000
,
0001
0000
0010
0000
,
1000
1000
1000
0000
,
0001
0001
0001
0000
,
0010
0010
0010
0000
,
0100
0000
0110
0000
,
2000
0000
0000
3000
,
0000
0000
0000
0000
,
0020
0000
0000
0030
,
0000
0000
0000
0000
,
1000
0000
0010
0000
,
0001
0000
0010
0000
,
0100
0000
0010
0000
,
0100
0100
0100
0000
,
0001
0000
0010
0000
,
1000
0000
0010
0000
,
0100
0000
1000
1000
,
2000
0000
3000
0000
,
1001
0000
0000
0000
,
1001
0000
0000
0000
,
0010
0000
0100
0000
,
0001
0000
1000
0000
,
1001
0000
0000
0000
,
1001
0000
0000
0000
,
0010
0000
0100
0000
,
1000
1000
1000
0000
,
0001
0000
0100
0000
,
1000
0000
0100
0000
,
0001
0000
0010
0000
,
1000
0000
0010
0000
,
0110
0000
0000
0000
;

//--------------- dance-single - eataninja ----------------
#NOTES:
     dance-single:
     eataninja:
     Easy:
     4:
     0,0,0,0,0:
0000
0000
0000
0000
,
0000
0000
0000
0000
,
0000
0000
0000
0000
,
0000
0000
0000
0000
,
1000
0010
0010
0000
,
0100
0001
1000
0000
,
0001
0010
0010
0000
,
0100
1000
0001
0000
,
2002
3003
0000
0000
,
0202
0303
0000
0000
,
2000
3002
1003
0000
,
2000
3020
1030
0000
,
0001
1000
0001
0001
,
1000
0001
0010
0000
,
0002
2003
3001
0000
,
0002
0023
0031
0000
,
0001
0010
0100
0000
,
1000
0001
0100
0010
,
1000
0000
0001
0000
,
0010
0010
0100
0000
,
1000
0000
0001
0000
,
0100
0100
0010
0000
,
0100
1000
0100
0000
,
0100
0100
0001
0000
,
0010
0100
1000
0000
,
0001
0001
1000
0010
,
0220
0330
0000
0000
,
2020
3030
0000
0000
,
2000
3002
0013
0000
,
0002
2003
3001
0000
,
1000
0010
1000
1000
,
0001
0010
0100
0000
,
2000
3002
0103
0000
,
0002
2003
3001
0000
,
1000
0010
0001
0000
,
0010
0100
0001
0010
,
0100
1100
0000
0000
,
1000
1001
0000
0000
,
0001
0101
0000
0000
,
0010
0110
0000
0000
,
0010
0100
0001
0000
,
0001
0010
0100
0000
,
1000
0001
1000
1000
,
0010
0100
2000
0000
,
3100
0001
1000
0001
,
0000
0000
0000
0000
,
0010
0100
1000
0001
,
0000
0000
0000
0000
,
1000
0001
1000
1000
,
0010
0100
0001
0001
,
0010
0100
0010
0100
,
1000
0001
0100
0000
,
0001
0100
0001
0001
,
0100
1000
0100
0001
,
0010
0100
1000
1000
,
0002
0000
0003
0000
,
2000
3020
1030
0000
,
0002
0023
0031
0000
,
1000
0001
0010
0010
,
0100
1000
0001
0100
,
0020
0230
0310
0000
,
2000
3002
1003
0000
,
0100
0001
0100
0100
,
1000
0010
0100
0001
,
1000
0100
1100
0000
,
0001
0100
0101
0000
,
0010
1000
1010
0000
,
1000
0001
0010
0100
,
2000
3000
0000
0000
;

//--------------- dance-single - eataninja ----------------
#NOTES:
     dance-single:
     eataninja:
     Medium:
     8:
     0,0,0,0,0:
0000
0000
0000
0000
,
0000
0000
0000
0000
,
0000
0000
0000
0000
,
0000
0000
0000
0000
,
1000
0000
0001
0000
1000
0010
1000
0000
,
0001
0010
0000
1000
0000
0010
0010
0000
,
0100
0000
1000
0000
0010
0100
0001
0000
,
1000
0010
0000
0001
0000
0010
0100
0000
,
0110
0000
0000
0000
0000
0001
1000
0100
,
0000
0000
0000
0000
0000
0010
0100
0020
,
0000
1030
0000
0100
0010
0001
0000
2000
,
0000
3010
0000
0100
0010
0100
0000
1001
,
0000
0010
0100
1000
0000
0001
0000
1001
,
0000
0010
0100
0001
0000
1000
0100
2000
,
0000
3001
0000
0100
0010
1000
0000
0002
,
0000
1003
0000
0100
0010
0100
0000
1001
,
0000
1000
0010
0100
0000
0100
1000
0100
,
0002
0000
2003
0000
3200
0000
0310
0001
,
0000
1000
1000
0000
0010
0100
0001
0000
,
1000
0100
0000
0001
0000
0100
0010
0001
,
1000
0000
0010
0000
0100
0010
0100
0000
,
0001
0001
0000
0100
0000
1000
0100
0001
,
0000
0010
0100
0100
1000
0000
1001
0000
,
1000
0010
1000
0010
0000
0001
0010
1000
,
0000
0100
0010
0010
0001
0000
1001
0000
,
0001
0100
0001
0100
0000
1000
0100
0000
,
0110
0000
0000
0000
0000
0010
0100
0020
,
0000
0030
0000
0000
0000
1000
0001
0010
,
0000
0100
0010
0100
0010
0001
0000
1000
,
0000
0010
0100
0010
0100
0001
0000
0011
,
0000
1000
0001
0010
0000
0100
0000
1100
,
0000
0001
1000
0010
0000
0001
0010
1000
,
0000
0001
1000
0001
1000
0100
0000
0010
,
0000
0001
1000
0001
1000
0010
0000
1010
,
0000
0001
1000
0100
0000
0010
1000
0010
,
0002
0000
2003
0000
3020
0000
0130
0001
,
0000
0000
1000
0100
0000
1000
0000
1001
,
0000
0000
0001
0100
0000
0001
0000
1001
,
0000
0000
0010
0100
0000
0001
0000
0011
,
0000
0000
0010
1000
0000
0010
0001
0000
,
1000
0010
0100
0002
0000
1000
1003
0000
,
0001
0010
0100
2000
0000
0001
3001
0000
,
1000
0010
0100
0020
0000
0100
0130
0000
,
0001
0010
1000
0020
0000
0000
0130
0000
,
1000
0000
0001
0000
0100
0010
0100
0000
,
0000
0000
0000
0000
,
0001
0000
0010
0000
0100
1000
0001
0000
,
0000
0000
0000
0000
,
1000
0010
1000
0010
0100
0001
1000
0000
,
0001
1000
0001
0010
0100
1000
0001
0000
,
1000
0010
0100
0000
0100
0010
1000
0000
,
0001
0010
0100
0000
0001
0100
1000
0000
,
0001
0100
0001
0100
0010
1000
0100
0000
,
0001
0100
0010
0100
1000
0010
0100
0000
,
1000
0100
0001
0000
0010
0100
0010
0000
,
0100
1000
0001
0001
0100
0000
0000
0110
,
0000
0100
0001
1000
0001
0100
0000
0110
,
0000
0010
1000
0010
1000
0001
0000
0011
,
0000
0010
0100
1000
0000
0001
0000
0101
,
0000
0010
1000
0001
0000
0010
1000
0010
,
0000
0100
0010
0100
0010
0001
0000
1001
,
0000
1000
0010
0100
0010
1000
0000
1100
,
0000
0100
0001
0100
0000
0010
0001
1000
,
0002
0203
0320
1030
,
0001
0000
0010
0100
0000
1100
0000
1001
,
0000
0000
0010
0100
0000
0110
0000
1001
,
0000
0000
0100
0010
0000
1010
0000
1100
,
0000
0000
0010
0000
0001
1000
0001
0200
,
0000
0300
0000
0000
;

//--------------- dance-single - eataninja ----------------
#NOTES:
     dance-single:
     eataninja:
     Hard:
     12:
     0,0,0,0,0:
0000
0000
0000
0000
,
0000
0000
0000
0000
,
0000
0000
0000
0000
,
0000
0000
0000
0000
,
1000
0000
0100
0000
1000
0000
0001
0100
0001
0000
0100
0010
0000
0000
0010
0000
,
0100
1000
0100
0002
0000
1003
0100
0010
,
0001
0000
1000
0010
0100
0000
0100
0000
0010
0000
1000
0001
0000
0000
0000
0001
,
1000
0000
0100
0000
0001
0000
0100
0000
0000
0000
0100
0010
0000
0010
0001
0000
,
2000
0000
3000
0000
0000
0010
1000
0002
,
0000
0003
0000
0000
0000
1000
0100
2100
,
0000
3001
0100
0001
0100
0010
1000
2010
,
0000
0000
3001
0000
0010
0000
0001
0000
0010
0000
0100
0000
1000
0001
1000
0000
,
0000
0000
1000
0000
0010
0100
0010
0000
0000
0000
0100
0000
1000
0100
1000
0000
,
0000
0000
0100
0000
0001
1000
0001
0000
0000
0000
0001
0000
0010
0000
0012
0000
,
0000
1003
0010
1000
0010
0100
0001
0102
,
0000
1003
0100
1000
0100
0010
0001
0100
,
0000
1000
0100
0001
0000
0001
1000
1000
,
0200
0000
0302
0000
0023
0000
1030
0001
,
0000
0000
0001
0000
1000
0000
1000
0010
0100
0000
0010
0000
1000
0000
0001
0010
,
0001
1000
0100
0002
0000
0103
0010
0100
,
0100
0000
1000
0000
0001
0000
0100
0010
0100
0000
0001
1000
0000
0001
0100
0000
,
0010
0001
0010
2000
0000
3001
0010
0100
,
1000
0000
0001
0000
1000
0000
0010
0100
0010
0000
0100
0000
0001
0000
1000
0000
,
0100
0001
0100
1000
0001
0001
0100
0010
,
1000
0000
0001
0010
0100
0000
1000
0001
1000
0000
0010
0000
0100
0000
0001
0000
,
0100
0000
1000
0000
0100
0000
0001
0000
1000
0000
0100
0010
0000
0010
0001
0000
,
2000
0000
3000
0000
0000
0010
0100
0002
,
0000
0003
0000
0000
0000
0001
1000
1200
,
0000
0301
0100
0001
0100
1000
0001
0201
,
0000
0000
1300
0000
0100
0000
1000
0000
0100
0000
0010
0000
1000
0001
1000
0000
,
0000
0000
0100
0000
0010
0100
1000
0000
0000
0000
0001
0000
0100
1000
0100
0000
,
0000
0000
0010
0000
0100
0001
1000
0000
0000
0000
0100
0000
0010
0000
0021
0000
,
0000
1030
0010
1000
0010
0001
1000
1020
,
0000
0031
0010
0001
0010
1000
0001
0010
,
0000
0100
1000
1000
0000
0010
0100
0001
,
0020
0000
2030
0000
3200
0000
0301
1000
,
0010
0000
0000
0010
0100
0000
0001
0000
0000
0000
1000
0001
1000
0000
0000
0000
,
0100
0000
0000
0100
0010
0000
0001
0000
0000
0000
1000
0001
1000
0000
0000
0000
,
0010
0000
0000
0010
0100
0000
0001
0000
0000
0000
1000
0010
1000
0000
0000
0000
,
0100
0000
0000
0100
0010
0000
1000
0000
0000
0000
0010
0100
0010
0000
0000
0000
,
0100
0000
0100
0000
1000
0000
0001
0000
0000
0000
0001
1000
0010
0000
0000
0000
,
0100
0000
0100
0000
0010
0000
1000
0000
0000
0000
1000
0001
0010
0000
0000
0000
,
0010
0000
0010
0000
0001
0000
0100
0000
0000
0000
0100
0010
1000
0000
0000
0000
,
0010
1000
0100
0002
0000
0100
0103
0000
,
0010
0000
0001
0000
1000
0010
0100
0000
,
0000
0000
0000
0000
,
0010
1000
0010
0000
1000
0001
1000
0000
,
0000
0000
0000
0100
0010
1000
0010
0001
,
1000
0000
0010
0100
0010
0000
1000
0000
0001
0000
0010
0000
0100
0000
1000
0000
,
0001
0000
0100
0010
0100
0000
0010
0000
1000
0000
0001
0000
0010
0000
0100
0000
,
0001
0000
0100
0010
0100
0000
1000
0000
0001
0000
0100
0000
0010
0000
1000
0000
,
0001
0000
0010
0100
0010
0000
0100
0000
0001
0000
0100
0000
1000
0000
0020
0000
,
0000
0000
0130
0001
0100
0000
0010
0000
1000
0000
0001
0000
0010
0000
1000
0000
,
0001
0000
0100
0010
0100
0000
0010
0000
0001
0000
0100
0000
1000
0000
0100
0000
,
0010
0000
1000
0001
1000
0000
0100
0000
0001
0000
0100
0000
0010
0000
0100
0000
,
1000
0000
0001
1000
0001
0000
0000
0000
1000
0000
0010
0000
0100
0000
0102
0000
,
0000
1003
0100
0001
0100
0010
0100
2100
,
0000
0000
3010
0000
0001
0000
0010
0000
1000
0000
0010
0000
0100
0001
1000
0000
,
0000
0000
0100
0000
0010
0100
0010
0000
0000
0000
0001
0000
1000
0010
0100
0000
,
0000
0000
0010
0000
0100
0001
0100
0000
0000
0000
0100
0000
0001
0000
0021
0000
,
0000
0031
0010
1000
0010
0100
1000
1020
,
0000
1030
0100
0001
0100
0010
0001
0100
,
0000
0010
0100
0001
0000
1000
0100
1000
,
0020
0000
0032
0000
0203
0000
1300
0001
,
0000
0010
0100
0010
0000
0001
1000
0010
,
0000
0010
0100
0001
0000
1000
0001
1000
,
0000
0100
0010
0001
0000
1000
0010
0100
,
0000
0000
0100
0010
0100
0000
0001
0000
0010
0000
1000
0000
0010
0000
0220
0000
,
0000
0330
0000
0000
;
