#TITLE:Jungle Cafe;
#SUBTITLE:;
#ARTIST:oo39.com;
#TITLETRANSLIT:;
#SUBTITLETRANSLIT:;
#ARTISTTRANSLIT:;
#GENRE:;
#CREDIT:;
#MUSIC:21. Jungle Cafe.mp3;
#BANNER:;
#BACKGROUND:;
#CDTITLE:;
#SAMPLESTART:62.006;
#SAMPLELENGTH:15.484;
#SELECTABLE:YES;
#OFFSET:1.865;
#BPMS:0.000=124.000;
#STOPS:;
#BGCHANGES:;
#FGCHANGES:;

//--------------- dance-single - about-blank ----------------
#NOTES:
     dance-single:
     about-blank:
     Beginner:
     4:
     0,0,0,0,0:
0000
0000
0000
0000
,
0000
0000
0000
0000
,
0000
0000
0000
0000
,
0000
0000
0000
0000
,
0000
0000
0000
0000
,
1000
0000
0000
0000
,
0001
0000
0000
0000
,
0100
0000
0000
0000
,
0010
0000
0010
0000
,
1000
0000
1000
0000
,
0100
0000
0100
0000
,
0001
0000
1001
0000
,
0010
0000
0000
0000
,
1000
0000
1000
0100
,
0001
0000
0001
0100
,
1000
0000
1000
0100
,
0001
0100
1000
0100
,
0001
0000
0001
0010
,
1000
0000
1000
0010
,
0001
0010
1000
0010
,
0001
0000
1001
0000
,
1000
1000
1000
0000
,
0001
0001
0001
0000
,
0100
0100
0100
0000
,
0010
0010
0010
0010
,
1001
0000
0100
0100
,
0001
0010
1000
0100
,
0001
0001
1000
1000
,
0010
0100
0010
0000
,
1001
0000
1000
0100
,
0001
0010
1000
0100
,
0010
0010
0001
0001
,
1000
0001
1000
0000
,
0110
0000
0001
0100
,
1000
0100
0001
0000
,
0110
0000
1000
0100
,
0001
0100
1000
0000
,
0011
1000
0010
0001
,
0010
1000
0001
0000
,
1010
0001
0010
1000
,
0010
0001
0100
0010
,
1000
1000
0100
0000
,
0001
0001
0100
0000
,
0010
1000
0001
1000
,
0100
0010
0010
0001
,
1000
1000
0000
1001
,
0001
0001
0000
1001
,
1000
1000
0000
1001
,
0001
0001
0000
1001
,
1000
1000
0000
1001
,
0001
0001
0000
1001
,
1000
1000
0000
1001
,
0010
0100
0010
0100
,
1001
0000
1000
0100
,
0001
0100
1000
0000
,
1001
0000
0001
0100
,
1000
0100
0001
0000
,
1001
0000
1000
0010
,
0001
0010
1000
0000
,
1001
0000
0001
0010
,
1000
0010
0001
0000
,
0110
0000
0110
0000
,
1000
0001
1000
0000
,
0100
0100
0100
0000
,
0010
0010
0010
0000
,
1001
0000
0000
0000
;

//--------------- dance-single - about-blank ----------------
#NOTES:
     dance-single:
     about-blank:
     Easy:
     7:
     0,0,0,0,0:
0000
0000
0000
0000
,
0000
0000
0000
0000
,
0000
0000
0000
0000
,
0000
0000
0000
0000
,
0000
0000
0000
0000
,
1000
0000
0000
0100
0000
0100
0000
0000
,
0001
0000
0000
0100
0000
0100
0000
0000
,
1000
0000
0000
0010
0000
0010
0000
0000
,
0001
0010
1000
0001
,
0100
0000
0000
0010
0000
0010
0000
0000
,
1000
0000
0000
0100
0000
0100
0000
0000
,
0010
0000
0000
1001
0000
0000
0000
0000
,
0001
0000
1000
0000
0010
0100
0010
0000
,
1000
1000
0100
0100
,
0001
0001
0100
0100
,
1000
0001
1000
0000
0010
1000
0010
0000
,
0100
0000
0001
0000
0010
0001
1000
0000
,
1001
0001
0100
0100
,
0010
1000
0001
0001
,
0010
1000
0010
0001
,
0100
0000
1000
0000
0100
0001
1000
0000
,
1001
1000
1000
1000
,
1001
0001
0001
0001
,
0110
0100
0100
0100
,
0110
0000
0010
0000
0001
1000
0001
0000
,
0100
0000
0100
0000
0010
1000
0100
0000
,
0100
0000
0100
0000
0010
0001
0100
0000
,
0100
0000
0100
0000
0010
1000
0100
0000
,
0010
0001
0100
0000
0110
0000
1001
0000
,
1000
0000
1000
0000
0001
1000
0100
0000
,
0001
0000
0001
0000
1000
0001
0100
0000
,
1000
0000
1000
0000
0001
1000
0100
0000
,
1000
0001
0100
0000
0110
0000
1001
0000
,
0001
0000
0001
0100
0110
0000
0000
0000
,
1000
0000
1000
0000
0001
1000
0001
0000
,
1000
0000
1000
0100
0110
0000
0000
0000
,
0001
0000
0001
0000
1000
0001
1000
0000
,
0010
0000
0010
1000
1100
0000
0000
0000
,
0100
0000
0100
0000
0010
0001
0010
0000
,
0010
0000
0010
0001
0101
0000
0000
0000
,
0100
0010
1000
0001
,
1000
0000
1000
0000
0100
1000
0100
0000
,
0010
0000
0010
0000
0010
0100
0010
0000
,
0001
0000
0000
1000
0000
0010
0000
0000
,
1000
0001
0100
0010
,
1000
0000
1000
0000
0100
0001
0100
0000
,
0010
0000
0010
0000
0001
1000
0001
0000
,
0100
0000
0100
0000
0010
1000
0010
0000
,
0100
0001
0010
0100
,
1000
0100
0010
0001
,
1000
0010
0100
1000
,
0001
0010
1000
0100
,
0110
1100
0011
0000
,
1000
0000
0000
1001
0000
0000
0000
0000
,
0001
0000
0100
0001
0100
0000
0010
0000
,
1000
0000
0000
1001
0000
0000
0000
0000
,
1000
0000
0001
0000
0010
0100
0010
0000
,
0001
0000
0000
1001
0000
0000
0000
0000
,
1000
0000
0001
0000
0100
0010
0100
0000
,
0010
0000
0000
1001
0000
0000
0000
0000
,
1000
1000
0001
0001
,
0100
0000
0000
0100
0000
0000
0100
0000
,
0010
0000
0000
0010
0000
0000
0010
0000
,
1000
1000
0100
0100
,
0010
0010
0001
0001
,
1000
0001
0000
0000
0000
0000
0000
0000
;

//--------------- dance-single - about-blank ----------------
#NOTES:
     dance-single:
     about-blank:
     Medium:
     9:
     0,0,0,0,0:
0000
0000
0000
0000
,
0000
0000
0000
0000
,
0000
0000
0000
0000
,
0000
0000
0000
0000
,
0000
0000
0000
0000
,
2000
0000
0000
3010
0000
0100
1000
0000
,
0002
0000
0000
0013
0000
0100
0001
0000
,
2000
0000
0000
3010
0000
0100
1000
0000
,
0002
0000
0000
0013
0000
0100
0001
0000
,
1100
0000
0000
0100
0000
0010
1000
0010
,
0011
0000
0000
0010
0000
0100
0001
0100
,
1100
0000
0000
0022
0000
0033
0000
0000
,
0001
1000
0001
0100
0010
1000
0001
0000
,
1100
0000
0100
0000
0010
0001
1000
0000
,
0101
0000
0100
0000
0010
1000
0001
0000
,
1001
0000
1100
0000
0001
1000
0010
0000
,
0101
0000
1001
0000
1000
0001
0010
0000
,
0100
0010
0100
0010
0001
1000
0010
0000
,
0100
0010
0100
0010
1000
0001
0010
0000
,
0100
1000
0001
0000
0100
0001
1000
0000
,
0110
0000
1000
0001
0001
0100
0010
0000
,
0001
0010
1000
0001
0010
0100
1000
0000
,
0100
0001
1000
0010
0100
1000
0001
0000
,
0010
0100
0010
0001
1000
0010
0100
0000
,
1000
0100
0001
0010
0001
0100
0010
1000
,
0001
0000
0000
0000
0101
0000
0000
0100
0000
0000
0010
0000
1000
0000
0000
0000
,
1000
0000
0000
0000
1100
0000
0000
0100
0000
0000
0010
0000
0001
0000
0000
0000
,
1000
0000
0000
0000
1001
0000
0000
0001
0000
0000
0100
0000
0010
0000
0000
0000
,
1000
0000
1001
0000
0010
0010
0100
0000
,
0110
0000
0000
0000
0001
0000
0000
0010
0000
0000
0100
0000
1000
0000
0000
0000
,
1001
0000
0000
0000
1000
0000
0000
0010
0000
0000
0100
0000
0001
0000
0000
0000
,
0110
0000
0000
0000
0001
0000
0000
0100
0000
0000
0010
0000
1000
0000
0000
0000
,
1100
0000
0011
0010
0001
0100
0010
1000
,
0001
0000
0000
0220
0000
0330
0000
0000
,
1001
0000
0000
0001
1000
1000
0100
0000
,
0110
0000
0000
2002
0000
3003
0000
0000
,
0110
0000
0000
1000
0001
0001
0100
0010
,
1100
0000
0000
0022
0000
0033
0000
0000
,
1010
0000
1000
0001
0100
0001
1000
0000
,
0011
0000
0000
2200
0000
3300
0000
0000
,
1000
0001
0100
0010
0100
0001
1000
0000
,
0100
0100
0010
0010
,
0001
0001
1000
1000
,
0010
0000
0010
1000
0001
0000
0101
0000
,
1000
0001
0100
0001
1000
0100
1000
0000
,
0010
0010
1000
1000
,
0100
0100
0001
0001
,
0100
0010
0001
0000
0100
0010
1000
0000
,
0001
0010
0100
1000
0010
0100
0001
0000
,
1100
0000
0001
0000
1000
0100
0010
0000
,
0001
0000
0100
0100
0010
0010
1000
0000
,
0001
0101
1000
1100
,
0100
0010
0001
1000
0010
0100
0001
1000
,
0010
0000
0000
0220
0000
0330
0000
0000
,
1001
0000
0001
0010
0100
1000
0001
0100
,
0010
0000
0000
2200
0000
3300
0000
0000
,
1001
0000
1000
0001
0100
0010
0100
0001
,
0010
0000
0000
0202
0000
0303
0000
0000
,
1001
0000
0001
0010
1000
0010
0001
0100
,
0010
0000
0000
0220
0000
0330
0000
0000
,
1000
0010
0010
0100
0100
0001
1000
0001
,
1000
1000
0100
0100
,
0010
0001
0100
0010
,
1001
0000
1000
0000
0010
0100
0100
0000
,
1000
0100
0001
1000
0100
0010
0100
0000
,
1000
0001
0000
0000
0000
0000
0000
0000
;

//--------------- dance-single - about-blank ----------------
#NOTES:
     dance-single:
     about-blank:
     Hard:
     11:
     0,0,0,0,0:
0000
0000
0000
0000
,
0000
0000
0000
0000
,
0000
0000
0000
0000
,
0000
0000
0000
0000
,
0000
0000
0000
0000
,
2000
0000
0000
3020
0000
0130
0001
0000
,
0002
0000
0000
0023
0000
0130
1000
0000
,
0002
0000
0000
2003
0000
3010
0100
0000
,
0002
0000
0000
2003
0000
3100
0010
0000
,
0001
0010
0100
0010
0001
1000
0010
0000
,
1000
0100
0010
0100
1000
0001
0100
0000
,
2020
0000
3030
0202
0000
0303
0000
0000
,
1000
0000
0000
1000
0100
0000
0000
0100
0010
0000
0001
0000
0100
0000
0000
0000
,
1000
0100
0010
0100
0001
1000
0100
0010
,
0001
0100
0010
1000
0001
0010
0100
0000
,
0001
0100
0010
0001
1000
0001
0100
0010
,
1000
0010
0100
0001
0010
0100
1000
0000
,
1000
0100
0001
0000
1000
0010
0001
0000
,
0001
1000
0010
0100
0001
0100
0010
0000
,
1000
0010
0100
0000
1000
0100
0010
0000
,
1000
0001
0020
1000
1000
0001
0031
0000
,
1100
0000
0001
1000
0100
0010
0100
0000
,
0011
0000
1000
0001
0010
0001
0100
0000
,
1010
0000
0010
1000
0001
1000
0100
0000
,
0011
0000
0010
0001
1000
0001
0100
0010
,
1000
0000
0000
1000
0100
0000
0000
0100
0010
0000
0010
0000
0001
0000
0000
0000
,
0001
0000
0000
0001
0100
0000
0000
0100
0010
0000
0010
0000
1000
0000
0000
0000
,
0001
0000
0000
0001
0010
0000
0000
0010
0100
0000
0100
0000
1000
0000
0000
0000
,
0001
0000
0000
0001
1000
0000
0000
1000
0010
0000
0100
0000
1000
0000
0100
0000
,
0001
0000
0000
0001
0010
0000
0000
0010
0100
0000
1000
0000
1000
0000
0000
0000
,
0001
0000
0000
0001
1000
0000
0000
1000
0010
0000
0100
0000
0100
0000
0000
0000
,
1000
0000
0000
1000
0100
0000
0010
0000
1000
0000
0001
0000
0010
0000
0000
0000
,
0100
0000
0010
0000
0010
0000
0001
0000
0100
0000
0100
0000
0010
1000
0010
0000
,
0101
0000
0001
0011
0000
0001
1001
0000
,
0001
0100
0010
1000
0010
0100
0001
0000
,
1100
0000
1000
1010
0000
1000
0001
0000
,
1000
0000
0010
0000
0100
0000
0001
0000
0100
0000
0010
0000
1000
0100
0010
0000
,
0011
0000
0001
2200
3300
0001
1000
0000
,
0100
0000
0010
0000
0001
0000
1000
0001
1000
0000
0001
0000
0100
0000
0000
0000
,
1010
0000
0001
0202
0303
1000
0001
0000
,
0100
0000
0010
0000
1000
0000
0001
0000
0010
0000
0010
0000
0100
0010
0100
0000
,
1000
0000
0000
1000
0010
0000
0000
0100
0000
0100
0001
0000
1000
0000
0000
0000
,
0001
0000
0000
0001
0010
0000
0000
0100
0000
0100
1000
0000
0001
0000
0000
0000
,
0100
0010
1000
0001
0010
0100
0010
0000
,
0100
0010
0001
1000
0010
0100
0001
0000
,
1000
0001
0010
0100
1000
0000
1001
0000
,
0001
1000
0010
0100
0001
0000
1001
0000
,
1000
0100
0010
0000
0001
0100
0010
0000
,
1000
0000
0001
0000
0010
0000
0100
0000
0011
0000
1000
0000
0010
0100
0010
0000
,
0001
0010
1000
0001
0010
0100
0001
0000
,
0001
0100
1000
0001
0100
0010
0001
0000
,
0001
0010
1000
0001
0010
0100
0010
0000
,
0010
0000
0001
0000
0001
1000
0001
0000
0100
0010
0100
0000
0010
1000
0010
0000
,
1001
0000
1000
1100
0100
0010
0001
0000
,
1001
0000
0001
0100
0010
0100
0001
0000
,
1001
0000
0001
0101
0100
0010
1000
0000
,
1001
0000
0000
0000
1000
0000
0100
0000
0010
0000
0010
0000
0001
1000
0001
0000
,
0110
1000
0001
1001
0001
0010
0100
0000
,
0110
0100
1000
0001
0001
0100
0010
0000
,
1001
0001
0010
0110
0100
1000
0001
0000
,
0110
0000
1000
0000
1000
0001
1000
0000
0010
0000
0010
0000
0100
0001
0010
0000
,
0001
0000
0000
0000
0010
0000
0000
0100
0000
0100
1000
0000
0001
0000
0000
0000
,
1000
0000
0010
0000
0100
0000
0000
0100
0000
0100
0001
0000
1000
0000
0000
0000
,
0001
1000
0100
0010
0001
0100
0010
1000
,
0001
1000
0001
0000
0100
0000
0010
0000
1000
0010
1000
0000
0001
0000
0100
0000
,
0110
1001
0000
0000
0000
0000
0000
0000
;
