#TITLE:Island Dream;
#SUBTITLE:;
#ARTIST:oo39.com;
#TITLETRANSLIT:;
#SUBTITLETRANSLIT:;
#ARTISTTRANSLIT:;
#GENRE:;
#CREDIT:;
#MUSIC:Island Dream.mp3;
#BANNER:;
#BACKGROUND:;
#CDTITLE:;
#SAMPLESTART:38.711;
#SAMPLELENGTH:12.203;
#SELECTABLE:YES;
#OFFSET:1.967;
#BPMS:0.000=118.000
,240.000=107.740
,241.000=113.000
;
#STOPS:;
#BGCHANGES:;
#FGCHANGES:;

//--------------- dance-single - OrangeRight ----------------
#NOTES:
     dance-single:
     OrangeRight:
     Beginner:
     1:
     0,0,0,0,0:
0000
0000
0000
0000
,
0000
0000
0000
0000
,
0000
0000
0000
0000
,
0000
0000
0000
0000
,
0001
0000
0000
0000
,
1000
0000
0000
0000
,
0001
0000
0000
0000
,
0001
0000
0000
0000
,
1000
0000
0000
0000
,
0001
0000
0000
0000
,
1000
0000
0000
0000
,
0001
0000
0000
0000
,
1000
0000
0000
0000
,
0100
0000
0000
0000
,
1000
0000
0000
0000
,
1000
0000
0000
0000
,
0001
0000
0000
0000
,
0100
0000
0000
0000
,
0100
0000
0000
0000
,
0001
0000
0000
0000
,
1000
0000
0001
0000
,
1000
0000
0000
0000
,
1000
0000
0100
0000
,
1000
0000
0000
0000
,
0001
0000
1000
0000
,
0001
0000
0000
0000
,
0001
0000
0010
0000
,
0010
0000
0001
0000
,
1000
0000
0000
0000
,
1000
0000
0100
0000
,
0010
0000
0000
0000
,
0010
0000
0001
0000
,
1000
0000
0000
0000
,
0001
0000
0000
0000
,
1000
0000
0000
0000
,
1000
0000
0000
0000
,
0001
0000
0000
0000
,
0001
0000
0000
0000
,
1000
0000
0000
0000
,
0001
0000
0000
0000
,
1000
0000
0100
0000
,
1000
0000
0000
0000
,
0001
0000
0100
0000
,
0001
0000
0000
0000
,
1000
0000
0010
0000
,
0100
0000
0000
0000
,
0001
0000
0010
0000
,
0010
0000
0001
0000
,
1000
0000
0001
0000
,
1000
0000
1000
0000
,
0001
0000
1000
0000
,
0001
0000
0001
0000
,
1000
0000
0100
0000
,
1000
0000
1000
0000
,
0001
0000
0010
0000
,
0001
0000
0001
0000
,
1000
0000
0000
0000
,
0001
0000
0000
0000
,
0100
0000
0000
0000
,
0010
0000
0000
0000
,
1000
0000
0001
0000
;

//--------------- dance-single - OrangeRight ----------------
#NOTES:
     dance-single:
     OrangeRight:
     Easy:
     3:
     0,0,0,0,0:
0000
0000
0000
0000
,
0000
0000
0000
0000
,
0000
0000
0000
0000
,
0000
0000
0000
0000
,
1000
0000
0001
1000
,
0100
0100
0010
0000
,
0001
0000
1000
0001
,
0100
0100
0001
0000
,
1000
0000
0010
0100
,
0001
0001
0010
0000
,
0001
0000
0100
0010
,
1000
0100
1000
0010
,
0100
0001
0010
0000
,
0001
0100
0001
0100
,
0010
0000
1000
0100
,
0010
0001
1000
0000
,
0001
1000
0100
1000
,
0100
1000
0100
0000
,
1000
0001
0100
0010
,
1000
0100
0010
0001
,
1000
0001
2002
3003
,
0001
0100
0001
0100
,
0001
1000
2002
3003
,
1000
0010
1000
0010
,
1000
0001
0202
0303
,
0001
0010
0001
0010
,
0001
1000
2020
3030
,
1000
0001
0100
0010
,
2000
0000
3000
0000
,
0001
0000
1000
0000
,
0002
0000
0003
0000
,
0100
0000
0010
1000
,
0001
0000
1000
0001
,
0010
0010
0100
0000
,
1000
0000
0001
1000
,
0010
0100
0001
0000
,
0001
0000
0100
0010
,
1000
1000
0100
0000
,
1000
0000
0010
0100
,
0001
1000
0001
1000
,
0001
0100
0202
0303
,
0100
0010
1000
0001
,
0010
0100
2200
3300
,
1000
0010
0100
0001
,
0010
0100
2002
3003
,
1000
0100
0010
0001
,
0100
0010
2002
3003
,
0001
0100
0010
1000
,
0001
1000
2200
3300
,
1000
0100
0010
0001
,
1000
0001
0202
0303
,
0001
0100
0010
1000
,
0100
0010
0220
0330
,
0010
0100
1000
0001
,
0100
0010
0220
0330
,
0010
1000
0100
0001
,
0020
0000
0030
0000
,
1000
0001
1000
0000
,
0200
0000
0300
0000
,
1000
1000
0001
0001
,
0100
0010
2000
0000
,
0000
0000
3000
0000
;

//--------------- dance-single - OrangeRight ----------------
#NOTES:
     dance-single:
     OrangeRight:
     Medium:
     7:
     0,0,0,0,0:
0000
0000
0000
0000
,
0000
0000
0000
0000
,
0000
0000
0000
0000
,
0000
0000
0000
0000
,
1000
0000
0100
0010
0100
0000
1000
0000
,
0001
1001
0000
1000
,
0001
0000
0100
0010
0100
0000
0001
0000
,
1000
0100
0020
0030
,
0001
0000
0100
0010
0100
0000
0001
0000
,
1000
1001
0000
0001
,
1000
0000
0100
0010
0100
0000
1000
0000
,
0010
0000
0100
0000
0001
1000
0001
0000
,
1000
1001
0000
1000
,
0100
0000
0000
0000
1000
0000
0010
0000
0000
0100
0000
0000
0001
0000
1000
0000
,
0001
0000
1000
0100
,
0010
0001
0010
0000
0100
1000
0100
0000
,
1000
0000
0000
0000
0010
0000
0100
0000
0001
0000
0000
0010
0000
0000
0100
0000
,
0000
1000
0000
0000
0001
0000
1000
0000
0001
0000
0000
0000
0100
0000
0000
0000
,
0001
0000
0100
0010
1000
0000
0100
0000
,
1000
0100
1000
0000
0001
0010
0001
0000
,
1000
0000
0000
0001
0000
0000
1000
0000
0001
0000
0000
0000
0110
0000
0000
0000
,
0010
1000
0010
0000
0100
0001
0100
0000
,
0001
0000
0000
1000
0000
0000
0001
0000
1000
0000
0000
0000
0110
0000
0000
0000
,
1000
0010
1000
0000
0001
0100
0001
0000
,
1000
0000
0000
0001
0000
0000
1000
0000
0001
0000
0000
0000
0110
0000
0000
0000
,
0010
0001
0010
0000
0100
1000
0100
0000
,
0010
0000
0000
0100
0000
0000
0010
0000
0100
0000
0000
0000
1001
0000
0000
0000
,
1000
0000
0000
0100
0000
0000
1000
0000
0001
0000
0000
0010
0000
0000
0001
0000
,
1002
0100
0000
0103
,
0001
0000
0100
0000
0010
1000
0010
0000
,
2001
0010
0000
3010
,
0010
1000
0010
0000
0100
0001
0100
0000
,
0001
0000
1000
0001
1000
0000
0010
0000
,
0100
0101
0000
1001
,
1000
0000
0001
1000
0001
0000
0100
0000
,
0010
1000
2200
3300
,
1000
0000
0001
1000
0001
0000
0100
0000
,
0010
1010
0000
1000
,
0001
0000
0010
0100
0010
0000
0001
0000
,
0100
0010
0100
0000
0001
1000
0001
0000
,
1000
0000
0000
0100
0000
0000
0010
0000
0001
0000
0000
0000
1001
0000
0000
0000
,
0001
0100
0001
0000
1000
0010
1000
0000
,
0001
0000
0000
0100
0000
0000
0010
0000
1000
0000
0000
0000
1001
0000
0000
0000
,
1000
0100
1000
0000
0001
0010
0001
0000
,
1000
0000
0000
0010
0000
0000
0100
0000
0001
0000
0000
0000
0110
0000
0000
0000
,
0010
1000
0010
0000
0100
0001
0100
0000
,
0001
0000
0000
0010
0000
0000
0100
0000
1000
0000
0000
0000
0110
0000
0000
0000
,
1000
0000
0000
0100
0000
0000
0010
0000
0001
0000
0000
0100
0000
0000
0010
0000
,
1000
0000
0000
0001
0000
0000
1000
0000
0100
0000
0000
0000
1010
0000
0000
0000
,
0100
0010
1000
0000
0100
0010
0001
0000
,
1000
0000
0000
0001
0000
0000
1000
0000
0010
0000
0000
0000
1100
0000
0000
0000
,
1000
0010
0100
0000
0100
0001
0010
0000
,
0001
0000
0000
0010
0000
0000
0100
0000
0010
0000
0000
0000
1001
0000
0000
0000
,
1000
0001
0100
0000
0001
1000
0100
0000
,
1000
0000
0000
0010
0000
0000
0001
0000
0010
0000
0000
0000
1001
0000
0000
0000
,
1000
0000
0000
0100
0000
0000
0010
0000
0001
0000
0000
0100
0000
0000
0010
0000
,
2010
0100
0000
3001
,
0001
1000
0100
0000
1000
0001
0100
0000
,
0102
0010
0000
1003
,
1000
0010
0100
0010
1000
0001
1000
0000
,
0001
0100
0220
0000
,
0000
0000
0330
0000
;

//--------------- dance-single - OrangeRight ----------------
#NOTES:
     dance-single:
     OrangeRight:
     Hard:
     10:
     0,0,0,0,0:
0000
0000
0000
0000
,
0000
0000
0000
0000
,
0000
0000
0000
0000
,
0000
0000
0000
0000
,
1000
0000
0000
0000
0100
0000
1000
0000
0010
0000
0000
0100
0000
0000
0001
0000
,
0010
0000
0110
0000
0100
1000
0001
0000
,
1000
0000
0000
0000
0010
0000
1000
0000
0100
0000
0000
0010
0000
0000
0001
0000
,
0100
0000
0000
0010
0000
0000
1000
0000
0001
0000
1000
0000
1001
0000
0000
0000
,
0001
0000
0000
0000
0010
0000
0001
0000
0100
0000
0000
0010
0000
0000
1000
0000
,
0100
0000
0110
0000
0010
0001
1000
0000
,
0001
0000
0000
0000
0100
0000
0001
0000
0010
0000
0000
0100
0000
0000
1000
0000
,
0010
0000
0000
0001
0000
0000
0010
0000
1000
0000
0000
0100
0000
0000
0010
0000
,
0001
0000
0000
1000
0001
0000
0100
0000
0010
0000
0000
0000
1000
0000
0001
0000
,
0100
0000
0000
0010
0000
0000
1000
0000
0100
0000
0000
0010
0000
0000
0100
0000
,
1000
0000
0000
0000
0001
0000
0100
0000
0010
0000
0000
1000
0000
0000
0100
0000
,
0010
0000
0000
0001
0000
0000
1000
0000
0001
0000
0100
0000
0101
0000
0000
0000
,
0001
0000
0000
0000
0100
0000
0010
0000
1000
0000
0000
0100
0000
0000
0001
0000
,
0000
0100
0000
0000
1000
0000
0001
0000
0000
0000
0100
0000
0010
0000
0000
0000
,
1000
0000
0000
0000
0010
0000
0100
0000
0001
0000
0000
0010
0000
0000
0100
0000
,
1000
0000
0000
0010
0000
0000
0001
0000
0010
0000
0000
1000
0000
0000
0001
0000
,
1000
0000
0000
0100
0000
0000
0001
0000
0100
0000
0000
0000
1001
0000
0000
0000
,
1000
0000
0010
0100
0000
0010
0100
0000
0001
0000
0010
0000
0100
0000
1000
0000
,
0001
0000
0000
0100
0000
0000
1000
0000
0100
0000
0000
0000
1001
0000
0000
0000
,
0001
0100
0100
0010
0010
1000
0100
1000
,
0001
0000
0000
0010
0000
0000
1000
0000
0010
0000
0000
0000
1001
0000
0000
0000
,
0001
0000
0100
0010
0000
0100
0010
0000
1000
0000
0100
0000
0010
0000
0001
0000
,
1000
0000
0000
0010
0000
0000
0001
0000
0010
0000
0000
0000
1001
0000
0001
0000
,
0100
0000
0000
0010
0000
0000
1000
0001
1000
0000
0000
0100
0000
0000
0010
0000
,
0001
0000
1000
0020
0000
0031
0010
0000
,
1000
0000
0100
0002
0000
0103
1000
0000
,
0010
0000
0100
0002
0000
1003
0010
0000
,
1000
0000
0001
0020
0000
0130
1000
0001
,
1000
0000
0000
0000
0010
0000
0100
0000
0001
0000
0000
0010
0000
0000
0100
0000
,
1000
0000
1010
0000
0010
0100
0101
0000
,
0001
0000
0000
0000
0010
0000
0100
0000
1000
0000
0000
0010
0000
0000
0001
0000
,
0010
0000
0000
0100
0000
0000
0001
0000
0010
0000
0100
0000
1100
0000
0000
0000
,
0001
0000
0000
0000
0100
0000
0010
0000
1000
0000
0000
0100
0000
0000
0010
0000
,
0001
0000
1001
0000
0100
0010
0110
0000
,
0010
0000
0000
0000
1000
0000
0100
0000
0010
0000
0000
0001
0000
0000
0100
0000
,
1000
0000
0000
0100
0000
0000
0001
0000
0010
0000
0000
1000
0000
0000
0010
0000
,
0001
0000
0000
0100
0000
0000
1000
0000
0100
0000
0000
0000
1001
0000
0000
0000
,
0001
0000
0100
0010
0000
1000
0001
0000
1000
0000
0010
0000
0001
0000
0010
0000
,
1000
0000
0000
0100
0000
0000
0001
0000
0100
0000
0000
0000
1001
0000
0000
0000
,
1000
0100
0100
0010
0010
0001
0100
0001
,
1000
0000
0000
0010
0000
0000
0001
0000
0010
0000
0000
0000
1001
0000
0000
0000
,
1000
0000
0010
0100
0000
0001
1000
0000
0001
0000
0100
0000
1000
0000
0100
0000
,
0001
0000
0000
0010
0000
0000
1000
0000
0010
0000
0000
0000
1001
0000
0100
0000
,
0010
0000
0000
1000
0000
0000
0100
1000
0001
0000
0000
0010
0000
0000
0100
0000
,
1001
0000
0000
1100
0000
0000
0110
0000
0011
0000
0000
0000
1001
0000
0000
0000
,
1000
0000
0001
0010
0000
0100
1000
0000
0001
0000
0100
0000
0010
0000
1000
0000
,
1010
0000
0000
0110
0000
0000
0101
0000
1001
0000
0000
0000
0110
0000
0000
0000
,
0100
0010
0010
1000
1000
0001
0010
0100
,
0110
0000
0000
1100
0000
0000
1010
0000
0110
0000
0000
0000
1001
0000
0000
0000
,
0001
0000
1000
0100
0000
0010
0001
0000
1000
0000
0010
0000
0001
0000
0010
0000
,
1010
0000
0000
1100
0000
0000
0101
0000
1100
0000
0000
0000
1001
0000
1000
0000
,
1100
0000
0000
1010
0000
0000
0010
0100
0001
0000
0000
0011
0000
0000
1001
0000
,
0210
0000
0000
0001
0000
0000
1000
0000
0310
0000
0000
0000
1001
0000
0000
0000
,
1000
0100
0001
0100
1000
0000
1001
0000
,
0120
0000
0000
1000
0000
0000
0001
0000
0130
0000
0000
0000
1001
0000
0000
0000
,
0001
0010
1000
0010
0100
0010
0001
0100
,
0010
0000
0000
0000
0000
0000
0110
0000
0000
0000
0000
0000
2000
0002
0000
0000
0000
0000
0000
0000
0000
0000
0000
0000
,
0000
3003
0000
0000
;

//--------------- dance-double - OrangeRight ----------------
#NOTES:
     dance-double:
     OrangeRight:
     Easy:
     4:
     0,0,0,0,0:
00000000
00000000
00000000
00000000
,
00000000
00000000
00000000
00000000
,
00000000
00000000
00000000
00000000
,
00000000
00000000
00000000
00000000
,
10000000
00000000
00010000
00000000
,
01000000
01000000
00000000
00000000
,
00010000
00000000
10000000
00000000
,
00010000
01000000
00010000
00000000
,
00100000
00000000
00001000
00000000
,
00010000
00010000
00000000
00000000
,
00001000
00000000
00010000
00000000
,
00000100
00001000
00000100
00000000
,
00001000
00000001
00001000
00000000
,
00000100
00000000
00000010
00000001
,
00000010
00000000
00000100
00000000
,
00001000
00000100
00001000
00000000
,
00000100
00000000
00010000
00001000
,
00010000
00001000
00010000
00000000
,
00001000
00000000
00100000
00000000
,
00010000
01000000
00010000
00000000
,
10000000
00010000
20020000
30030000
,
10000000
00000000
00010000
01000000
,
00001000
00010000
00022000
00033000
,
00010000
00000100
00001000
00000000
,
00000001
00001000
00002002
00003003
,
00001000
00000000
00000100
00010000
,
00001000
00010000
00022000
00033000
,
00001000
01000000
00010000
00100000
,
00020000
00000000
00030000
00000000
,
01000000
00000000
00001000
00000000
,
00020000
00000000
00030000
00000000
,
00000100
00000000
00001000
00000001
,
00001000
00000000
00000100
00000000
,
00010000
00001000
00010000
00000000
,
00001000
00000000
00100000
00000000
,
00010000
01000000
00010000
00000000
,
00100000
00000000
00001000
00010000
,
00001000
00000000
00010000
00000000
,
00000100
00000000
00001000
00000001
,
00000010
00000010
00000100
00000100
,
00001000
00000001
00002002
00003003
,
00000001
00000000
00001000
00000010
,
00010000
00001000
00022000
00033000
,
00001000
00100000
00010000
00000000
,
10000000
00010000
20020000
30030000
,
00010000
00000000
01000000
00001000
,
00010000
00001000
00022000
00033000
,
00010000
00000010
00001000
00000001
,
00001000
00000100
00002200
00003300
,
00000100
00010000
00001000
00100000
,
00010000
01000000
02020000
03030000
,
01000000
00001000
00010000
00000100
,
00001000
00000010
00002020
00003030
,
00000010
00010000
00001000
01000000
,
00010000
00100000
00220000
00330000
,
00010000
01000000
10000000
01000000
,
00020000
00000000
10030000
00000000
,
10000000
01000000
10000000
00000000
,
00200000
00000000
01300000
00000000
,
01000000
00010000
00100000
00001000
,
00010000
00000100
00002000
00000000
,
00000000
00000000
00003000
00000000
;

//--------------- dance-double - OrangeRight ----------------
#NOTES:
     dance-double:
     OrangeRight:
     Medium:
     6:
     0,0,0,0,0:
00000000
00000000
00000000
00000000
,
00000000
00000000
00000000
00000000
,
00000000
00000000
00000000
00000000
,
00000000
00000000
00000000
00000000
,
10000000
00000000
01000000
00100000
01000000
00000000
10000000
00000000
,
00010000
01000000
00000000
01000000
,
00010000
00000000
00100000
00001000
00100000
00000000
00001000
00000000
,
00010000
00000100
00002000
00003000
,
00000001
00000000
00000100
00000010
00000100
00000000
00000001
00000000
,
00001000
00000100
00000000
00000100
,
00010000
00001000
00100000
00010000
,
01000000
00000000
00100000
00000000
10000000
00010000
10000000
00000000
,
00010000
01000000
00000000
01000000
,
00001000
00010000
00000100
00001000
,
00000001
00000000
00001000
00000100
,
00000001
00000100
00001000
00000000
,
00000001
00000000
00000100
00000010
,
00000100
00000010
00001000
00000100
,
00010000
00001000
00100000
00010000
,
01000000
00100000
01000000
00000000
00010000
10000000
00010000
00000000
,
10000000
00000000
00000000
00010000
00000000
00000000
10000000
00000000
00010000
00000000
00000000
00000000
01000000
00000000
00000000
00000000
,
00010000
01000000
00010000
00000000
00100000
00001000
00100000
00000000
,
00001000
00000000
00000000
00010000
00000000
00000000
00001000
00000000
00010000
00000000
00000000
00000000
00000100
00000000
00000000
00000000
,
00001000
00000010
00001000
00000000
00000001
00000100
00000001
00000000
,
00001000
00000000
00000000
00000001
00000000
00000000
00001000
00000000
00000001
00000000
00000000
00000000
00000100
00000000
00000000
00000000
,
00000010
00001000
00000010
00000000
00010000
00000100
00010000
00000000
,
00001000
00000000
00000000
00010000
00000000
00000000
00001000
00000000
00010000
00000000
00000000
00000000
00001000
00000000
00100000
00000000
,
00010000
00000000
00000000
01000000
00000000
00000000
00010000
00000000
10000000
00000000
00000000
01000000
00000000
00000000
10000000
00000000
,
00020000
01000000
00000000
10030000
,
10000000
00010000
01000000
00001000
,
00020000
00000100
00000000
00031000
,
00010000
00000100
00001000
00000010
,
00001000
00000000
00000100
00000010
00000100
00000000
00001000
00000000
,
00000100
00010000
00000000
00010000
,
00001000
00000000
00100000
00010000
00100000
00000000
00010000
00000000
,
01000000
00100000
02000000
03000000
,
00010000
00000000
01000000
00100000
01000000
00000000
00010000
00000000
,
00100000
00001000
00000000
00001000
,
00010000
00000000
00000100
00001000
00000100
00000000
00000010
00000000
,
00000001
00000100
00000001
00000000
00001000
00000100
00001000
00000000
,
00000001
00000000
00000000
00001000
00000000
00000000
00000001
00000000
00001000
00000000
00000000
00000000
00000010
00000000
00000000
00000000
,
00001000
00000010
00001000
00000000
00000100
00010000
00000100
00000000
,
00010000
00000000
00000000
00001000
00000000
00000000
00010000
00000000
00001000
00000000
00000000
00000000
00100000
00000000
00000000
00000000
,
00010000
01000000
00010000
00000000
10000000
00100000
10000000
00000000
,
00010000
00000000
00000000
10000000
00000000
00000000
00010000
00000000
10000000
00000000
00000000
00000000
00100000
00000000
00000000
00000000
,
01000000
00010000
01000000
00000000
00001000
00100000
00001000
00000000
,
00010000
00000000
00000000
00001000
00000000
00000000
00010000
00000000
00000100
00000000
00000000
00000000
00001000
00000000
00000100
00000000
,
00000010
00000000
00000000
00000001
00000000
00000000
00001000
00000000
00000001
00000000
00000000
00000100
00000000
00000000
00000010
00000000
,
00001000
00000000
00000000
00000100
00000000
00000000
00000010
00000000
00000001
00000000
00000000
00000000
00001001
00000000
00000000
00000000
,
00001000
00000100
00010000
00000000
00001000
00100000
00010000
00000000
,
00100000
00000000
00000000
00010000
00000000
00000000
01000000
00000000
00100000
00000000
00000000
00000000
01100000
00000000
00000000
00000000
,
00100000
10000000
01000000
00000000
00100000
00010000
01000000
00000000
,
00010000
00000000
00000000
00100000
00000000
00000000
01000000
00000000
10000000
00000000
00000000
00000000
10010000
00000000
00000000
00000000
,
00010000
00100000
00001000
00000000
00010000
00000100
00001000
00000000
,
00000100
00000000
00000000
00001000
00000000
00000000
00000010
00000000
00000100
00000000
00000000
00000000
00000101
00000000
00000000
00000000
,
00000100
00000000
00000000
00000001
00000000
00000000
00000010
00000000
00000100
00000000
00000000
00001000
00000000
00000000
00000010
00000000
,
00002000
00000001
00000000
00003100
,
00001000
00000100
00010000
00000000
00001000
00100000
00010000
00000000
,
00020000
10000000
00000000
01030000
,
00010000
01000000
00001000
00010000
00000100
00001000
00000001
00000000
,
00000100
00000010
00002002
00000000
,
00000000
00000000
00003003
00000000
;

//--------------- dance-double - OrangeRight ----------------
#NOTES:
     dance-double:
     OrangeRight:
     Hard:
     10:
     0,0,0,0,0:
00000000
00000000
00000000
00000000
,
00000000
00000000
00000000
00000000
,
00000000
00000000
00000000
00000000
,
00000000
00000000
00000000
00000000
,
10000000
00000000
00000000
00000000
01000000
00000000
10000000
00000000
00100000
00000000
00000000
01000000
00000000
00000000
00010000
00000000
,
00100000
00000000
00001000
00000000
00010000
00000100
00001000
00000000
,
00000010
00000000
00000000
00000000
00000100
00000000
00000001
00000000
00001000
00000000
00000000
00000100
00000000
00000000
00000010
00000000
,
00000001
00000000
00000000
00000100
00000000
00000000
00000010
00000000
00002000
00000000
00000000
00000000
00003001
00000000
00000000
00000000
,
00000001
00000000
00000000
00000000
00000010
00000000
00000001
00000000
00000100
00000000
00000000
00000010
00000000
00000000
00001000
00000000
,
00000100
00000000
00010000
00000000
00001000
00100000
00010000
00000000
,
01000000
00000000
00000000
00000000
00100000
00000000
10000000
00000000
00010000
00000000
00000000
00100000
00000000
00000000
01000000
00000000
,
10000000
00000000
00000000
00100000
00000000
00000000
00010000
00000000
00100000
00000000
00000000
10000000
00000000
00000000
01000000
00000000
,
00100000
00000000
00000000
00010000
10000000
00000000
00100000
00000000
01000000
00000000
00000000
00000000
00010000
00000000
00100000
00000000
,
01000000
00000000
00000000
10000000
00000000
00000000
00010000
00000000
01000000
00000000
00000000
00001000
00000000
00000000
00010000
00000000
,
00000100
00000000
00000000
00000000
00001000
00000000
00000010
00000000
00000100
00000000
00000000
00000001
00000000
00000000
00000010
00000000
,
00000100
00000000
00000000
00001000
00000000
00000000
00000001
00000000
00002000
00000000
00000000
00000000
00003100
00000000
00000000
00000000
,
00000100
00000000
00000000
00000000
00010000
00000000
00001000
00000000
00100000
00000000
00000000
00010000
00000000
00000000
01000000
00000000
,
00000000
10000000
00000000
00000000
01000000
00000000
00010000
00000000
00000000
00000000
00100000
00000000
01000000
00000000
00000000
00000000
,
10000000
00000000
00000000
00000000
00100000
00000000
01000000
00000000
00010000
00000000
00000000
00100000
00000000
00000000
00001000
00000000
,
00010000
00000000
00000000
00000100
00000000
00000000
00001000
00000000
00000010
00000000
00000100
00000000
00000001
00000000
00001000
00000000
,
00000001
00000000
00000000
00000010
00000000
00000000
00001000
00000000
00000010
00000000
00000000
00000000
00001001
00000000
00000000
00000000
,
00000001
00000000
00000100
00000010
00000000
00000100
00000010
00000000
00001000
00000000
00000100
00000000
00010000
00000000
00001000
00000000
,
00100000
00000000
00000000
00010000
00000000
00000000
01000000
00000000
00100000
00000000
00000000
00000000
10100000
00000000
00000000
00000000
,
00100000
01000000
01000000
00010000
00010000
00100000
10000000
00100000
,
00010000
00000000
00000000
01000000
00000000
00000000
10000000
00000000
01000000
00000000
00000000
00000000
10010000
00000000
00000000
00000000
,
10000000
00000000
01000000
00100000
00000000
01000000
00100000
00000000
00010000
00000000
01000000
00000000
00001000
00000000
00010000
00000000
,
00000100
00000000
00000000
00001000
00000000
00000000
00000010
00000000
00000100
00000000
00000000
00000000
00000101
00000000
00000000
00000000
,
00000001
00000000
00000000
00000100
00000000
00000000
00000010
00001000
00000100
00000000
00000000
00010000
00000000
00000000
00001000
00000000
,
00200000
00001000
00010000
00301000
,
00010000
00000100
00001000
00000000
00000010
00000100
00000001
00000000
,
00002000
00000100
00000001
00003010
,
00000010
00000000
00000100
00000000
00000001
00000000
00000000
00000000
00001000
00000001
00001000
00000000
00000100
00000000
00000000
00000000
,
00001000
00000000
00000000
00000000
00000001
00000000
00000100
00000000
00000010
00000000
00000000
00001000
00000000
00000000
00000100
00000000
,
00010000
00000000
00001000
00000000
00100000
00010000
01000000
00000000
,
00010000
00000000
00000000
00000000
10000000
00000000
01000000
00000000
00100000
00000000
00000000
00010000
00000000
00000000
01000000
00000000
,
00001000
00000000
00000000
00010000
00000000
00000000
00000100
00000000
00001000
00000000
00000001
00000000
00001001
00000000
00000000
00000000
,
00000001
00000000
00000000
00000000
00000010
00000000
00000001
00000000
00000100
00000000
00000000
00000010
00000000
00000000
00001000
00000000
,
00000100
00000000
00010000
00000000
00001000
00100000
00010000
00000000
,
01000000
00000000
00000000
00000000
00100000
00000000
10000000
00000000
00010000
00000000
00000000
00100000
00000000
00000000
01000000
00000000
,
10000000
00000000
00000000
01000000
00000000
00000000
00010000
00000000
10000000
00000000
00000000
00100000
00000000
00000000
00010000
00000000
,
01000000
00000000
00000000
10000000
00000000
00000000
01000000
00000000
00010000
00000000
00000000
00000000
10010000
00000000
00000000
00000000
,
10000000
00000000
00100000
01000000
00000000
00010000
01000000
00000000
00010000
00000000
00100000
00000000
00001000
00000000
00010000
00000000
,
00000100
00000000
00000000
00001000
00000000
00000000
00000010
00000000
00000100
00000000
00000000
00000000
00000101
00000000
00000000
00000000
,
00000100
00000010
00000010
00001000
00001000
00000100
00000001
00000100
,
00001000
00000000
00000000
00000010
00000000
00000000
00000001
00000000
00000010
00000000
00000000
00000000
00001001
00000000
00000000
00000000
,
00000001
00000000
00000010
00000100
00000000
00001000
00000100
00000000
00001000
00000000
00000010
00000000
00010000
00000000
00001000
00000000
,
00100000
00000000
00000000
00010000
00000000
00000000
01000000
00000000
00100000
00000000
00000000
00000000
10100000
00000000
00000000
00000000
,
10000000
00000000
00000000
00100000
00000000
00000000
01000000
00010000
00100000
00000000
00000000
00001000
00000000
00000000
00010000
00000000
,
00010100
00000000
00000000
00001100
00000000
00000000
00000110
00000000
00001001
00000000
00000000
00000000
00000110
00000000
00000010
00000000
,
00001000
00000000
00000001
00001000
00000000
00001000
00000001
00000000
00001000
00000000
00000100
00000000
00010000
00000000
00001000
00000000
,
00101000
00000000
00000000
00110000
00000000
00000000
01100000
00000000
10010000
00000000
00000000
00000000
01100000
00000000
00000000
00000000
,
00010000
00100000
00100000
00001000
00001000
00010000
00000100
00010000
,
00010100
00000000
00000000
00001100
00000000
00000000
00001010
00000000
00000110
00000000
00000000
00000000
00001001
00000000
00000001
00000000
,
00000100
00000000
00000010
00000100
00000000
00000100
00000010
00000000
00001000
00000000
00000100
00000000
00010000
00000000
00001000
00000000
,
00101000
00000000
00000000
00110000
00000000
00000000
01010000
00000000
01100000
00000000
00000000
00000000
10010000
00000000
10000000
00000000
,
10100000
00000000
00000000
01010000
00000000
00000000
00010000
10000000
00010000
00000000
00000000
00110000
00000000
00000000
01100000
00000000
,
12000000
00000000
00000000
00010000
00000000
00000000
00010000
00000000
13000000
00000000
00000000
00000000
10010000
00000000
00000000
00000000
,
00010000
01000000
00001000
00010000
00000100
00001000
00000010
00000000
,
00001020
00000000
00000000
00000001
00000000
00000000
00000001
00000000
00001030
00000000
00000000
00000000
00001001
00000000
00000000
00000000
,
00000001
00000100
00001000
00010000
01000000
10000000
00100000
01000000
,
00010000
00000000
00000000
00000000
00000000
00000000
01100000
00000000
00000000
00000000
00000000
00000000
20000000
00020000
00000000
00000000
00000000
00000000
00000000
00000000
00000000
00000000
00000000
00000000
,
00000000
00000000
30030000
00000000
;
