#TITLE:Instamatic Rip;
#SUBTITLE:;
#ARTIST:Smashtrax;
#TITLETRANSLIT:;
#SUBTITLETRANSLIT:;
#ARTISTTRANSLIT:;
#GENRE:;
#CREDIT:;
#MUSIC:31. Instamatic Rip.mp3;
#BANNER:;
#BACKGROUND:;
#CDTITLE:;
#SAMPLESTART:0.000;
#SAMPLELENGTH:0.000;
#SELECTABLE:YES;
#OFFSET:-0.070;
#BPMS:0.000=100.000;
#STOPS:;
#BGCHANGES:;
#FGCHANGES:;

//--------------- dance-single - MEGAtive ----------------
#NOTES:
     dance-single:
     MEGAtive:
     Beginner:
     1:
     0,0,0,0,0:
0000
0000
0000
0000
,
0000
0000
0000
0000
,
1000
0000
0000
0000
,
0001
0000
0100
0000
,
0002
0000
0000
0000
,
2003
0000
0000
0000
,
3100
0000
0000
0000
,
0010
0000
0100
0000
,
0010
0000
0000
0000
,
0001
0000
1000
0000
,
0020
0000
0000
0000
,
0230
0000
0000
0000
,
0301
0000
0000
0000
,
1000
0000
0100
0000
,
0010
0000
0000
0000
,
0100
0000
1000
0000
,
0002
0000
0000
0000
,
0203
0000
0000
0000
,
0320
0000
0000
0000
,
1030
0000
1000
0000
,
2000
0000
0000
0000
,
3200
0000
0000
0000
,
0320
0000
0000
0000
,
0031
0000
0000
0000
,
1000
0000
0000
0000
,
0100
0000
0010
0000
,
0100
0000
0000
0000
,
0010
0000
0001
0000
,
2000
0000
0000
0000
,
3020
0000
0000
0000
,
0130
0000
0000
0000
,
0010
0000
1000
0000
,
0001
0000
0000
0000
,
0010
0000
0100
0000
,
0020
0000
0000
0000
,
0032
0000
0000
0000
,
1003
0000
0000
0000
,
0010
0000
0100
0000
,
0010
0000
0000
0000
,
1000
0000
0001
0000
,
0020
0000
0000
0000
,
0230
0000
0000
0000
,
2300
0000
0000
0000
,
3002
0000
0000
0000
,
0203
0000
0000
0000
,
0320
0000
0000
0000
,
2030
0000
0000
0000
,
0002
0000
0000
0000
,
3003
0000
0000
0000
;

//--------------- dance-single - UNI4 Step Team ----------------
#NOTES:
     dance-single:
     UNI4 Step Team:
     Easy:
     6:
     0,0,0,0,0:
0000
0000
0000
0000
,
0000
0000
0000
0000
,
1000
0000
0000
0000
0100
0100
0010
0000
,
0001
0000
1000
0001
,
0100
0000
0100
0000
0000
0100
0001
0000
,
0010
0000
0010
0000
0000
0010
1000
0000
,
0001
0000
1000
0000
0010
0010
0100
0000
,
0001
1000
0110
1001
,
1000
0000
0001
0000
0100
0100
0010
0000
,
1000
0001
0010
0100
,
1000
0000
1000
0000
0001
1000
0001
0000
,
0001
0000
0001
0000
1000
0001
1000
0000
,
0010
0000
0100
0000
0001
0001
1000
0000
,
0100
0010
0011
1100
,
0100
0000
0010
0000
0001
0001
1000
0000
,
0010
0100
0101
1010
,
0001
0000
0001
0000
0010
0001
0010
0000
,
0100
0000
0100
0000
1000
0100
1000
0000
,
0010
0000
0010
0000
1000
0010
1000
0000
,
0001
0000
0001
0000
0001
0100
0001
0000
,
1000
0000
0010
0100
0100
1000
0100
0000
,
0001
0000
0010
0100
0100
0001
0100
0000
,
0010
0000
0001
1000
1000
0010
0100
0000
,
2002
0000
0000
3003
,
1000
0000
0001
0000
0100
0100
0010
0000
,
1000
0001
0011
1010
,
1000
0000
0001
0000
0100
0100
0010
0000
,
1000
0001
0011
1100
,
1000
0000
0100
0010
0001
0100
0001
0000
,
0001
0000
0100
0010
1000
0100
0010
0000
,
0001
0000
1000
0000
0010
0010
0100
0000
,
0001
1000
1100
0101
,
1000
0000
0001
0000
0100
0100
0010
0000
,
1000
0001
0011
1100
,
0200
0000
0310
0001
0001
0100
0010
0000
,
0200
0000
0310
1000
1000
0100
0010
0000
,
0001
0000
1000
0000
0010
0100
1000
0000
,
0001
1000
0110
1001
,
1000
0000
0001
0000
0010
0100
0001
0000
,
1000
0001
0110
1001
,
2000
0000
0000
0000
0010
0100
3001
0000
,
0002
0000
0000
0000
0010
0100
1003
0000
,
1001
0000
1100
0000
0001
1000
0100
0000
,
1001
0000
0101
0000
1000
0001
0100
0000
,
1000
0100
0010
1000
0100
0010
0100
0000
,
0001
0100
0010
0001
0100
0010
0100
0000
,
0010
1000
0001
1000
0100
0010
0001
0000
,
2002
0000
0000
0000
,
3003
0000
0000
0000
;

//--------------- dance-single - UNI4 Step Team ----------------
#NOTES:
     dance-single:
     UNI4 Step Team:
     Medium:
     10:
     0,0,0,0,0:
0000
0000
0000
0000
,
0000
0000
0000
0000
,
1000
0000
0000
0001
0000
0100
0000
0000
1000
0000
1000
0000
0100
0000
0000
0000
,
0001
0000
0000
1000
0000
0100
0000
0000
0020
0000
0000
0000
0032
0000
0000
0000
,
0103
0000
0000
0100
0010
0000
0000
0010
1000
0000
0000
1000
0100
0000
0000
0000
,
0010
0000
0000
0010
0001
0000
0000
0001
1000
0000
0000
1000
0010
0000
0000
0000
,
0100
0000
0000
0001
0000
1000
0000
0000
1100
0000
0010
0000
0101
0000
0000
0000
,
0100
0000
0000
0001
0000
1000
0000
0000
1010
0000
0000
0000
0011
0000
0000
0000
,
0001
0000
0000
1000
0000
0010
0000
0000
1100
0000
0010
0000
0101
0000
0000
0000
,
1000
0000
0000
0001
0000
0010
0000
0000
0011
0000
0000
0000
1100
0000
0000
0000
,
0100
0000
0000
0100
0010
0000
0000
0010
0001
0000
0000
0001
1000
0000
0000
0000
,
0010
0000
0000
0010
0100
0000
0000
0100
1000
0000
0000
1000
0100
0000
0000
0000
,
0001
0000
0000
1000
0000
0001
0000
0010
0100
0000
0110
0000
0000
0000
0000
0000
,
1000
0000
0000
0001
0000
1000
0000
0010
0100
0000
0000
0000
0001
0000
0000
0000
,
1000
0000
0000
0001
0000
1000
0000
0010
0100
0000
0010
0000
0000
0000
0000
0000
,
1000
0000
0000
0001
0000
1000
0000
0100
0010
0000
0000
0000
0001
0000
0000
0000
,
1000
0000
0000
0100
0010
0000
0000
0010
0001
0000
0000
0001
1000
0000
0000
0000
,
0001
0000
0000
0001
0100
0000
0000
0100
0010
0000
0000
0010
1000
0000
0000
0000
,
1000
0000
0000
1000
0100
0000
0000
0100
0001
0000
0000
0001
0100
0000
0000
0000
,
0010
0000
0000
0010
0001
0000
0000
0001
0100
0000
0000
0100
1000
0000
0000
0000
,
0100
0000
0000
0100
0001
0000
0000
0001
1000
0000
0000
1000
0010
0000
0000
0000
,
1000
0000
0000
1000
0100
0000
0000
0100
0010
0000
0000
0010
0100
0000
0000
0000
,
0010
0000
0000
0010
0001
0000
0000
0001
1000
0000
0000
1000
0010
0000
0000
0000
,
0220
0000
0000
0330
,
1000
0000
0000
0001
0000
0100
0000
0000
1100
0000
0101
0000
0011
0000
0000
0000
,
0001
0000
0000
1000
0000
0100
0000
0000
0101
0000
0000
0000
0011
0000
0000
0000
,
0001
0000
0000
0010
0000
1000
0000
0000
1010
0000
0110
0000
0011
0000
0000
0000
,
1000
0000
0000
0010
0000
0001
0000
0000
0011
0000
0000
0000
1010
0000
0000
0000
,
0001
0000
0000
0001
1000
0000
0000
0000
0100
0000
0000
0100
0010
0000
0000
0000
,
0010
0000
0000
0010
0001
0000
0000
0001
0100
0000
0000
0100
1000
0000
0000
0000
,
0100
0000
0000
0010
0000
1000
0000
0001
0010
0000
0110
0000
1100
0000
0000
0000
,
0100
0000
0000
0010
0000
0001
0000
1000
0010
0000
0000
0000
1010
0000
0000
0000
,
0001
1000
0000
0100
0000
0010
0000
0001
1000
0000
0110
0000
1001
0000
0000
0000
,
1000
0001
0000
0100
0000
0010
0000
1000
0001
0000
0000
0000
0110
0000
0000
0000
,
1000
0000
0000
0100
1000
0000
0000
0100
1000
0000
0010
0000
0100
0000
0000
0000
,
0001
0000
0000
0100
0001
0000
0000
0100
0001
0000
0010
0000
0100
0000
0000
0000
,
1000
0001
0000
0100
0000
0010
0000
1000
0100
0000
0100
0000
0100
0000
0000
0000
,
1000
0001
0000
0100
0000
0010
0000
1000
0001
0000
0000
0000
0110
0000
0000
0000
,
0001
1000
0000
0100
0000
0010
0000
0001
1000
0000
1000
0000
0100
0000
0000
0000
,
1000
0001
0000
0100
0000
0010
0000
1000
0001
0000
0000
0000
0110
0000
0000
0000
,
1000
0000
0000
0100
0001
0000
0000
0100
1000
0000
0100
0000
0001
0000
0000
0000
,
0100
0000
0000
0010
0001
0000
0000
0010
0100
0000
0010
0000
0001
0000
0000
0000
,
0001
0000
0000
0100
1000
0000
0000
0100
0001
0000
0100
0000
1000
0000
0000
0000
,
0100
0000
0000
0010
1000
0000
0000
0010
0100
0000
0010
0000
1000
0000
0000
0000
,
0001
0000
0000
1000
0100
0000
0000
1000
0001
0000
1000
0000
0100
0000
0000
0000
,
0010
0000
0000
0001
1000
0000
0000
0001
0010
0000
0001
0000
1000
0000
0000
0000
,
0010
0000
0000
0100
0001
0000
0000
0100
0010
0000
0100
0000
0001
0000
0000
0000
,
2002
0000
0000
0000
,
3003
0000
0000
0000
;

//--------------- dance-single - MEGAtive ----------------
#NOTES:
     dance-single:
     MEGAtive:
     Hard:
     12:
     0,0,0,0,0:
0000
0000
0000
0000
,
0000
0000
0000
0000
,
0001
0010
0000
0010
0000
0010
0000
0010
0001
0000
1000
0000
0010
0100
0010
0000
,
1000
0100
0000
0100
0000
0100
0000
0100
1000
0000
0010
0000
0110
0000
0100
0000
,
0002
0000
0000
0100
0000
0000
1000
0000
0000
0010
0000
0000
1003
0100
0010
0100
,
2000
0000
0000
0001
0000
0000
0010
0000
0000
0001
0000
0000
3100
0010
0100
0000
,
1000
0001
0000
0001
0000
0001
0000
0001
0100
0000
1000
0000
0100
0010
0100
0000
,
0001
1000
0000
1000
0000
1000
0000
1000
0100
0000
0001
0000
0100
0000
1000
0000
,
0001
1000
0000
1000
0000
1000
0000
1000
0010
0000
0001
0000
0010
0100
0010
0000
,
1000
0001
0000
0001
0000
0001
0000
0001
0010
0000
1000
0000
0010
0000
0001
0000
,
2000
0000
0100
0000
0100
0000
3001
0100
0010
0000
1000
0000
1010
0000
0001
0000
,
0002
0000
0010
0000
0010
0000
1003
0100
0010
0000
0001
0000
0101
0000
1000
0000
,
1000
0100
0000
0100
0000
0100
0000
0100
1000
0000
0010
0000
0001
0010
1000
0000
,
0001
0100
0000
0100
0000
0100
0000
0100
0001
0000
0010
0100
1000
0000
0001
0000
,
1000
0010
0000
0010
0000
0010
0000
0010
1000
0000
0100
0000
0001
0100
1000
0000
,
0001
0010
0000
0010
0000
0010
0000
0010
0001
0000
0100
0010
1000
0000
0001
0000
,
0010
0100
0010
0001
1000
0000
0100
0010
0100
0000
1000
0000
1000
0000
0001
0100
,
0010
0100
0010
1000
0001
0000
0010
0100
0010
0000
0001
0000
1001
0000
1000
0000
,
0010
0100
0010
1000
0100
0000
0010
0001
0100
0000
0010
0000
0010
0000
0100
0001
,
1000
0001
0010
1000
0010
0000
0010
0001
0100
1000
0100
0000
0010
0000
1000
0000
,
0001
1000
0100
0010
0001
0000
0100
0010
1000
0000
0001
0000
0101
0000
0100
0000
,
0010
1000
0100
0010
0001
0000
1000
0010
0100
0000
0010
0000
1010
0000
1000
0000
,
0001
0100
0010
1000
0100
0000
0010
0001
0010
0000
0100
0000
1100
0000
1000
0000
,
0001
0000
0100
0020
0000
0000
1030
0000
0100
0020
0000
0000
0000
0000
0000
0000
,
0031
0100
0000
0100
0000
0100
0000
0100
0010
0000
0001
0000
0010
1000
0001
0000
,
1000
0100
0000
0100
0000
0100
0000
0100
0020
0000
1030
0010
0002
0000
1000
0000
,
0103
0010
0000
0010
0000
0010
0000
0010
0100
0000
1000
0000
0001
0010
0100
0000
,
0001
0010
0000
0010
0000
0010
0000
0010
0200
0000
0001
0000
2300
0000
3001
0100
,
0020
0000
0000
0001
0000
0000
0130
0010
0100
0001
1000
0000
1100
0000
0001
0000
,
0201
0000
0000
1000
0000
0000
0310
0100
0001
0010
1000
0000
0001
0100
1000
0000
,
0001
0010
0000
0010
0000
0010
0000
0010
0100
0000
0001
0000
0100
1000
0001
0000
,
1000
0010
0000
0010
0000
0010
0000
0010
0200
0000
1300
0100
0002
0000
1000
0000
,
0013
0100
0000
0100
0000
0100
0000
0100
0010
0000
1000
0000
0001
0100
0010
0000
,
0001
0100
0000
0100
0000
0100
0000
0100
0020
0000
0001
0000
2030
0000
3001
0010
,
0200
0000
0010
0000
0010
0000
1300
0001
0100
0000
0110
0000
1001
0000
0001
0000
,
0021
0000
0100
0000
0100
0000
0031
1000
0010
0002
0000
0013
0100
0010
1000
0000
,
0100
1000
0000
1000
0000
1000
0001
0100
1000
0000
0100
0000
0010
0100
0001
0000
,
0010
0001
0000
0001
0000
0001
1000
0100
0002
0000
0103
1000
0002
0000
0103
0000
,
0010
1000
0000
1000
0000
1000
0001
0010
1000
0000
0010
0000
0100
0010
0001
0000
,
0100
0001
0000
0001
0000
0001
1000
0010
0002
0000
0013
1000
0002
0000
0013
0000
,
0001
0010
0100
1000
0010
0000
0100
0001
0010
0000
1000
0000
1010
0000
0010
0100
,
1000
0001
0100
0010
1000
0000
0100
1000
0010
0000
0001
0000
0011
0000
0010
1000
,
0001
0010
0100
1000
0010
0000
0100
0001
0010
0000
1000
0000
1010
0000
0010
0100
,
1000
0001
0100
1000
0100
0000
0010
1000
0100
0001
0100
0000
0110
0000
0010
0000
,
1001
0000
0001
0100
0010
0000
0001
0010
1000
0000
0100
0000
0110
0000
0100
0000
,
1001
0000
1000
0100
0010
0000
1000
0010
0001
0000
0100
0000
0110
0000
0001
0000
,
1001
0000
1000
0010
0100
0000
1000
0100
0001
0000
0010
0000
0011
0000
0010
0000
,
0100
0001
0100
2000
0000
0000
3010
0001
0010
2000
0000
0000
0000
0000
0000
0000
,
3000
0000
0000
0000
;
