#TITLE:INJECTION OF LOVE(e);
#SUBTITLE:;
#ARTIST:AKIRA YAMAOKA;
#TITLETRANSLIT:;
#SUBTITLETRANSLIT:;
#ARTISTTRANSLIT:;
#GENRE:;
#CREDIT:;
#MUSIC:INJECTION OF LOVE(e).ogg;
#BANNER:INJECTION OF LOVE(e).png;
#BACKGROUND:INJECTION OF LOVE(e)-bg.png;
#CDTITLE:./CDTITLES/beatmaniaIIDX.PNG;
#SAMPLESTART:58.478;
#SAMPLELENGTH:15.000;
#SELECTABLE:YES;
#OFFSET:-0.001;
#BPMS:0.000=160.000;
#STOPS:50.000=0.375
,153.000=0.375
;
#DISPLAYBPM:160.000;
#BGCHANGES:3.750=INJECTION OF LOVE(e).avi=1.000=1=0=0=StretchNoLoop==CrossFade==,
253.250=INJECTION OF LOVE(e)-bg.png=1.000=0=0=1
;
#FGCHANGES:;

//--------------- dance-single - KONAMI ----------------
#NOTES:
     dance-single:
     KONAMI:
     Beginner:
     3:
     0,0,0,0,0:
0000
0000
0000
0000
,
0000
0000
0000
0000
,
0000
0000
0000
0000
,
0000
0000
0000
0000
,
0000
0000
0000
0000
,
1000
0000
1000
0000
,
0001
0000
0001
0000
,
1000
0000
1000
0000
,
0001
0000
0001
0000
,
0100
0000
0100
0000
,
0010
0000
0010
0000
,
0001
0000
1000
0000
,
0001
0000
1001
0000
,
0000
0010
0000
0010
,
0000
0001
0001
0000
,
0000
1000
0000
1000
,
0000
0100
0100
0000
,
0000
1000
0000
1000
,
0000
0001
0000
0001
,
0000
0010
0000
0010
,
0000
0100
0000
0100
,
0000
0001
0000
1000
,
0000
0001
0001
0000
,
0000
1000
0000
0001
,
0000
0100
0100
0000
,
0000
0001
0000
1000
,
0000
1000
0000
0001
,
0000
0001
0000
0100
,
0000
0001
0000
1000
,
0000
0000
0000
0000
,
0000
0001
0001
0000
,
0000
0000
0000
0000
,
0000
1000
1000
0000
,
0000
0001
0000
0001
,
0000
1000
1000
0000
,
0000
1000
0000
0000
,
0000
1000
1000
1000
,
0000
0001
0000
1000
,
1000
1000
0000
0000
,
1000
0000
0001
0001
,
0001
0000
1000
0000
,
0100
0000
0010
0010
,
0010
0000
0100
0000
,
1000
0000
0001
0000
,
1000
0000
0001
0000
,
1000
0000
0001
0001
,
0001
0001
0000
0000
,
1000
0000
0010
0000
,
0100
0000
0001
0000
,
1000
0000
0010
0000
,
1000
1000
0000
0000
,
0100
0000
0010
0000
,
0001
0001
0000
1000
,
0000
0100
0000
1000
,
0000
0001
0000
0000
,
1000
0000
1000
0000
,
0001
0000
1000
0000
,
0100
0000
0010
0000
,
0001
0000
0010
0000
,
0001
0000
0001
0000
,
0100
0000
0010
0000
,
1000
0000
0100
0000
,
1000
1000
1000
0000
,
1001
0000
0000
0000
;

//--------------- dance-single - KONAMI ----------------
#NOTES:
     dance-single:
     KONAMI:
     Easy:
     5:
     0,0,0,0,0:
0000
0000
0000
0000
,
0000
0000
0000
0000
,
0000
0000
0000
0000
,
0000
0000
0000
0000
,
0000
0000
0000
0000
,
0001
0000
1000
0000
,
0001
0000
1000
0001
,
1000
0000
0001
0000
,
0100
0000
0001
0010
,
0001
0000
1000
0000
,
1000
0000
0001
0100
,
0001
0000
1000
0000
,
0001
1000
1001
1000
,
0000
0100
0000
1000
,
0100
1000
0001
0000
,
0000
1000
0000
0001
,
0000
1000
1000
0001
,
0001
0100
0000
1000
,
1000
0100
0000
0001
,
0001
0100
0000
0001
,
1000
0001
0100
0000
,
0000
0010
1000
0001
,
0000
0100
0001
0100
,
0000
1000
0000
0001
,
0000
0001
1000
0001
,
0001
0010
0000
1000
,
1000
0010
0000
0001
,
0001
0010
0000
0001
,
0001
1000
1000
0010
,
0000
0100
0000
0001
,
0000
1001
1001
0000
,
0000
0010
0000
1000
,
0000
1001
1001
0000
,
0000
0001
0000
0100
,
0000
1001
1001
0000
,
0000
1000
0000
0100
,
0000
1000
0001
0010
,
0001
1000
0001
1000
,
1000
0001
1000
0000
,
0001
0000
0100
0010
,
0100
0100
0010
0000
,
0100
0000
0001
1000
,
0001
0001
1000
0000
,
0100
0000
1000
0000
,
0010
0000
1000
0001
,
1000
0001
0010
0100
,
0100
0000
0000
0100
,
0000
1000
0000
0100
,
0100
0100
0000
0010
,
0000
0001
0000
1000
,
1000
1000
0000
0001
,
0000
1000
0000
0010
,
0000
0100
0000
0001
,
0100
0001
1000
0010
,
1000
0010
0000
1000
,
0000
0001
0000
1000
,
0000
0001
0000
1000
,
0000
0100
0010
0001
,
0010
0100
0000
1000
,
0000
0010
0000
1000
,
0000
0010
0000
0100
,
0000
1000
0100
0001
,
0010
1000
1001
0000
,
1001
0000
0000
0000
;

//--------------- dance-single - KONAMI ----------------
#NOTES:
     dance-single:
     KONAMI:
     Medium:
     7:
     0,0,0,0,0:
0000
0000
0000
0000
,
0000
0000
0000
0000
,
0000
0000
0000
0000
,
0000
0000
0000
0000
,
0000
0000
0000
0000
,
0010
2000
0010
3100
,
1100
0000
0001
0001
,
0100
0002
0100
0013
,
0011
0000
1000
1000
,
0001
0020
0001
0130
,
0110
0000
0100
0100
,
1000
0020
1000
0130
,
0110
0001
2000
3001
,
1000
0001
0010
0100
,
1000
0100
0010
0001
,
0001
1000
0100
0010
,
0001
0001
0100
0010
,
1000
0001
1001
0010
,
0100
0001
0101
0010
,
0100
1000
1100
0001
,
1000
0010
0001
0010
,
1000
0100
0010
0001
,
0010
0001
0100
1000
,
0100
0001
0010
0100
,
1000
0001
0001
0010
,
0001
0010
0011
0100
,
1000
0010
1010
0100
,
0001
1000
1001
0010
,
1000
0100
0100
0200
,
0300
2000
3000
0002
,
0003
1000
0100
0020
,
0030
0200
0300
0020
,
0030
0001
0100
0020
,
0030
0200
0300
0020
,
0030
1000
0100
0002
,
0003
0200
0300
1000
,
0010
0100
0001
0001
,
1000
1000
0001
0100
,
0010
0220
0330
1000
,
1000
0001
0001
1000
,
1100
0011
0000
0010
,
0010
0100
0100
0010
,
0110
1001
0000
1000
,
0100
1100
0000
0001
,
0100
0101
0002
0013
,
0020
0130
0200
1300
,
0010
1001
0000
0001
,
0001
1000
1000
0001
,
0101
1010
0000
0100
,
0100
0010
0010
0100
,
0110
1001
0000
0001
,
0100
0101
0000
1000
,
0100
1100
2000
3010
,
0020
0130
0200
0301
,
0010
1001
0000
0001
,
0100
0110
0000
1000
,
0100
0110
0000
1000
,
0100
0001
0010
1000
,
0100
0001
0000
1100
,
1000
0100
1000
0101
,
0001
0100
0001
1000
,
0001
1000
0100
0010
,
0100
0110
2001
0001
,
0002
3003
0000
0000
;

//--------------- dance-single - KONAMI ----------------
#NOTES:
     dance-single:
     KONAMI:
     Hard:
     11:
     0,0,0,0,0:
0000
0000
0000
0000
,
0000
0000
0000
0000
,
0000
0000
0000
0000
,
0000
0000
0000
0000
,
0000
0000
0000
0000
,
1000
0000
0000
1100
0000
0000
0010
0000
0000
0100
0000
1000
,
0000
0000
0000
0000
0000
0000
1000
0000
0001
0000
0010
0000
,
0001
0000
0000
0101
0000
0000
0010
0000
0000
0010
0000
0001
,
0000
0000
0000
0000
0000
0000
1000
0000
0100
0000
0010
0000
,
0100
0000
0000
0110
0000
0000
0100
0000
0000
1000
0000
0001
,
0000
0000
0000
0000
0000
0000
0001
0000
0100
0000
0010
0000
,
0100
0000
0000
0110
0000
0000
0100
0000
0000
0001
0000
1000
,
0000
1001
0210
0301
,
0001
0000
0000
0000
0000
1000
0002
0000
0000
0013
0000
0000
,
0010
0000
0000
0000
0000
0001
0200
0000
0000
0301
0000
0000
,
0001
0000
0000
0000
0000
1000
0020
0000
0000
0130
0000
0000
,
0100
0000
0000
0010
0000
1000
0000
0000
0010
1000
0000
0001
,
0010
0000
0100
0000
0000
1000
0000
0000
0100
1000
0000
0001
,
0100
0000
0010
0000
0000
1000
0000
0000
0100
0010
0000
0001
,
1000
0000
0010
0000
0000
0100
0000
0000
0001
1000
0000
1000
,
0100
0000
0100
0010
0000
0010
0001
0000
0000
1000
0000
0000
,
1000
0000
0000
1000
0000
0001
0100
0000
0001
0100
0000
0000
,
0010
0000
0000
0010
0000
1000
0001
0000
0000
0010
0000
0000
,
0010
0000
0000
0010
0000
0100
2000
0000
0000
3010
0000
0000
,
0010
0000
0000
0010
0000
1000
0001
0000
0010
0001
0000
1000
,
0010
0000
0100
0000
0000
0001
0000
0000
0100
0001
0000
1000
,
0100
0000
0010
0000
0000
0001
0000
0000
0100
0010
0000
1000
,
0001
0000
0010
0000
0000
0100
0000
0000
1000
0001
0000
0001
,
0100
0000
0100
0010
0000
0010
1000
0000
0000
0002
0000
0000
,
0000
0100
0000
0100
,
0003
1001
1001
2000
,
0000
0100
0000
0100
,
3000
1001
1001
0001
,
0000
0000
1000
0010
0000
0000
0000
0000
1000
0100
0000
0000
,
0000
0110
1001
1000
,
0000
0000
0001
0010
0000
0000
0000
0000
0001
0100
0000
0000
,
0001
0000
0010
0001
0000
0000
1000
0000
0100
1000
0000
0000
,
0001
0000
0100
0001
0000
0000
1000
0000
0010
1000
0000
0000
,
0001
0010
0100
2000
0000
0000
3010
0000
0000
0110
0000
0000
,
0101
1010
0101
0011
,
1100
1001
0000
0011
,
1001
0101
1010
1001
,
1100
0000
0000
0110
0000
0000
0001
0000
0100
0010
0000
1000
,
0000
0000
0100
0010
0000
0001
0000
0000
0100
0010
0000
1000
,
0000
0000
0001
0010
0000
0010
0100
0000
0100
1000
0000
0010
,
0000
0000
0100
0001
0000
0010
0000
0000
0100
1000
0000
0010
,
1000
0001
1000
0001
1000
0001
1000
0000
0000
1100
0000
0000
,
0110
0011
0101
0110
,
1100
0110
0000
0101
,
1010
1100
0011
1001
,
1100
0000
0000
0110
0000
0000
0001
0000
1000
0100
0000
0010
,
0000
0000
0001
0100
0000
0010
0000
0000
1000
0100
0000
0010
,
0000
0000
0001
0100
0000
0100
0010
0000
0010
1000
0000
0100
,
0000
0000
0010
0001
0000
0100
0000
0000
0010
1000
0000
0100
,
1000
0100
1000
0100
1000
0100
1000
0000
0000
0001
0000
0100
,
0010
0000
0100
0010
0000
1000
0000
0000
0000
0100
0000
0010
,
0001
0000
0010
0001
0000
1000
0000
0000
0000
0020
0000
0000
,
0230
0302
0023
2030
,
3020
0000
0000
0031
0000
0000
1000
0000
0001
0000
0000
0010
,
0001
0000
0010
0000
0000
0100
0000
0000
1000
0000
0000
0100
,
1000
0000
0010
0000
0000
0100
0000
0000
0001
0000
0000
0100
,
0001
0000
0100
0000
0000
0010
0000
0000
1000
0000
0000
0001
,
1000
0000
0000
0001
0000
0000
0010
0100
0010
0100
0010
0100
,
2000
0000
3000
0000
;

//--------------- dance-single - forcednature ----------------
#NOTES:
     dance-single:
     forcednature:
     Challenge:
     13:
     0,0,0,0,0:
0000
0000
0000
0000
,
0000
0000
0000
0000
,
0000
0000
0000
0000
,
0000
0000
0000
0000
,
0000
0000
0000
0000
0000
0000
0002
0000
0203
0000
0320
0000
,
1030
0000
1000
0100
0000
0100
0010
0001
1000
0001
0000
0000
,
0100
0000
0100
0001
0000
0000
0020
0000
0230
0000
2300
0000
,
3010
0000
0010
0100
0000
0100
0001
1000
0100
0010
0000
0000
,
0100
0000
0100
1000
0000
0000
0002
0000
0203
0000
0320
0000
,
1030
0000
1000
0100
0000
0010
0001
1000
0001
0100
0000
0000
,
0010
0000
0010
1000
0001
0001
0020
0000
0230
0000
2300
0000
,
3001
0000
0010
0001
0000
0100
0010
1000
0001
1000
0000
0100
,
0010
0000
0001
0100
0000
0000
1001
0000
0000
1100
0000
0000
,
1100
0000
0000
0001
0000
0100
0010
0000
1000
0002
0000
0000
,
1000
0023
0130
1100
,
0011
0000
0000
1000
0000
0001
0010
0000
0001
2000
0000
0000
,
0010
0000
0000
3200
0000
0000
0310
0000
0001
0100
0000
0001
,
0010
0000
0110
0000
0000
1001
0000
0000
1000
0010
0000
0100
,
0001
0000
0110
0000
0000
1001
0000
0000
1000
0100
0000
0010
,
0001
0000
1010
0000
0000
0101
0000
0000
0010
0100
0000
0000
,
1001
0000
1000
0010
0000
0100
0001
0010
0001
1000
0000
0000
,
0101
0000
0000
1000
0000
0100
0010
0000
0001
2000
0000
0000
,
0010
3200
0310
0011
,
0101
0000
0000
1000
0000
0010
1000
0000
0001
0020
0000
0000
,
1000
0000
0000
0032
0000
0000
0103
0000
0010
1000
0000
0001
,
1000
0000
1100
0000
0000
0011
0000
0000
1000
0010
0000
0100
,
0001
0000
0110
0000
0000
1001
0000
0000
0001
0100
0000
1000
,
0100
0000
1010
0000
0000
0101
0000
1000
1000
0100
0000
0010
,
1000
0000
0010
0001
1000
0001
0100
0010
1000
0001
0000
0000
,
0002
0000
0000
0013
0000
0000
0010
0000
0020
0000
0000
0000
,
0030
0110
2002
0000
,
3003
0000
0000
2000
0000
0000
3010
0000
0020
0000
0000
0000
,
0030
0110
1001
0102
,
1003
2100
3001
2010
,
3001
0110
1001
1200
,
0301
0000
0000
0201
0000
0000
1300
0000
0100
0010
0000
0000
,
0110
0000
0001
1000
0000
0000
0110
0000
1000
0001
0010
0001
,
1000
0100
0010
0001
0100
0010
1000
0001
0010
0001
1000
0010
,
0100
0001
0010
0100
0000
0000
1100
0000
0001
0100
0000
1000
,
0100
0000
0010
0100
0000
0001
0100
0000
1000
0100
0000
0010
,
0100
0000
0001
1000
0000
0000
0001
0000
1000
0100
0000
0001
,
0100
0000
0010
0100
0000
1000
0100
0000
0001
0100
0000
0010
,
0100
0000
1000
0001
0000
0000
0100
0000
0001
0100
0000
0001
,
0020
0000
0000
0130
0000
0100
1000
0000
0010
0100
0000
0001
,
1000
0000
0000
1001
0000
0000
0001
0000
0001
0100
0010
1000
,
0001
0000
1000
0100
0010
0001
1000
0000
0001
0100
0010
1000
,
0100
0010
0100
1000
0010
0100
0001
0000
0001
0010
0000
0010
,
1000
0000
1000
0001
0000
0001
0100
0000
0100
1000
0000
1000
,
0001
0000
0000
1001
0000
0000
1000
0000
1000
0010
0000
0010
,
0001
0000
0001
1000
0000
1000
0100
0000
0100
0001
0000
0001
,
1000
0000
0000
1001
0000
0000
0001
0000
0100
0001
0000
0010
,
0200
0000
0000
1300
0000
0100
1000
0000
1000
0010
0000
0100
,
0001
0000
0000
0110
0000
1001
0000
0000
0001
0100
0000
1010
,
0000
0000
1000
0100
0000
0011
0000
0000
0100
0010
0000
1000
,
0001
0100
1000
0100
0001
0010
0001
0000
0000
0001
0000
0100
,
0001
0000
0010
0100
0000
1100
0000
0000
1000
0010
0000
1000
,
0001
0000
0010
0100
0000
1001
0000
0000
0001
0100
0000
1000
,
0100
0000
0010
1000
0000
0000
0011
0000
0000
0101
0000
0000
,
1010
0000
0000
1100
0000
0000
1000
0000
0001
0010
0000
0001
,
0100
0000
1000
0100
0000
0110
0000
0000
1000
0100
0000
0001
,
0100
0000
0010
0001
0000
1001
0000
0000
1000
0010
0000
0001
,
0010
0000
0100
0001
0000
0000
0011
0000
0000
1100
0000
0000
,
1010
0000
0000
0101
0000
0000
1000
0100
0001
0100
1000
0010
,
0200
0000
0300
0000
;

//--------------- dance-double - KONAMI ----------------
#NOTES:
     dance-double:
     KONAMI:
     Easy:
     6:
     0,0,0,0,0:
00000000
00000000
00000000
00000000
,
00000000
00000000
00000000
00000000
,
00000000
00000000
00000000
00000000
,
00000000
00000000
00000000
00000000
,
00000000
00000000
00000000
00000000
,
10000000
00000000
01000000
00000000
,
00010000
00000000
00001000
00010000
,
00001000
00000000
00001000
00000000
,
00000100
00000000
00000001
00001000
,
00000001
00000000
00000010
00000000
,
00001000
00000000
00010000
00000100
,
00010000
00000000
00001000
00000000
,
01000000
00010000
10010000
10000000
,
00000000
01000000
00000000
10000000
,
00100000
10000000
00010000
01000000
,
00000000
00001000
00000000
00010000
,
00000000
00001000
00000100
00000001
,
00000001
00000100
00000000
00000100
,
00000100
00001000
00000000
00010000
,
00010000
00001000
00000000
00100000
,
00010000
00010000
10000000
00000000
,
00000000
01000000
10000000
00010000
,
00000000
00100000
01000000
00100000
,
00000000
00001000
00010000
00001000
,
00000000
00000010
00001000
00000010
,
00000010
00000001
00000000
00000100
,
00000100
00001000
00000000
00010000
,
00010000
01000000
00000000
10000000
,
10000000
00010000
00010000
10000000
,
00000000
01000000
00000000
00010000
,
00000000
00011000
00011000
00000000
,
00000000
00001000
00000000
00000100
,
00000000
00001001
00001001
00000000
,
00000000
00000010
00000000
00001000
,
00000000
00011000
00011000
00000000
,
00000000
00010000
00000000
00100000
,
00000000
10000000
00010000
00100000
,
00010000
10000000
01000000
00010000
,
00010000
00001000
00010000
00000000
,
00000010
00000000
00001000
00000001
,
00001000
00001000
00000100
00000000
,
00010000
00000000
00001000
00010000
,
00001000
00001000
00100000
00000000
,
00010000
00000000
10000000
00000000
,
01000000
00000000
10000000
00010000
,
10000000
00010000
00100000
01000000
,
01000000
10000000
00000000
01000000
,
01000000
00010000
00000000
00001000
,
00010000
00001000
00000000
00000010
,
00000010
00000001
00000000
00001000
,
00000001
00001000
00000000
00000100
,
00000000
00010000
00000000
00001000
,
00000000
00100000
00000000
01000000
,
10000000
00100000
00010000
00001000
,
00010000
00001000
00000000
00000010
,
00000010
00000001
00000000
00001000
,
00001000
00000100
00000000
00000010
,
00000001
00000100
00000001
00000010
,
00001000
00010000
00000000
00001000
,
00001000
00100000
00000000
00010000
,
00010000
10000000
00000000
01000000
,
01000000
00010000
00001000
00000100
,
00000001
00000001
00000110
00000000
,
00000110
00000000
00000000
00000000
;

//--------------- dance-double - KONAMI ----------------
#NOTES:
     dance-double:
     KONAMI:
     Medium:
     7:
     0,0,0,0,0:
00000000
00000000
00000000
00000000
,
00000000
00000000
00000000
00000000
,
00000000
00000000
00000000
00000000
,
00000000
00000000
00000000
00000000
,
00000000
00000000
00000000
00000000
,
00020000
00032000
00103000
00010000
,
10010000
00000000
01000000
10000000
,
00200000
02300000
03001000
00010000
,
00011000
00000000
00001000
00010000
,
00000200
00002300
00003001
00000010
,
00000011
00000000
00001000
00000010
,
00000200
00000302
00001003
00000100
,
00010100
00001000
00020000
00031000
,
00010000
01000000
10000000
00010000
,
10000000
00200000
00310000
00001000
,
00000100
00000001
00001000
00000001
,
00000010
00001000
00010000
00001000
,
00100000
00001000
00101000
00010000
,
00000010
00010000
00010010
00001000
,
00100000
01000000
10010000
00200000
,
00320000
00032000
00003200
00000301
,
00000100
00001000
00000100
00000001
,
00001000
00000001
00000010
00001000
,
00010000
01000000
10000000
00010000
,
10000000
01000000
00010000
00001000
,
01000000
00001000
01001000
00010000
,
00000100
00010000
00010100
00001000
,
00000100
00000010
00001001
00000001
,
00001000
00000010
00000100
00002000
,
00003000
00000200
00000300
00000020
,
00000030
00001010
00011000
00020000
,
00030000
02000000
03000000
00200000
,
00300000
00110000
00011000
00020000
,
00030000
00000200
00000300
00002000
,
00003000
00001010
00010010
00002000
,
00003000
00200000
00300000
00020000
,
01030000
01010000
00100000
00101000
,
00010000
00001100
00000010
00001010
,
00010000
00002000
00013000
00200000
,
20300000
30020000
10030000
11000000
,
10010000
00110000
00000000
00002000
,
00023000
00030200
00000310
00000011
,
00001001
00000101
00000000
00000010
,
00001000
00010000
00000000
01000000
,
10000000
00100000
00020000
00031000
,
00002000
00003100
00000200
00000301
,
00000010
00001000
00010000
00002000
,
00203000
00320000
10030000
10100000
,
01100000
01010000
00000000
00002000
,
00023000
00030020
00000130
00000101
,
00001001
00001100
00000000
00000001
,
00000010
00001000
00000000
00010000
,
00100000
10000000
02000000
03010000
,
00020000
00031000
00002000
00003100
,
00000001
00000010
00000000
00001000
,
00010000
00000100
00000000
00010000
,
00001000
01000000
00000000
00020000
,
00230000
20300000
30200000
00320000
,
00130000
00001000
00000000
00011000
,
00001000
00000100
00000001
00000011
,
00000100
00001000
00000001
00000100
,
00000010
00000001
00000010
00001000
,
00010000
01000000
10000000
00000000
,
10000000
00000000
00000000
00000000
;

//--------------- dance-double - KONAMI ----------------
#NOTES:
     dance-double:
     KONAMI:
     Hard:
     11:
     0,0,0,0,0:
00000000
00000000
00000000
00000000
,
00000000
00000000
00000000
00000000
,
00000000
00000000
00000000
00000000
,
00000000
00000000
00000000
00000000
,
00000000
00000000
00000000
00000000
,
00001000
00000000
00000000
00011000
00000000
00000000
01000000
00000000
00000000
10000000
00000000
01000000
,
00000000
00000000
00000000
00000000
00000000
00000000
10000000
00000000
01000000
00000000
00010000
00000000
,
00001000
00000000
00000000
00011000
00000000
00000000
00000100
00000000
00000000
00000001
00000000
00000100
,
00000000
00000000
00000000
00000000
00000000
00000000
00000001
00000000
00001000
00000000
00000010
00000000
,
00000100
00000000
00000000
00000110
00000000
00000000
00001000
00000000
00000000
00010000
00000000
00001000
,
00000000
00000000
00000000
00000000
00000000
00000000
01000000
00000000
10000000
00000000
00100000
00000000
,
00010000
00000000
00000000
00011000
00000000
00000000
00000100
00000000
00000000
00000010
00000000
00001000
,
00000000
00000000
00000000
00011000
00000000
00000000
00022000
00000000
00003000
00031000
00000000
00000000
,
00011000
00000000
00000000
00000000
00000000
00000100
00000020
00000000
00000000
00000130
00000000
00000000
,
00000100
00000000
00000000
00000000
00000000
00010000
00002000
00000000
00000000
00013000
00000000
00000000
,
00010000
00000000
00000000
00000000
00000000
01000000
20000000
00000000
00000000
31000000
00000000
00000000
,
00200000
00000000
00300000
00010000
00000000
00010000
00000000
00000000
10000000
01000000
00000000
00010000
,
01000000
00000000
00010000
00000000
00000000
00001000
00000000
00000000
00010000
00000100
00000000
00000010
,
00000100
00000000
00001000
00000000
00000000
00000001
00000000
00000000
00000100
00000010
00000000
00000100
,
00000001
00000000
00000100
00000000
00000000
00001000
00000000
00000000
00010000
00001000
00000000
00010000
,
01000000
10000000
01000000
00010000
,
00011000
00000000
00000000
00001000
00000000
00000100
00001000
00000000
00000100
00000001
00000000
00000000
,
00000010
00000000
00000000
00001000
00000000
00001000
00000020
00000000
00000000
00000032
00000000
00000000
,
00000203
00000000
00000300
00001000
00000000
00010000
00001000
00000000
00000000
00002000
00000000
00000000
,
02003000
00000000
03000000
00010000
00000000
00010000
00100000
00000000
00000000
01000000
00000000
10000000
,
01000000
00000000
10000000
00000000
00000000
01000000
00000000
00000000
00010000
00001000
00000000
00010000
,
00001000
00000000
00000100
00000000
00000000
00000001
00000000
00000000
00000010
00000100
00000000
00001000
,
00000100
00000000
00001000
00000000
00000000
00000001
00000000
00000000
00001000
00000001
00000000
00000000
,
00000100
00000000
00000000
00001000
00000000
00000000
00010000
00001000
00010000
00002000
00000000
00000000
,
00003000
02000000
03000000
00200000
,
00300000
11000000
10010000
02000000
,
03000000
00020000
00030000
00000200
,
00000300
00000000
00000000
00001100
00000000
00000000
00001001
00000000
00000000
00000020
00000000
00000030
,
00000000
00000000
00000001
00000200
00000000
00000300
00000000
00000000
00000010
00020000
00000000
00000000
,
00030000
00000000
00000000
00011000
00000000
00000000
01001000
00000000
00000000
02000000
00000000
03000000
,
00000000
00000000
00010000
00200000
00000000
00300000
00000000
00000000
01000000
20000000
00000000
30000000
,
00010000
00000000
01000000
00010000
00000000
00000000
10000000
00000000
01000000
10000000
00000000
00000000
,
00010000
00000000
00100000
00010000
00000000
00000000
00001000
00000000
00010000
00001000
00000000
00000000
,
00000010
00000000
00000001
00002000
00000000
00000000
00003001
00000000
00000000
00000101
00000000
00000000
,
00000100
00001100
00011000
00001010
,
00001100
00011000
00000000
00011000
,
00010000
01010000
01100000
00110000
,
01010000
00000000
00000000
11000000
00000000
00000000
10000000
00000000
00100000
01000000
00000000
00100000
,
00000000
00000000
00010000
00001000
00000000
00010000
00000000
00000000
00000010
00001000
00000000
00000010
,
00000000
00000000
00001000
00000001
00000000
00001000
00000000
00000000
00000010
00000100
00000000
00000100
,
00000000
00000000
00000001
00001000
00000000
00001000
00000000
00000000
00000100
00000010
00000000
00000001
,
00000100
00000001
00000100
00000001
00000100
00000001
00000100
00000000
00000000
00000101
00000000
00000000
,
00000100
00001100
00011000
00101000
,
01100000
01010000
00000000
00011000
,
00001000
00001100
00000110
00010010
,
00011000
00000000
00000000
01010000
00000000
00000000
10000000
00000000
00100000
01000000
00000000
00100000
,
00000000
00000000
00010000
00001000
00000000
00010000
00000000
00000000
00000010
00001000
00000000
00000010
,
00000000
00000000
00001000
00000001
00000000
00000100
00000000
00000000
00001000
00010000
00000000
00010000
,
00000000
00000000
00001000
00100000
00000000
00100000
00000000
00000000
01000000
10000000
00000000
01000000
,
00100000
01000000
00100000
01000000
00100000
01000000
00100000
00000000
00000000
01000000
00000000
10000000
,
01000000
00000000
10000000
01000000
00000000
00010000
00000000
00000000
00000000
00010000
00000000
00001000
,
00010000
00000000
00001000
00010000
00000000
00000010
00000000
00000000
00000000
00000200
00000000
00000000
,
00000001
00000302
00000010
00000023
,
00001000
00000000
00000000
00001030
00000000
00000000
00000010
00000000
00000001
00000000
00000000
00000100
,
00001000
00000000
00010000
00000000
00000000
00001000
00000000
00000000
01000000
00000000
00000000
00100000
,
10000000
00000000
00100000
00000000
00000000
10000000
00000000
00000000
00010000
00000000
00000000
00100000
,
01000000
00000000
00010000
00000000
00000000
00001000
00000000
00000000
00000100
00000000
00000000
00001000
,
00010000
00000000
00000000
01000000
00000000
00000000
00010000
00001000
00010000
00001000
00010000
00001000
,
00020000
00030000
00000000
00000000
;

//--------------- dance-double - forcednature ----------------
#NOTES:
     dance-double:
     forcednature:
     Challenge:
     13:
     0,0,0,0,0:
00000000
00000000
00000000
00000000
,
00000000
00000000
00000000
00000000
,
00000000
00000000
00000000
00000000
,
00000000
00000000
00000000
00000000
,
00000000
00000000
00000000
00000000
00000000
00000000
00002000
00000000
00023000
00000000
00230000
00000000
,
02300000
00000000
03000000
01010000
00000000
00000000
10000000
01000000
00100000
00010000
00000000
00000000
,
01000000
00000000
00000000
00001000
00000000
00000000
00000020
00000000
00000032
00000000
00000203
00000000
,
00000302
00000000
00000003
00000110
00000000
00000000
00000001
00000100
00001000
00010000
00000000
00000000
,
00100000
00000000
00000000
10000000
00000000
00000000
02000000
00000000
03020000
00000000
00032000
00000000
,
00203000
00000000
00300000
00011000
00000000
00000000
00000010
00010000
00001000
00000100
00000000
00000000
,
00000001
00000000
00000000
00000110
00000000
00000000
00002000
00000000
00003020
00000000
00020030
00000000
,
02030000
00000000
03000000
01100000
00000000
00000000
00010000
10000000
00100000
01000000
00000000
01000000
,
10000000
00000000
10000000
01000000
00000000
01000000
00001000
00000000
00000000
00010100
00000000
00000000
,
00010100
00000000
00000000
00000010
00000000
00001000
00000010
00000000
00000100
00000002
00000000
00000000
,
00000000
00000013
00000100
00010100
,
00010100
00000000
00000000
00010000
00000000
00001000
00100000
00000000
00010000
02000000
00000000
00000000
,
00000000
00000000
00000000
03100000
00000000
00000000
10000000
00000000
01000000
00100000
00000000
00001000
,
00010000
00000000
00010010
00000000
00000000
01001000
00000000
00000000
00010000
00000010
00000000
00001000
,
00000100
00000000
00010100
00000000
00000000
00101000
00000000
00000000
00010000
00100000
00000000
00001000
,
01000000
00000000
00010100
00000000
00000000
01001000
00000000
00000000
00010000
10000000
00000000
00000000
,
10010000
00000000
10000000
01000000
00000000
00000000
00010000
00001000
00010000
00001000
00000000
00000000
,
00000110
00000000
00000000
00000001
00000000
00000100
00000001
00000000
00000010
00002000
00000000
00000000
,
00010000
00003100
00000010
00000110
,
00011000
00000000
00000000
00100000
00000000
00001000
00010000
00000000
00100000
20000000
00000000
00000000
,
01000000
00000000
00000000
30100000
00000000
00000000
00010000
00000000
00001000
00000010
00000000
00000001
,
00000010
00000000
00001100
00000000
00000000
00010100
00000000
00000000
00100000
00001000
00000000
01000000
,
00010000
00000000
01100000
00000000
00000000
00011000
00000000
00000000
00000010
00010000
00000000
00001000
,
00000010
00000000
00000110
00000000
00000000
00001001
00000000
00000000
00000001
00000100
00000000
00001000
,
00010000
00000000
01000000
00100000
00010000
10000000
00010000
01000000
00100000
10000000
00000000
00000000
,
00000000
01000000
00000000
00010000
,
00000000
00011000
00011000
00000001
,
00000000
00000100
00000000
00001000
,
00000000
00011000
00011000
10000000
,
00000000
00100000
00000000
00010000
,
00000000
00011000
00011000
00000001
,
00000010
00000100
00001000
00010000
,
00100000
00000000
00100000
01000000
00000000
00000000
10000000
00000000
10000000
00100000
00000000
00100000
,
00010000
00000000
00010000
00001000
00000000
00001000
00000100
00000000
00000100
00000001
00000000
00000001
,
00001000
00000110
00000001
00000100
,
00010000
01000000
10100000
01010000
,
01100000
10010000
10000000
01000000
,
00001000
00000100
00000011
00001100
,
00000110
00000000
00000000
00001001
00000000
00000000
00000001
00000000
00000100
00001000
00000000
00010000
,
00200000
00000000
00000000
01300000
00000000
00010000
10000000
00000000
01000000
00010000
00000000
00001000
,
00100000
00000000
00000000
01100000
00000000
00000000
10000000
00000000
00010000
01000000
00000000
00001000
,
00000000
00000000
00000010
00000100
00000000
00001000
00000000
00000000
00000001
00000100
00000000
00000010
,
00010000
00001000
00000010
00000100
00010000
00001000
01000000
00000000
00000000
00100000
00000000
00000000
,
00001000
00000010
00000100
00010000
,
01100000
10010000
10000000
01000000
,
00001000
00000100
00000010
00010000
,
01100000
00000000
00000000
10010000
00000000
00000000
00010000
00000000
01000000
00001000
00000000
00010000
,
00000100
00000000
00000000
00000110
00000000
00000010
00000001
00000000
00001000
00000001
00000000
00000100
,
00001000
00000000
00010000
00100000
01000000
00010000
10000000
00000000
01000000
00100000
00010000
10000000
,
00010000
00000000
01000000
00001000
00010000
00000010
00010000
00000000
00001000
00000010
00000100
00001000
,
00000001
00000100
00000010
00001000
00010000
01000000
00100000
00000000
00100000
10000000
00000000
01000000
,
00100000
00000000
00001000
00010000
00000000
00010010
00000000
00000000
00000010
00001000
00000000
00000100
,
00000010
00000000
00000001
00001000
00000000
00000110
00000000
00000000
00000001
00000010
00000000
00001000
,
00010000
00000000
00100000
01000000
00000000
00000000
01001000
00000000
00000000
00010010
00000000
00000000
,
00101000
00000000
00000000
00010100
00000000
00000000
00000010
00000000
00010000
00001000
00000000
00000010
,
00000100
00000000
00001000
00000001
00000000
00000110
00000000
00000000
00000001
00000100
00000000
00001000
,
00010000
00000000
01000000
10000000
00000000
01100000
00000000
00000000
10000000
00010000
00000000
00100000
,
00001000
00000000
00010000
00100000
00000000
00000000
01001000
00000000
00000000
00010010
00000000
00000000
,
00000110
00000000
00000000
00001001
00000000
00000000
00000001
00000100
00001000
00010000
01000000
10000000
,
00200000
00000000
00300000
00000000
;
