#TITLE:IN THE FIRE;
#SUBTITLE:;
#ARTIST:nc ft. StormRock;
#TITLETRANSLIT:;
#SUBTITLETRANSLIT:;
#ARTISTTRANSLIT:;
#GENRE:;
#CREDIT:;
#MUSIC:19. IN THE FIRE.mp3;
#BANNER:;
#BACKGROUND:;
#CDTITLE:;
#SAMPLESTART:62.358;
#SAMPLELENGTH:12.000;
#SELECTABLE:YES;
#OFFSET:-0.076;
#BPMS:0.000=156.000;
#STOPS:;
#BGCHANGES:;
#FGCHANGES:;

//--------------- dance-single - Nezemarth ----------------
#NOTES:
     dance-single:
     Nezemarth:
     Beginner:
     4:
     0.199,0.281,0.058,0.126,0:
0000
0000
0000
0000
,
0000
0000
0000
0000
,
0000
0000
0000
0000
,
0000
0000
0000
0000
,
0000
0000
0000
0000
,
1000
1000
0000
0000
,
0000
0000
0000
0000
,
0001
0001
0000
0000
,
0000
0000
0000
0000
,
1001
0000
0000
0000
,
1000
0000
0000
0000
,
0001
0000
0001
0000
,
0100
0000
0100
0000
,
0110
0000
0000
0000
,
0010
0000
0000
0000
,
1000
0000
1000
0000
,
0100
0000
0100
0000
,
0010
0010
0010
0000
,
0010
0010
0010
0000
,
0001
0000
0001
0000
,
1000
0000
1000
0000
,
0010
0010
0010
0000
,
0010
0010
0010
0000
,
1000
0000
1000
0000
,
0001
0001
1001
0000
,
1000
0000
1000
0000
,
0100
0000
0100
0000
,
0001
0000
0100
0000
,
1000
0000
0000
0000
,
0001
0000
0001
0000
,
0100
0000
0100
0000
,
1000
0000
0100
0000
,
0001
0000
1000
1000
,
2002
0000
0000
0000
0000
0000
0000
3003
,
0000
0000
0000
0000
,
0001
0000
0100
0000
,
0010
0000
1000
1000
,
2002
0000
0000
0000
0000
0000
0000
3003
,
0000
0000
0000
0000
,
0001
0000
0010
0000
,
0200
0000
0300
0000
,
1000
1000
0000
0000
,
0020
0030
0200
0300
,
0001
0001
1000
1000
,
0001
0000
0001
0000
,
0010
0010
0000
0000
,
0002
0003
2000
3000
,
0010
0010
0100
0100
,
0010
0000
1000
0000
,
0001
0001
0000
0000
,
0020
0030
0200
0300
,
1000
1000
0001
0001
,
0100
0000
0001
0000
,
1000
1000
0000
0000
,
0200
0300
0020
0030
,
0100
0100
0010
0010
,
0001
0000
0000
1000
0000
1000
0000
0000
,
1000
1000
1000
0000
,
1000
1000
1000
0000
,
0010
0000
0100
0000
,
0001
0000
1000
0000
,
0001
0001
0001
0000
,
0001
0001
0001
0000
,
0010
0000
0100
0000
,
1000
1000
1001
0000
;

//--------------- dance-single - Nezemarth ----------------
#NOTES:
     dance-single:
     Nezemarth:
     Easy:
     7:
     0.343,0.408,0.213,0.233,0.039:
0000
0000
0000
0000
,
0000
0000
0000
0000
,
0000
0000
0000
0000
,
0000
0000
0000
0000
,
0000
0000
0000
0000
,
1000
1000
0000
0100
,
0000
0001
0000
0100
,
1000
1000
0000
0010
,
0000
0001
0000
0010
,
2000
0000
0000
3100
,
0001
0000
0000
0100
,
0010
0000
0000
0010
0000
0000
0010
0000
,
0001
0000
0001
1000
,
0001
0000
0000
0100
,
0010
0000
0000
1000
,
0100
0000
0000
0100
0000
0000
0010
0000
,
0001
1000
1001
0000
,
1000
0000
0000
1000
0000
0000
2000
0000
0000
0000
0000
0000
3000
0000
0000
0000
,
0001
0000
0000
0001
0000
0000
0002
0000
0000
0000
0000
0000
0003
0000
0000
0000
,
0020
0000
0000
0030
0000
0000
0200
0000
0000
0300
0000
0000
1000
0000
0000
0000
,
0010
0010
0100
0001
,
0010
0000
0000
0010
0000
0000
0020
0000
0000
0000
0000
0000
0030
0000
0000
0000
,
0100
0000
0000
0100
0000
0000
0020
0000
0000
0000
0000
0000
0030
0000
0000
0000
,
0002
0000
0000
0003
0000
0000
2000
0000
0000
3000
0000
0000
1000
0000
0000
0000
,
0010
0100
2002
3003
,
1000
0100
0010
0000
,
0001
0100
0010
0000
,
1000
0100
0001
0100
,
1000
0000
1010
1001
,
0001
0100
0010
0000
,
1000
0010
0100
0000
,
0001
0010
1000
0010
,
0002
0000
0100
1003
,
1001
1000
0010
0100
,
1000
0000
0200
0300
0200
0000
0300
0000
,
0001
0010
0100
0010
,
0001
0100
0010
1000
,
1010
1000
0100
0001
,
0100
0000
0020
0030
0020
0000
0030
0000
,
0001
0100
0010
1000
,
1010
0001
0011
0000
,
0011
1100
1001
0001
,
0100
1000
0100
0001
,
1000
0000
0100
0000
0010
0000
0001
0100
,
0000
0000
0100
0010
,
1010
1100
1010
0010
,
0100
0001
0010
0100
,
1000
0000
0010
0000
0100
0000
1000
0100
,
0000
0000
0001
0010
,
0011
0000
1100
0000
1001
0000
1000
0001
,
0100
0010
0100
1000
,
0100
0000
0001
0000
0010
0000
0100
1000
,
0000
0000
1000
0100
,
0110
0000
1001
0000
0101
0000
0100
0010
,
1000
0100
0001
0100
,
1000
0000
0010
0000
0100
0000
0001
1000
,
0000
0100
0000
0010
0000
1001
0000
0000
,
1000
0000
0000
1000
0000
0000
1000
0000
0000
0000
0000
0000
0010
0000
0000
0000
,
0001
0000
0000
0001
0000
0000
0001
0000
0000
0000
0000
0000
0010
0000
0000
0000
,
0200
0000
0000
0300
0000
0000
0020
0000
0000
0030
0000
0000
1000
0000
0000
0000
,
0001
0001
1000
0100
,
0010
0000
0000
0010
0000
0000
0020
0000
0000
0000
0000
0000
0031
0000
0000
0000
,
0100
0000
0000
0100
0000
0000
0020
0000
0000
0000
0000
0000
1030
0000
0000
0000
,
0002
0000
0000
0003
0000
0000
2000
0000
0000
3000
0000
0000
0001
0000
0000
0000
,
0010
0100
2002
3003
;

//--------------- dance-single - Nezemarth ----------------
#NOTES:
     dance-single:
     Nezemarth:
     Medium:
     12:
     0.58,0.533,0.368,0.174,0.16:
0000
0000
0000
0000
,
0000
0000
0000
0000
,
0000
0000
0000
0000
,
0000
0000
0000
0000
,
0000
0000
0000
0000
,
1000
0100
0001
0100
,
1000
0100
0001
0100
,
1000
0010
0001
0010
,
1000
1000
0001
0001
0010
0100
1000
0001
,
1001
0000
0000
0000
0000
0000
1000
0001
,
0100
0000
0000
0010
0000
0000
0010
0000
0000
0000
0000
0000
0010
0000
1000
0000
,
0001
0000
0000
0010
0000
0000
1000
0000
0000
0010
0000
0000
0001
0000
0100
0000
,
0010
0000
0000
0010
0000
0000
0001
0000
0010
0000
1000
0000
0001
0000
0010
0000
,
0110
0000
0000
0000
0000
0000
0100
1000
,
0001
0000
0000
0100
0000
0000
0020
0000
0000
0000
0030
0000
0010
0000
1000
0000
,
0001
0000
0000
0010
0000
0000
1000
0000
0000
0010
0000
0000
0001
0000
0100
0000
,
0010
1000
0001
2000
3000
0000
0000
0000
,
1001
0000
1000
0100
0000
0010
0200
0000
0000
0000
0000
0000
1300
0000
0001
0000
,
0100
0000
0010
0100
0000
0001
0020
0000
0000
0000
0000
0000
1030
0000
0010
0000
,
0001
0000
0000
0011
0000
0000
1000
0000
0000
1010
0000
0000
0001
0000
0010
0000
,
0100
0000
0000
0100
0000
0000
0100
0000
1000
0000
0010
0000
0100
0000
0001
0000
,
0101
0000
1000
0100
0000
0010
0200
0000
0000
0000
0000
0000
1300
0000
0001
0000
,
0100
0000
0010
0100
0000
0001
0020
0000
0000
0000
0000
0000
1030
0000
0010
0000
,
0100
0000
0000
1100
0000
0000
0001
0000
0000
0101
0000
0000
0100
0000
0010
0000
,
1000
0001
1000
0100
0020
0000
0000
0031
,
1000
0010
0100
1000
0100
0001
0000
0001
,
0010
0001
1000
0100
0010
0001
0000
0001
,
1000
0010
0100
1000
0001
0010
0100
0001
,
0010
0000
0011
0101
,
0100
0010
1000
0100
0001
0100
0000
0010
,
0100
1000
0001
0100
0010
0100
0000
1000
,
0100
0010
1000
0100
0010
0001
0010
0100
,
1000
0002
0100
1000
,
0013
0001
0100
1000
0100
0001
1000
0100
,
0010
0001
1000
1000
0001
0002
0003
0100
,
0010
1000
0100
0010
0100
0001
0000
0100
,
0000
1000
0001
1000
0010
0100
0001
1000
,
1100
0100
1000
0010
0001
0010
1000
0001
,
0000
0020
0130
0020
0130
2000
3000
0000
,
0001
0100
1000
0100
0001
1000
0100
0010
,
0002
0000
0000
0003
1001
0000
0010
0000
,
1001
0000
0110
0000
1001
0001
0010
0100
,
0000
1100
0000
0010
0000
1010
0000
0010
,
1000
0001
0010
1000
0010
0001
0100
1000
,
0100
0100
0010
0010
1000
0000
0100
0000
,
0110
0000
1001
0000
1010
1000
0001
0010
,
0000
0011
0000
0100
0000
1100
0000
1000
,
0010
0100
1000
0100
0001
0010
0100
1000
,
0100
0100
0010
0010
0001
0000
1000
0000
,
1001
0000
0110
0000
1001
0001
0010
0100
,
0000
1100
0000
0010
0000
1010
0000
0010
,
0100
1000
0100
0001
0010
0100
1000
0010
,
0100
0100
0010
0010
1000
0000
0001
0000
,
1001
0000
0110
0000
1001
0001
0100
0010
,
0000
1010
0000
0100
0000
0101
0000
0001
,
0010
0100
0001
0100
1000
0010
0100
0001
,
0010
0010
0100
0100
0000
1100
0000
0000
,
1001
0000
0001
0100
0000
0010
0200
0000
0000
0000
0000
0000
0301
0000
1000
0000
,
0100
0000
0010
0100
0000
1000
0020
0000
0000
0000
0000
0000
0031
0000
0010
0000
,
1000
0000
0000
0110
0000
0000
0001
0000
0000
0110
0000
0000
1000
0000
0010
0000
,
0100
0000
0000
0100
0000
0000
0001
0000
0010
0000
0001
0000
1000
0000
0100
0000
,
0010
0000
0001
0100
0000
0010
0200
0000
0000
0000
0000
0000
0301
0000
1000
0000
,
0100
0000
0010
0100
0000
1000
0020
0000
0000
0000
0000
0000
0031
0000
0010
0000
,
0100
0000
0000
1001
0000
0000
0010
0000
0000
1001
0000
0000
0001
0000
0100
0000
,
0010
1000
0100
0010
0002
0000
0003
0000
;

//--------------- dance-single - Nezemarth ----------------
#NOTES:
     dance-single:
     Nezemarth:
     Hard:
     14:
     0.724,0.69,0.174,0.174,0.601:
0000
0000
0000
0000
,
0000
0000
0000
0000
,
0000
0000
0000
0000
,
0000
0000
0000
0000
,
0000
0000
0000
0000
,
1000
0001
0100
0000
0001
1000
0100
0000
,
1000
0010
0100
0000
0001
0010
0100
0000
,
1000
0001
0010
0000
0001
1000
0010
0000
,
1000
0010
1000
0000
0001
0010
0001
0000
1000
0001
1000
0001
0100
0010
0100
0010
,
1000
0000
0000
0000
0000
0000
0000
0000
0000
0000
0000
0000
0100
1000
0100
1000
,
0001
0000
0000
0100
0000
0000
2000
0000
0000
0000
0000
0000
3001
0010
0001
0010
,
0100
0000
0000
0001
0000
0000
0010
0000
0000
1000
0000
0000
0010
0001
0010
0001
,
0100
0000
0000
0100
0000
0000
2000
0000
0000
0000
3100
0000
0010
0000
1000
0000
,
1100
0000
0000
0000
1000
0000
0000
0000
0100
0000
0000
0000
0010
0001
0010
0001
,
1000
0000
0000
0010
0000
0000
0002
0000
0000
0000
0000
0000
0013
0100
0010
0100
,
0001
0000
0000
1000
0000
0000
0100
0000
0000
0001
0000
0000
1000
0010
1000
0010
,
0001
1000
0001
1000
0010
0100
0010
0100
0001
0000
0000
0000
0000
0000
0000
0000
,
0011
0000
0010
0001
0000
1000
0020
0000
0000
0000
0000
0000
0130
0001
1000
0001
,
0100
0000
0010
1000
0000
0001
0020
0000
0000
0000
0000
0000
0130
1000
0100
0010
,
0001
0000
1000
0010
0000
0010
0100
0000
0100
0001
0000
0000
0001
0010
0100
1000
,
0001
0000
0100
0010
0000
1000
0001
1000
0001
1000
0010
0000
0100
0000
0001
0000
,
0001
0000
0010
0100
0000
1000
0200
0000
0000
0000
0000
0000
0310
0001
1000
0001
,
0010
0000
0100
1000
0000
0100
0020
0000
0000
0000
0000
0000
0031
0100
0010
1000
,
0001
0000
0001
0010
0000
0010
0100
0000
0100
1000
0000
0000
1000
0010
0100
0001
,
1000
0010
1000
0010
0100
0001
0100
0001
2000
0000
0000
0000
0000
0000
3001
0000
,
0010
1000
0010
0100
1000
0001
0000
0100
,
1000
0100
0010
1000
0100
0001
0000
0100
,
0010
1000
0010
0001
0100
0010
1000
0001
,
0000
0000
0011
1100
,
0100
1000
0010
0100
1000
0100
0000
0001
,
0010
0100
0001
0100
1000
0010
0000
0100
,
1000
0100
0001
0010
0100
1000
0100
0010
,
0001
0000
0100
0010
0100
0010
1000
0000
0001
0010
0001
0000
1000
0100
1000
0000
,
0001
0100
1000
0100
0001
1000
0100
0010
,
0100
0000
1000
0010
0000
1000
0010
0000
0100
0000
1000
0000
0000
0000
1000
0000
,
0100
0010
1000
0100
0010
0001
0010
0100
,
0000
0000
1000
0000
0001
0100
0001
0000
1000
0001
1000
0000
0010
1000
0010
0000
,
0100
0001
0010
1000
0010
0100
1000
0001
,
0000
0200
1300
0200
0310
2000
0000
3010
,
0100
1000
0100
0001
1000
0100
0010
0001
,
0000
0000
0001
0010
0001
1000
0100
0010
0001
0000
1000
0000
0010
0000
0000
0000
,
0110
0000
1000
0000
0110
0001
1000
0010
,
0100
0101
0000
0010
0100
1100
0000
1000
,
0001
0100
1000
0100
0010
1000
0100
0010
,
0001
1000
0001
0100
0010
1000
0100
0010
0002
0000
0000
0000
1003
0000
0000
0000
,
1010
0000
1001
0000
0011
0001
0100
0010
,
1000
0100
0000
0010
0001
0100
0000
1000
,
0100
0010
1000
0100
0001
0100
0010
0001
,
1000
0010
1000
0001
0010
0100
1000
0001
0200
0000
0000
0000
0310
0000
0000
0000
,
0110
0000
1010
0000
1001
0001
0010
0100
,
0001
0100
0000
1000
0001
0100
0000
1000
,
0100
0010
1000
0100
0001
0100
0010
0001
,
1000
0010
1000
0001
0100
0010
1000
0100
0010
0000
0000
0000
0001
0000
0000
0000
,
1001
0000
0010
0000
1001
0001
0100
0010
,
0001
0010
0000
1000
0100
0010
0000
0001
,
0010
0001
1000
0010
0100
1000
0100
0001
,
1000
0100
0010
0100
1000
0001
0100
0000
0000
0000
0110
0000
0000
0000
0000
0000
,
1010
0000
0010
1000
0000
0001
0020
0000
0000
0000
0000
0000
0130
1000
0100
0010
,
0001
0000
1000
0010
0000
0100
0020
0000
0000
0000
0000
0000
0031
0010
0100
0001
,
0010
0000
0010
0100
0000
0100
1000
0000
1000
0001
0000
0000
0001
0010
0100
1000
,
0001
0000
0100
0010
0000
1000
0001
0010
0001
1000
0010
0000
1000
0000
0001
0000
,
0100
0000
0010
1000
0000
0001
0020
0000
0000
0000
0000
0000
0130
1000
0100
0010
,
0001
0000
0100
0010
0000
0001
0020
0000
0000
0000
0000
0000
0130
0001
0010
0100
,
0001
0000
0001
0100
0000
0100
1000
0000
1000
0010
0000
0000
0010
0100
0001
0010
,
0100
1000
0010
0100
1000
0100
0010
1000
0200
0000
0000
0000
0300
0000
0000
0000
;
