#TITLE:I'm Screaming LOVE;
#SUBTITLE:;
#ARTIST:Creative Life;
#TITLETRANSLIT:;
#SUBTITLETRANSLIT:;
#ARTISTTRANSLIT:;
#GENRE:;
#CREDIT:;
#MUSIC:I'm Screaming LOVE.ogg;
#BANNER:;
#BACKGROUND:;
#CDTITLE:;
#SAMPLESTART:64.961;
#SAMPLELENGTH:15.000;
#SELECTABLE:YES;
#OFFSET:1.289;
#BPMS:0.000=147.000;
#STOPS:;
#BGCHANGES:;
#FGCHANGES:;

//--------------- dance-single - forcednature ----------------
#NOTES:
     dance-single:
     forcednature:
     Beginner:
     3:
     0,0,0,0,0:
0000
0000
0000
0000
,
0000
0000
0000
0000
,
0000
0000
0000
0000
,
0000
0000
0000
0000
,
0000
0000
0000
0000
,
0010
0000
0000
0000
,
0000
0000
0000
0000
,
0100
0000
0100
0000
,
0100
0000
0000
0000
,
1001
0000
0000
0000
,
0010
0000
0000
0000
,
0100
0000
0100
0000
,
0100
0000
0000
0000
,
0110
0000
0000
0000
,
0001
0000
0000
0000
,
1000
0000
0000
0000
,
0010
0000
0000
0000
,
1001
0000
0000
0000
,
0001
0000
0000
0000
,
0100
0000
0100
0000
,
0100
0000
0000
0000
,
1001
0000
0000
0010
,
0000
0000
0100
0000
,
1001
0000
0000
0000
,
1000
0001
1000
0001
,
1000
0000
0000
0000
,
0001
0000
0000
0000
,
0100
0000
0000
0000
,
0010
0000
0000
0000
,
1000
0000
0000
0000
,
0100
0000
0000
0000
,
0010
0000
0000
0000
,
0001
0000
0000
0000
,
1001
0000
1000
0000
,
0001
0000
0000
0000
,
0100
0000
0001
0000
,
0100
0000
0000
0000
,
1000
0000
0100
0000
,
1000
0000
0000
0000
,
0001
0000
0010
0000
,
0100
0000
0000
0000
,
1000
0001
1000
0000
,
0010
0000
0000
0000
,
0100
0001
0100
0000
,
0010
0000
0000
0000
,
1000
0000
0100
0000
,
0010
0000
0001
0000
,
0100
0000
0010
0000
,
1000
0000
0000
0000
,
0001
0010
0001
0000
,
0100
0000
0000
0000
,
0010
1000
0010
0000
,
0100
0000
0000
0000
,
1001
0000
1000
0000
,
0010
0000
0000
0000
,
0100
0000
0001
0000
,
0010
0000
0000
0000
,
1001
0000
0100
0000
,
1000
0000
0000
0000
,
0010
0000
0100
0000
,
0001
0000
0000
0000
,
0110
0000
1000
0000
,
0001
0000
0000
0000
,
0100
0000
0010
0000
,
1000
0000
0000
0000
,
0110
0000
0000
1001
,
0000
0000
0100
0000
,
2002
0000
0000
0000
,
0000
0000
0000
3003
;

//--------------- dance-single - forcednature ----------------
#NOTES:
     dance-single:
     forcednature:
     Easy:
     6:
     0,0,0,0,0:
0000
0000
0000
0000
,
0000
0000
0000
0000
,
0000
0000
0000
0000
,
0000
0000
0000
0000
,
0000
0000
0000
0000
,
1001
0000
0000
0000
0000
0000
0000
0100
,
0100
0000
0000
0000
,
2000
0000
3000
0000
0002
0000
0003
2002
,
0000
0000
3003
0000
,
1001
0000
0000
0000
0000
0000
0000
0010
,
0010
0000
0000
0000
,
0002
0000
0003
0000
2000
0000
3000
2002
,
0000
0000
3003
0000
,
0101
1000
0010
1000
,
0100
0010
0100
0000
1000
0000
0001
0000
,
0100
0000
0010
0000
1000
0001
1000
0000
,
0010
0100
0001
1000
,
1001
0000
0001
0000
0010
0100
0010
0000
,
0001
1000
0010
0100
,
2002
0000
3003
0000
0220
0000
0330
2002
,
0000
0000
3003
0000
,
0110
0000
1000
1000
0000
1000
0002
0000
,
0000
0003
0100
0001
,
1001
1000
0100
1000
,
0010
0010
0010
0100
,
1001
0001
0010
0000
,
0100
1000
0100
0000
,
0010
0001
0010
0000
,
0100
1000
0100
0000
,
1000
0010
1000
0000
,
0001
0100
0001
0000
,
1000
0010
1000
0001
,
0020
0000
0030
0110
,
1001
0001
0100
0001
,
1000
0001
0010
0001
,
1000
0100
1000
0001
,
1000
0010
0100
0001
,
0010
0100
0010
0001
,
0100
0010
0100
0001
,
1001
0000
1000
0000
0001
0000
0000
0110
,
0000
1000
0001
1000
0002
0000
0003
0000
,
1001
0110
1001
0000
,
0001
0100
1000
0000
,
1001
0110
1001
0000
,
1000
0100
0001
0000
,
0100
0010
0001
0000
,
1000
0010
0100
0000
,
0001
0010
0001
0100
,
0010
1000
0100
0000
,
1001
0110
1001
0000
,
1000
0100
0001
0000
,
1001
0110
1001
0000
,
0001
0100
1000
0000
,
0110
0000
0001
1000
,
0010
0100
0001
0000
,
0010
0100
1000
0100
,
0010
0002
0000
0003
,
1001
0001
0100
0001
,
1000
0010
1000
0100
,
0010
0100
1000
0010
,
0100
0001
0010
0100
,
0110
0010
0001
1000
,
0010
0100
0001
0010
,
0001
0100
0010
1000
,
0100
0010
0100
1000
,
1001
0000
0001
0001
0000
0001
2000
0000
,
0000
3000
0010
0100
,
2002
0000
0000
0000
,
0000
0000
0000
3003
;

//--------------- dance-single - forcednature ----------------
#NOTES:
     dance-single:
     forcednature:
     Medium:
     10:
     0,0,0,0,0:
0000
0000
0000
0000
,
0000
0000
0000
0000
,
0000
0000
0000
0000
,
0000
0000
0000
0000
,
0000
0000
0000
0000
0000
0001
0000
1000
,
0000
0000
0100
0000
0010
0000
0100
1000
,
0000
0001
0100
0001
0000
0000
0000
0000
,
2200
0000
3300
0000
0202
0000
0303
2002
,
0000
0000
0000
3003
0000
0100
0000
0110
,
0000
0000
1010
0000
0011
0000
1000
0001
,
0000
0100
0010
1000
0000
0000
0000
0000
,
2200
0000
3300
0000
0202
0000
0303
2002
,
0000
0000
0000
3003
,
0001
0100
0010
1000
0100
1000
0001
0010
,
0100
0010
0001
0000
0100
0010
1000
0001
,
0010
0100
0010
0001
0100
0010
1000
0100
,
0010
1100
0010
0101
,
1001
0000
0001
0100
0010
1000
0100
0010
,
0001
0100
0010
0000
1000
0000
0001
0000
,
1100
0010
0101
0010
,
1001
0000
0100
0000
0001
0010
1000
0000
,
0110
0000
1000
0001
0000
0100
0220
0000
,
0000
0000
0000
0000
0330
0000
0001
0000
0010
0000
0000
0100
0000
0000
1000
0000
,
1001
1100
0010
1100
,
0011
0011
0011
0110
,
1001
0000
1000
0000
0001
0001
0001
0000
,
0100
0000
0010
0000
1000
1000
1000
0000
,
0100
0000
0010
0000
0001
0001
0001
0000
,
0100
0000
0010
0000
1000
1000
1000
0000
,
0001
0000
0100
0000
1000
1000
1000
0000
,
0001
0000
0010
0000
1000
1000
1000
0000
,
0100
0000
0001
0100
0000
0110
0000
1001
,
0000
1000
0100
0010
0001
0000
1001
0000
,
0110
0000
0001
0100
0010
1000
0001
0000
,
1100
0000
0001
1000
0010
0100
0001
0000
,
0110
0000
1000
0100
0010
0001
0100
0000
,
1010
1000
0101
0001
,
1100
0000
0001
0010
0100
1000
0010
0000
,
0110
0000
0100
0001
1000
0100
0010
0000
,
0110
0000
1000
0001
0000
0110
0000
1001
,
0000
0100
0100
0010
0010
0000
0110
0000
,
1100
0000
0101
0000
1001
0000
1000
0100
,
0010
0001
0100
0010
1000
0000
0001
0000
,
0011
0000
0101
0000
1010
0000
1000
0010
,
0100
0000
0001
0000
0010
0000
0000
0000
0100
1000
0000
0100
1000
0000
0000
0000
,
0010
0100
0001
1000
0100
0000
0000
0000
,
0010
0001
1000
0001
0100
0000
0010
1000
,
0000
0001
0010
0000
0100
1000
0001
0100
,
0000
0010
0010
0000
0100
0001
1000
0000
,
1100
0000
0011
0000
1001
0000
1000
0010
,
0100
0001
0010
0100
1000
0000
0001
0000
,
0101
0000
1100
0000
1001
0000
0010
0100
,
0001
0000
1000
0000
0010
0000
0000
0000
0100
0001
0000
0100
0001
0000
0000
0000
,
1010
0000
0001
0010
0100
1000
0001
0100
,
0010
0000
1000
0100
0010
0001
0100
0010
,
1000
0000
0010
1000
0100
0010
0100
0020
,
0000
0001
0002
0000
0000
0000
0033
0000
,
1001
0000
0001
0100
0010
1000
0100
0010
,
0100
1000
0010
0100
0001
0000
0010
0100
,
0010
0000
0001
0100
0010
1000
0100
0010
,
0000
0100
0100
0000
1000
0001
0100
0000
,
0110
0000
0010
1000
0001
0010
0100
0010
,
0001
1000
0010
0100
0010
1000
0001
0000
,
1000
0100
0010
0000
0001
0100
0010
0000
,
1000
0001
0010
0001
1000
0010
1000
0000
,
0110
0000
1000
0001
0000
0100
0220
0000
,
0000
0000
0000
0000
0330
0000
1000
0000
0001
0000
0000
0010
0000
0000
0100
0000
,
2002
0000
0000
0000
,
0000
0000
0000
3003
;

//--------------- dance-single - forcednature ----------------
#NOTES:
     dance-single:
     forcednature:
     Hard:
     14:
     0,0,0,0,0:
0000
0000
0000
0000
,
0000
0000
0000
0000
,
0000
0000
0000
0000
,
0000
0000
0000
0000
,
0000
0000
0000
0000
0000
0001
1000
0010
,
0110
0100
0001
0000
1000
0000
0100
0010
,
0010
0001
0100
0001
0010
0000
0100
0000
,
2100
0000
3001
0000
0102
0000
1003
2002
,
0000
0000
0000
0000
3003
0001
0100
0010
,
0110
0100
0001
1000
0100
0000
0010
0100
,
0100
1000
0001
0100
0010
0000
1000
0000
,
2010
0000
3001
0000
0012
0000
1003
0001
,
2002
0000
0000
0000
0000
0000
3003
0000
0001
0100
0001
0000
1000
0000
0100
0010
,
0001
0000
0100
0001
1000
0010
1000
0001
0100
0000
0001
0000
1000
0000
0200
0000
,
0000
0310
0002
0000
0103
0001
0010
0100
,
1000
0000
0010
0000
0001
0000
0010
0000
0100
0000
0001
1000
0100
0000
0020
0000
,
0001
0000
0100
0000
1030
0010
0001
1000
,
1001
0000
0001
0100
0010
0000
1000
0000
0100
0000
0010
0000
0100
0000
2000
0000
,
0000
3010
0200
0000
1000
0000
0301
0000
,
0110
0000
1001
0000
1000
0100
0010
0001
,
0100
0000
0010
1000
0002
0000
0000
0000
0013
0100
0010
0000
0001
0000
1000
0000
,
1001
0000
0001
1100
0000
1000
0102
0000
,
0010
0000
0000
0000
0103
0000
0001
1000
0001
0000
0000
0010
0000
0000
0100
0000
,
1200
0001
1000
0001
,
0010
0000
0000
0000
0010
0000
0000
0000
0310
0100
1000
0000
0001
0000
0000
0000
,
0101
0000
0001
1000
0100
0010
0100
1000
,
0001
0100
0010
1000
0001
0010
0100
1000
,
0010
0000
0100
1000
0100
0001
0010
0100
,
0001
0100
0010
0001
1000
0010
0001
0010
,
0100
0000
0001
1000
0100
0001
0100
0010
,
0100
1000
0001
1000
0010
0001
0010
0100
,
0101
0000
1100
1100
0000
0110
0000
1001
,
0000
1000
0100
0010
0001
0000
1001
0000
,
0101
0000
0001
0000
1000
0000
0010
0000
1000
0100
1000
0100
1000
0000
0000
0000
,
0010
0000
1000
0000
0001
0000
0100
0000
0010
1000
0010
1000
0010
0000
0000
0000
,
0100
0000
0001
0000
1000
0000
0100
0000
0010
0001
0010
0001
0010
0000
0100
0000
,
1000
0010
0001
0010
0110
0000
1001
0000
,
1000
0000
0010
0000
1000
0000
0100
0000
1000
0010
0100
0001
1000
0000
0000
0000
,
0001
0000
0100
0000
0001
0000
0010
0000
0001
0010
0100
1000
0001
0000
1000
0000
,
1001
0000
0100
0110
0000
1001
0000
0110
,
0000
0000
1100
0000
1001
0000
0101
0000
1001
0000
0010
0000
1001
0000
1000
0100
,
0010
0000
0001
0100
0010
0000
1000
0001
0010
0000
0100
0000
0001
0000
0100
0000
,
1000
0000
0010
0000
0100
0001
0100
0000
0001
0010
0000
0100
1000
0000
0001
0100
,
0010
0000
1000
0100
0010
0000
0001
1000
0010
0000
0100
0000
1000
0000
0100
0000
,
0001
0000
0010
0000
0100
1000
0001
0000
0100
0010
0000
0010
1000
0000
0100
0000
,
0110
0000
0001
0000
0100
0000
0010
0000
1000
0100
0010
0000
0100
1000
0010
1000
,
0001
0000
0100
0000
0010
0000
1000
0000
0001
0010
0100
0000
0010
0001
1000
0001
,
0100
0010
0001
0010
0100
1000
0100
0001
,
0010
0000
0100
0000
0101
0000
0000
0000
1100
0000
0000
0000
1001
0000
1000
0100
,
0010
0000
0001
0100
0010
0000
1000
0001
0010
0000
0100
0000
1000
0000
0010
0000
,
0001
0000
0010
0000
0100
0001
0010
0000
0100
1000
0000
0001
0100
0000
0010
1000
,
0001
0000
0010
0100
1000
0000
0001
0100
0010
0000
1000
0000
0100
0000
0001
0000
,
0100
0000
0010
0001
0010
0100
1000
0000
0001
0100
0000
0100
0010
0000
1000
0000
,
1010
0000
0000
0000
1000
0000
0001
0000
0010
0000
1000
0000
0010
0100
1000
0001
,
1000
0000
0010
0000
0001
0000
0010
0000
0100
0000
0001
0000
1000
0100
0010
0001
,
0100
0001
0010
0001
0100
0010
1000
1100
,
0000
0000
0001
0000
0101
0000
0000
0000
1000
0100
0010
0001
0100
0010
0100
0000
,
1001
0000
0001
0100
0010
1000
0010
0100
0001
0000
0010
0000
0100
0000
1000
0000
,
0100
0001
0200
0000
0001
0000
1300
0100
,
0011
0000
1010
0000
1000
0001
0100
2000
,
0000
0000
3100
0000
0020
0000
0000
0000
1030
0100
0010
0000
0001
0100
0010
0000
,
1001
0000
1000
0100
0010
0100
1000
0000
0001
0000
0100
0000
1000
0000
0001
0000
,
0010
0000
1000
0000
0100
0010
0000
0001
1000
0000
0010
0001
0000
0010
1000
0000
,
0100
0010
1000
0010
0001
1000
0001
0101
,
0000
1000
0200
0001
0001
0000
0310
0100
,
0110
0000
0100
1001
0000
0010
1001
0000
,
1100
0000
0000
0000
0101
0000
1000
0001
0010
0000
0100
1000
0000
0001
0100
0000
,
2002
0000
0000
0000
,
0000
0000
0000
3003
;
