#TITLE:I Wanna Try, I Wanna Fly;
#SUBTITLE:;
#ARTIST:nc ft. Sakura Leon;
#TITLETRANSLIT:;
#SUBTITLETRANSLIT:;
#ARTISTTRANSLIT:;
#GENRE:;
#CREDIT:;
#MUSIC:21. I Wanna Try, I Wanna Fly.mp3;
#BANNER:;
#BACKGROUND:;
#CDTITLE:;
#SAMPLESTART:49.299;
#SAMPLELENGTH:14.400;
#SELECTABLE:YES;
#OFFSET:1.101;
#BPMS:0.000=100.000;
#STOPS:;
#BGCHANGES:;
#FGCHANGES:;

//--------------- dance-single - aboutblank ----------------
#NOTES:
     dance-single:
     aboutblank:
     Beginner:
     3:
     0,0,0,0,0:
0000
0000
0000
0000
,
0000
0000
0000
0000
,
0000
0000
0000
0000
,
0000
0000
0000
0000
,
0000
0000
0000
0000
,
0001
0001
0001
0000
,
0020
0000
0130
0000
,
1000
1000
1000
0000
,
0200
0000
0310
0000
,
0001
0001
1000
0000
,
0200
0000
0310
0000
,
1000
1000
0001
0000
,
0020
0000
0130
0000
,
1000
0000
1001
0000
,
0001
0001
0001
0000
,
0001
0000
1001
0000
,
1000
1000
1000
0000
,
0010
0000
0110
0000
,
0100
0100
0100
0000
,
0001
1000
0001
1000
,
0001
1000
0001
0000
,
0001
0010
0000
1000
,
0000
0100
0000
0001
,
1000
0100
0000
0001
,
0000
0010
0000
1000
,
0001
0100
0000
0100
,
0010
0000
1001
0000
,
1000
0100
0001
0000
,
0001
0010
1000
0000
,
0001
0100
0000
0010
,
0000
1000
0000
0001
,
1000
0100
0000
0010
,
0000
0001
0000
0100
,
0001
1000
0000
1000
,
0010
0010
0010
0000
,
0100
0100
0100
0000
,
0001
1000
0001
1000
,
0001
0000
0001
0000
,
0100
0000
0100
0000
,
0010
0000
0010
0000
,
1000
0001
1000
0001
;

//--------------- dance-single - aboutblank ----------------
#NOTES:
     dance-single:
     aboutblank:
     Easy:
     7:
     0,0,0,0,0:
0000
0000
0000
0000
,
1000
0000
0000
0000
0001
0000
0000
0000
0100
0000
0000
0100
0000
0000
0000
0000
,
0001
0000
0000
0000
0010
0000
0000
0000
1000
0000
0000
1000
0000
0000
0000
0000
,
0010
0000
0000
0000
0100
0000
0000
0000
0010
0000
0000
0010
0000
0000
0000
0000
,
0001
0000
0000
0000
1000
0000
0000
0000
0001
0000
0000
0001
0000
0000
0000
0000
,
0100
0001
1000
0010
,
0100
0000
0000
0000
0001
0000
0000
0000
0010
0000
0000
0010
0000
0000
0000
0000
,
0100
1000
0010
0100
,
0001
0000
0000
0000
0010
0000
0000
0000
0001
0000
0000
0001
0000
0000
1000
0000
,
0001
0100
1000
0001
,
0010
0000
0000
0000
1000
0000
0000
0000
0100
0000
0000
0010
0000
0000
0001
0000
,
0001
1000
0001
0100
,
1000
0010
0001
0100
,
0010
0000
0000
1000
0000
0000
0000
0010
0000
0000
0000
0000
0100
0000
0000
0000
,
0001
0010
0100
1000
,
0001
0000
0000
1000
0000
0000
0000
0100
0000
0000
0000
0000
1000
0000
0000
0000
,
0010
0100
0001
0010
,
0100
0000
0000
0010
0000
0000
0000
0001
0000
0000
0000
0000
1000
0000
0000
0000
,
0001
0010
0100
1000
,
0001
0001
1000
1000
,
0110
0110
1001
0000
,
0001
0000
0000
0000
0100
0000
0000
0010
0000
0000
0000
0000
1000
0000
0000
0010
,
0000
0000
0000
0000
1000
0000
0000
0100
0000
0000
0000
0010
0000
0000
0000
0001
,
0000
0000
0000
0000
1000
0000
0000
0001
0000
0000
0000
0000
0100
0000
0000
0001
,
0000
0000
0000
0000
0010
0000
0000
0001
0000
0000
0000
0100
0000
0000
0000
0010
,
0000
0000
0000
0000
1000
0000
0000
0010
0000
0000
0000
0100
0000
0000
0000
1000
,
0000
0000
0000
0100
0000
0000
0000
0010
0000
0000
0000
1000
0000
0000
0000
0000
,
0100
0000
0000
0010
0000
0000
0000
0001
0000
0000
0000
1000
0000
0000
0000
0000
,
0001
0000
0000
0010
0000
0000
0000
0100
0000
0000
0000
1000
0000
0000
0000
0000
,
0001
0000
0000
0000
1000
0000
0000
0100
0000
0000
0000
0000
0010
0000
0000
0001
,
0000
0000
0000
0000
1000
0000
0000
0010
0000
0000
0000
0100
0000
0000
0000
0001
,
0000
0000
0000
0000
0010
0000
0000
0001
0000
0000
0000
0000
1000
0000
0000
0100
,
0000
0000
0000
0000
0001
0000
0000
0100
0000
0000
0000
1000
0000
0000
0000
0010
,
0000
0000
0000
0000
0100
0000
0000
0001
0000
0000
0000
0010
0000
0000
0000
0100
,
0000
0000
0000
1000
0000
0000
0000
0100
0000
0000
0000
0010
0000
0000
0000
0000
,
0001
0000
0000
1000
0000
0000
0000
0001
0000
0000
0000
1000
0000
0000
0000
0000
,
0010
0000
0000
0100
0000
0000
0000
0001
0000
0000
0000
1000
0000
0000
0000
0000
,
1001
0000
0000
0000
0001
0000
0000
0000
0010
0000
0000
0010
0000
0000
0000
0000
,
0100
0000
0000
0000
1000
0000
0000
0000
0100
0000
0000
0100
0000
0000
0000
0000
,
0010
0000
0000
0000
0001
0000
0000
0000
1000
0000
0000
0001
0000
0000
0000
0000
,
0100
0000
0000
0000
0010
0000
0000
0000
1000
0000
0000
0010
0000
0000
0100
0000
,
0001
0000
0000
0000
;

//--------------- dance-single - aboutblank ----------------
#NOTES:
     dance-single:
     aboutblank:
     Medium:
     10:
     0,0,0,0,0:
0000
0000
0000
0000
,
0001
0000
0200
0000
0000
0320
0000
0000
1030
0100
0000
0010
0000
0001
0000
0010
,
0000
0000
0002
0000
0000
2003
0000
0000
3010
0100
0000
0001
0000
1000
0000
0100
,
0000
0000
2000
0000
0000
3020
0000
0000
0130
0001
0000
1000
0000
0001
0000
0010
,
0000
0000
0002
0000
0000
0023
0000
0000
0130
1000
0100
0010
0000
0010
0000
0000
,
0001
1000
0000
0001
0000
0100
0000
0010
0000
1000
0000
0100
0000
0010
0000
0001
,
0000
0100
0002
0000
0000
2003
0000
0000
3010
0100
0000
0010
0000
1000
0000
0001
,
0000
1000
0000
0100
0000
0010
0000
0001
0000
1000
0000
0010
0000
0100
0000
0001
,
0000
0010
0002
0000
0000
2003
0000
0000
3010
0100
0010
0100
0000
0001
0000
0000
,
1000
0100
0000
1000
0000
0010
0000
0100
0000
0001
0000
0010
0000
0001
0000
0100
,
0000
0001
2000
0000
0000
3020
0000
0000
0130
0001
0000
1000
0000
0001
0000
0100
,
0000
0001
0000
0010
0000
0010
0000
0100
0000
1000
0000
0010
0000
1000
0000
0200
,
0000
0000
0010
0000
0000
0310
0000
0001
2000
0000
0000
0000
3001
0010
0100
1000
,
0001
0000
0100
0010
0000
0100
0000
0002
0000
0000
1000
0000
1003
0000
0001
0100
,
0001
1000
0000
0010
0000
1000
0000
0100
0000
1000
0000
0001
0000
1000
0000
0100
,
1000
0000
0100
0010
0000
0100
0000
2000
0000
0000
0010
0000
3010
0000
1000
0000
,
0001
0010
0000
0100
0000
1000
0000
0001
0000
0010
0000
1000
0000
0010
0000
0010
,
0001
0000
0100
0010
0000
1000
0000
0002
0000
0000
0010
0000
0013
0000
0001
1000
,
0001
1000
0000
0010
0000
1000
0000
0001
0000
0100
0000
0001
0000
1000
0000
0000
,
0001
0010
0000
1100
0000
0010
0000
1001
0000
0010
0000
1100
0000
0010
0000
0101
,
0000
0000
0000
0000
0000
0000
0000
0000
0000
0000
0000
0000
1100
0000
0000
0000
0000
0000
0000
0000
0000
0000
0000
0000
0000
0000
0000
0000
0000
0000
0000
0000
0000
0000
0000
0000
0011
0000
0000
0000
0000
0000
0000
0000
0000
0000
0000
0000
0000
0000
0000
0000
0000
0000
0000
0000
0000
0000
0000
0000
1010
0000
0000
0000
0000
0000
0000
0000
0000
0000
0000
0000
0000
0000
0000
0000
0000
0000
0000
0000
0000
0000
0000
0000
2002
0000
0000
0000
0000
0000
0000
0000
0000
0000
0000
0000
0000
0000
0000
0000
0000
0000
0000
0000
0000
0000
0000
0000
0000
0000
0000
0000
0000
0000
0000
0000
0000
0000
0000
0000
0000
0000
0000
0000
0000
0000
0000
0000
0000
0000
0000
0000
0000
0000
0000
0000
0000
0000
0000
3003
0000
0000
0000
0000
0000
0000
0000
0000
0000
0000
0000
0000
0000
0000
0000
0000
0000
0000
0000
0000
0000
0000
0000
0000
0000
0000
0000
0000
0000
0000
0000
0000
0000
0000
0000
0000
0000
0000
0000
0000
0000
0000
0000
0000
0000
0000
0000
0000
0000
0000
0000
0000
,
1000
0000
1000
0000
0010
0100
0000
0110
0000
0000
0001
0000
0010
0100
0000
0110
,
0000
0000
0000
0000
1000
0100
0000
0010
0000
0001
0000
0100
0000
0010
0000
1000
,
0000
0000
0000
0000
0001
0100
0000
0110
0000
0000
0000
0000
1000
0100
0000
0110
,
0000
0000
0000
0000
0001
1000
0000
0001
0000
0100
0000
0010
0000
1000
0000
0001
,
0000
0000
0000
0000
1000
0100
0000
0010
0000
0010
0000
0001
0000
0001
0000
0100
,
0000
1000
0000
0100
0000
0001
0000
0010
0000
1000
0000
0010
0000
0000
0000
0001
,
0100
0010
0000
1000
0000
1000
0000
0100
0000
0010
0000
0001
0000
0000
0000
1000
,
0100
0010
0000
0001
0000
0010
0000
0100
0000
1000
0000
0010
0000
0100
0000
0000
,
1001
0000
0000
0000
0001
0100
0000
0110
0000
0000
0000
0000
1000
0001
0000
1001
,
0000
0000
0000
0000
0001
0010
0000
0100
0000
1000
0000
0010
0000
0100
0000
0101
,
0000
0000
0000
0000
1000
0010
0000
1010
0000
0000
0000
0000
0001
0100
0000
0101
,
0000
0000
0000
0000
1000
0001
0000
0001
0000
0100
0000
0010
0000
1000
0000
0010
,
0000
0000
0000
0000
0100
1000
0000
0100
0000
0001
0000
0010
0000
0100
0000
1000
,
0000
0100
0000
0001
0000
0100
0000
1000
0000
0010
0000
0001
0000
0000
0000
1000
,
0100
0001
0000
0010
0000
0100
0000
0100
0000
1000
0000
0010
0000
0000
0000
0001
,
0010
1000
0000
0100
0000
0010
0000
0001
0000
0010
0000
0100
0000
1000
0000
0001
,
0000
0000
0200
0000
0000
0302
0000
0000
1000
0013
0000
0100
0000
0001
0000
1001
,
0000
0000
0002
0000
0000
0023
0000
0000
0130
1000
0000
0010
0000
0100
0000
0101
,
0000
0000
0002
0000
0000
2003
0000
0000
3100
0010
0000
0001
0000
1000
0000
0110
,
0000
0000
0002
0000
1003
0020
0000
0130
0001
0100
0010
1000
0001
0010
0100
1000
;

//--------------- dance-single - aboutblank ----------------
#NOTES:
     dance-single:
     aboutblank:
     Hard:
     14:
     0,0,0,0,0:
0000
0000
0000
0000
,
2000
0000
3100
0000
0100
0010
0000
0010
0001
0100
0000
0101
0000
0010
0000
1010
,
0000
0000
0001
0000
0001
0010
0000
0010
0100
1000
0000
1001
0000
0100
0000
1100
,
0000
0000
0010
0000
0010
0001
0000
0001
1000
0100
0000
0101
0000
0010
0000
1010
,
0000
0000
0001
0000
0001
1000
0000
1000
0010
0001
0010
1000
0000
0110
0000
0001
,
0020
0000
0100
0000
2030
0001
0000
3001
1000
0100
0000
0110
0000
0010
0000
0001
,
0200
0000
0310
1000
0010
0100
0001
1000
0100
0010
0000
0011
0000
1100
0000
0001
,
2000
0000
3100
0000
0020
0001
0000
0031
0100
0010
0000
1010
0000
0101
0000
0001
,
0020
0000
0130
0000
2000
0100
0000
3100
0010
0001
0100
1000
0000
0110
0000
0001
,
2000
0000
3100
0000
0020
1000
0000
1030
0010
0001
0000
1010
0000
0101
0000
1000
,
0002
0000
0103
0000
0020
1000
0000
1030
0001
0100
0010
0100
0000
0101
0000
1000
,
0200
0000
0310
0000
0002
0010
0000
0013
0100
1000
0000
1100
0000
1001
0000
0100
,
0002
0000
1003
0000
0020
0100
0000
0130
0001
1000
0100
0010
0001
0100
0001
1000
,
0020
0000
0130
0000
0100
0001
0000
2200
3300
0001
1000
0000
0001
0010
0100
0001
,
0200
1000
0000
0320
0000
0031
0000
1001
0000
1000
0100
0010
0001
1000
0100
1000
,
0002
0000
0103
0000
1000
0010
0000
2020
3030
0100
0001
0000
0010
0100
0010
0100
,
1000
0001
0000
0011
0000
1100
0000
0001
2000
0100
0000
3100
0010
0001
1000
0010
,
0200
0000
0301
0000
1000
0100
0000
0202
0303
0100
1000
0000
0010
0100
0010
1000
,
0002
0100
0000
2003
0000
3010
0000
1001
0000
0001
0100
0001
1000
0010
0100
0001
,
2000
0010
0000
3010
0200
0010
0000
0310
0002
0010
0000
0013
0200
0010
0000
0310
,
1000
0001
0000
1100
0000
0101
0000
1010
0000
0001
0100
0001
1000
0100
0010
0001
,
2000
3000
1100
0000
0001
1000
0000
0100
0001
0000
0110
0000
1000
0001
0000
0100
,
1000
0000
0110
0000
0001
0010
0000
0100
1000
0010
0000
0100
0001
0010
0000
0100
,
1000
0000
1001
0000
1000
0100
0000
0001
0100
0000
0011
0000
0001
0100
0000
1000
,
0100
0000
1010
0000
0001
1000
0000
0010
0100
0001
0000
0010
0100
1000
0000
0010
,
0100
0000
1001
0000
1000
0100
0000
0010
0100
0010
0000
0001
0010
0001
0000
1000
,
0002
0100
0000
0100
2003
0100
0000
3100
0002
0010
0000
0013
1000
0100
0010
0001
,
1000
0001
0000
1100
0000
0101
0000
1010
0000
0011
0000
1001
0000
0000
0001
0000
,
1000
0010
0000
0101
0000
1000
0000
0011
0000
1010
0000
0101
0000
0001
1000
0001
,
1000
0000
0011
0000
1000
0100
0000
0100
0001
0000
0110
0000
0001
0010
0000
0010
,
1000
0000
0110
0000
1000
0100
0000
0010
0001
0010
0000
0100
1000
0100
0000
0010
,
0001
0000
0110
0000
1000
0010
0000
0010
0001
0000
0110
0000
1000
0100
0000
0100
,
0001
0000
0110
0000
0001
1000
0000
1000
0100
0010
0000
0010
0001
1000
0000
1000
,
0010
0000
0101
0000
1000
0010
0000
0011
0000
0100
0000
1100
0000
0010
0000
0101
,
0000
0011
0000
1100
0000
1010
0000
1001
0000
1100
0000
0011
0000
0000
1000
0010
,
0200
0001
0000
0001
0320
1000
0000
1000
0230
0001
0000
0001
0310
0000
1000
0001
,
0020
1000
0000
1030
0002
0100
0000
0103
2000
0010
0000
3010
0002
0010
0000
0013
,
2000
0000
3100
0010
0001
0100
0010
1000
0010
0100
0000
0101
0000
0010
0000
2020
,
0000
3030
0001
0010
0100
1000
0001
1000
0100
0010
0000
0011
0000
0100
0000
2200
,
0000
3300
0001
1000
0100
0010
0001
1000
0001
0100
0000
0101
0000
0010
0000
2002
,
0000
0000
3003
0000
0001
0000
1000
0100
1000
0000
0001
0000
1000
0000
0100
0000
0010
0000
1000
0000
0010
0000
0001
0000
0100
0000
1000
0000
0100
0000
0001
0000
,
1000
0000
0000
0000
;
