#TITLE:I Forgive You;
#SUBTITLE:;
#ARTIST:Kelly Clarkson;
#TITLETRANSLIT:;
#SUBTITLETRANSLIT:;
#ARTISTTRANSLIT:;
#GENRE:;
#CREDIT:;
#MUSIC:I Forgive You.mp3;
#BANNER:;
#BACKGROUND:;
#CDTITLE:;
#SAMPLESTART:30.129;
#SAMPLELENGTH:12.000;
#SELECTABLE:YES;
#OFFSET:-0.198;
#BPMS:0.000=128.010;
#STOPS:;
#BGCHANGES:;
#FGCHANGES:;

//--------------- dance-single - Nezemarth ----------------
#NOTES:
     dance-single:
     Nezemarth:
     Beginner:
     4:
     0.14,0.185,0.074,0.044,0:
0000
0000
0000
0000
,
0000
0000
0000
0000
,
0000
0000
0000
0000
,
0000
0000
0000
0000
,
0000
0000
1000
0000
,
0100
0000
0010
0000
,
0100
0000
1000
0000
,
1000
0000
0001
0001
,
0002
0000
0000
0000
,
0003
0000
1000
1000
,
2000
0000
0000
0000
,
3000
0000
0010
0000
,
0100
0000
0000
0000
,
0001
0000
0001
0000
,
0020
0000
0000
0000
,
0030
0000
0000
0000
,
0001
0000
0001
0000
,
1000
0000
1000
0000
,
0010
0000
0100
0000
,
0010
0000
0100
0000
,
0001
0001
0000
0000
,
1001
0000
1001
0000
,
1000
0000
1000
0000
,
0000
0000
0001
0001
,
0001
0000
0001
0000
,
1000
0000
1000
0000
,
0100
0000
0010
0000
,
0100
0000
0010
0000
,
0001
0000
0000
0000
,
1001
0000
1001
0000
,
1000
0000
1000
0000
,
0000
0000
1000
1000
,
1000
0000
0010
0000
,
0100
0000
0010
0000
,
1000
0000
0100
0000
,
0010
0000
0000
0000
,
0001
0000
0100
0000
,
0010
0000
0100
0000
,
0001
0000
1000
0000
,
0100
0000
0010
0000
,
0020
0000
0000
0000
,
0030
0000
0100
0000
,
0200
0000
0000
0000
,
0300
0000
1000
0000
,
1000
0000
0000
0000
,
0001
0000
0001
0000
,
0200
0000
0000
0000
,
0300
0000
0000
0000
,
0010
0000
0010
0000
,
0100
0000
0100
0000
,
0001
0000
1000
0000
,
0001
0000
1000
0000
,
1001
0000
0000
0000
,
0110
0000
0110
0000
,
0001
0000
0001
0000
,
0000
0000
0100
0100
,
0100
0000
0100
0000
,
0010
0000
0010
0000
,
1000
0000
0001
0000
,
1000
0000
0001
0000
,
0010
0000
0000
0000
,
0110
0000
0110
0000
,
0001
0000
0001
0000
,
0000
0000
1000
1000
,
1000
0000
0010
0000
,
0100
0000
1000
0000
,
0100
0000
0001
0000
,
1000
0000
0000
1000
,
1000
0000
0000
0000
,
0000
0000
0001
0001
,
0001
0000
1000
0000
,
1001
0000
1000
1000
;

//--------------- dance-single - Nezemarth ----------------
#NOTES:
     dance-single:
     Nezemarth:
     Easy:
     6:
     0.264,0.291,0.111,0.103,0:
0000
0000
0000
0000
,
0000
0000
0000
0000
,
0000
0000
0000
0000
,
0000
0000
0000
0000
,
1000
0010
1000
0100
,
0010
0001
1000
0000
,
0001
0100
0010
0100
,
0001
0000
1000
1000
,
0200
0000
0000
0000
,
0310
0000
0001
0001
,
0200
0000
0000
0000
,
0310
0000
0010
1000
,
0001
0000
0000
0001
,
0010
0100
1000
0100
,
0020
0100
0000
0100
,
0030
0000
0000
0000
,
1001
1000
0100
1000
,
0010
0010
0100
0001
,
1000
0100
0010
0100
,
1000
1000
0001
0100
,
0010
0100
0000
0001
,
0101
1000
1100
1000
,
0001
0100
0010
1000
,
0000
1000
0010
0100
,
0001
1000
0100
1000
,
0001
0010
1000
0010
,
0100
1000
0001
0100
,
0010
0100
0001
0001
,
1000
0100
0000
0010
,
0011
1000
1010
0010
,
1000
0001
0010
0100
,
0000
1000
0001
1000
,
0100
0010
2000
3010
,
0100
2000
3010
0000
,
0001
0010
0100
0001
,
1000
0000
0000
0000
,
0001
0010
2000
3010
,
0100
2000
3001
0000
,
1000
0010
0100
0010
,
1000
0000
0001
0010
,
0012
0000
0000
0000
,
0103
0000
0100
0010
,
2010
0000
0000
0000
,
3100
0000
0010
0001
,
1000
0000
0000
0000
,
0010
0100
0001
1000
,
0200
0001
0000
1000
,
0300
0000
0000
1000
,
1001
1000
0020
0130
,
0001
0010
1000
0010
,
0100
1000
0001
0001
,
0100
1000
0100
0010
,
1000
1001
0000
0001
,
0110
1000
0110
0001
,
1000
0010
0100
0001
,
0000
0010
0100
0010
,
1001
1000
0020
0130
,
1000
0100
0001
1000
,
0200
0310
1000
0010
,
0001
0001
1000
0010
,
0100
0001
0000
0010
,
1001
0100
1001
1000
,
0010
0100
0001
1000
,
0000
0100
0010
0100
,
1000
0010
0100
0100
,
0000
0001
0010
0100
,
0001
0100
1000
0001
,
0100
0000
0010
0000
0000
1000
1000
0001
,
0000
0000
0000
0000
,
0010
0001
0100
1000
,
0100
0010
1000
0100
,
1001
0000
0100
0000
0010
0000
0002
0003
;

//--------------- dance-single - Nezemarth ----------------
#NOTES:
     dance-single:
     Nezemarth:
     Medium:
     9:
     0.441,0.45,0.147,0.258,0:
0000
0000
0000
0000
,
0000
0000
0000
0000
,
0000
0000
0000
0000
,
0000
0000
0000
0000
,
1000
0000
0001
0010
0001
0000
0100
0000
,
0001
0010
0001
0000
1000
0000
0000
0000
,
0010
0000
0100
0000
0001
1000
0100
1000
,
0001
0000
0100
0010
,
2000
0100
0001
3010
,
1000
0000
0010
0100
,
0002
0010
1000
0103
,
0001
0000
0010
0000
0100
0000
1000
0001
,
0200
0000
0310
0000
0000
1000
0100
2000
,
0000
3010
0100
0001
,
0020
1000
0100
0031
,
0010
1000
0010
0001
0100
0000
0010
0000
,
1001
0000
1000
0100
0002
0000
0203
0000
,
1300
0010
1000
0001
1000
1000
0010
0100
,
0002
0000
0013
0001
1000
1000
0001
0020
,
0030
0010
0100
0000
0100
1000
0001
0100
,
0010
0100
0000
0000
0000
0000
0010
0000
,
1010
0000
0010
1000
0100
0000
0001
0100
,
0010
0010
0100
2000
0000
3000
0002
0000
,
0003
0100
1000
0100
0002
0000
2003
0000
,
3100
0000
0100
0010
2000
0000
3020
0000
,
0031
1000
0010
1000
0001
0001
0100
0020
,
0000
0000
1030
0001
0010
0100
0010
0001
,
0000
0001
0100
0000
0010
0001
0010
1000
,
0000
0001
0010
0000
0000
0000
0100
0000
,
1100
0000
0100
1000
0010
0000
0010
0001
,
0010
0010
0100
0110
0000
0000
0101
0000
,
0000
0100
0001
0100
0020
0000
0230
0000
,
1300
0000
1000
0100
2000
0000
3100
0000
,
0001
0010
0002
0000
1003
0000
0100
0010
,
0100
0010
0001
0010
0001
1000
0001
0100
,
0020
0000
1000
0100
,
1030
0000
0001
0010
0002
0000
0103
0000
,
1000
0100
2000
0000
3001
0000
0000
0010
,
1000
0010
1000
0001
1000
0001
0010
0100
,
0010
0000
0020
1000
,
0032
0010
1000
0103
,
0001
0000
0010
0001
,
2000
0010
0001
0100
,
3001
0000
0010
0200
0000
0000
1300
0010
,
0100
0010
0000
0000
0000
1000
0001
1000
,
0020
0001
0100
1030
,
0002
0010
0100
0010
,
1003
0100
0001
0100
1000
0000
0001
1000
,
1001
0000
1000
0010
0002
0003
0011
0000
,
0010
0100
0001
0001
1000
0100
0010
0001
,
2000
0000
3010
1000
0001
0001
0100
0010
,
0000
0010
1000
0000
0001
0010
0100
0010
,
0001
0101
0000
0100
,
0110
0000
0010
1000
0100
0000
0001
0100
,
0010
0010
0001
1001
0000
0000
1010
0000
,
0010
0100
0001
1000
0100
0010
0001
1000
,
1001
0000
1000
0010
0200
0300
0110
0000
,
0100
0001
1000
1000
0100
0010
1000
0020
,
0000
0000
0031
1000
0010
0010
0100
0001
,
0000
0001
1000
0000
1000
0100
0010
0100
,
0001
0110
0000
0001
,
1001
0000
1000
0010
0100
0000
1000
0100
,
0001
0001
1000
1100
0000
0000
0110
0000
,
0000
0010
0001
0100
1000
0000
0100
0000
,
0101
0000
1000
0100
0010
0000
0100
0000
,
0000
1000
0001
0100
1000
0100
0001
0020
,
0000
1030
0010
0100
1000
0001
0100
0001
,
1000
0100
0010
0001
0000
1001
1000
1100
,
0000
1000
0001
1000
,
0001
0100
1000
0100
0001
0100
0020
0000
,
1030
1000
0100
0100
0001
0001
0100
0100
,
1000
0010
0100
0001
0010
0100
1000
1000
;

//--------------- dance-single - Nezemarth ----------------
#NOTES:
     dance-single:
     Nezemarth:
     Hard:
     12:
     0.577,0.61,0.428,0.074,0.037:
0000
0000
0000
0000
,
0000
0000
0000
0000
,
0000
0000
0000
0000
,
0000
0000
0000
0000
,
1001
0000
1000
0100
0001
0100
0010
0000
,
0001
0100
1000
0100
0010
0000
0001
0010
,
1000
1000
0001
0001
0010
0100
0001
0100
,
1000
0000
1001
0000
1000
0100
0010
0000
,
0001
0100
1000
0100
0001
0100
1000
0100
,
0010
1000
0100
0000
0010
0100
1000
0000
,
1000
0100
0001
0100
1000
0100
0010
0001
,
0100
0000
1000
0100
0010
1000
0001
0010
,
0100
1000
0010
0000
0100
0001
0010
0000
,
1000
0010
0001
1000
0010
0100
0001
0000
,
0002
0010
1003
0000
2000
0010
3001
0000
,
1000
0100
0001
0010
2000
0000
3001
0000
,
1001
0000
1000
0100
0001
0100
0110
0000
,
0010
0001
1000
0010
0100
0001
0010
0100
,
1100
0000
1010
0010
0100
0010
1000
0001
,
0010
0100
1100
0000
1001
0001
0100
0010
,
1000
0010
0001
0000
0000
0000
0010
1000
,
1001
0000
0010
0001
0101
0000
0100
0010
,
1000
0100
0010
0001
0100
0001
1001
0000
,
1000
0000
0100
0000
0001
0000
0100
0000
0010
0000
0001
0000
1000
0010
1000
0000
,
1001
0000
0001
0100
1000
0100
0110
0000
,
0010
1000
0001
0010
0100
0010
0001
0100
,
0101
0000
0011
0010
0100
1000
0001
0100
,
0000
0000
0100
0000
0001
0000
0000
0000
0001
0000
0010
0000
0100
0000
1000
0010
,
1000
0001
0011
0000
1000
0000
0010
0100
,
0110
0000
0100
0001
1001
0000
1000
0100
,
0001
0100
0010
0001
0100
0010
0110
0000
,
0010
1000
1000
0001
0010
0100
1000
0000
,
1001
0000
1000
0010
0001
0010
0100
0000
,
0001
0010
1000
0010
0100
1000
0001
0100
,
0010
0010
0001
0001
1000
0100
0001
1000
,
0100
0000
0001
0100
0100
1000
0010
0100
,
0001
0000
0010
1000
0001
1000
0010
0000
,
0001
0100
1000
0100
0010
1000
0100
0010
,
1000
1000
0010
0010
0100
1000
0010
0100
,
1000
0100
0001
1000
0100
0010
0001
0000
,
1000
0010
0001
0010
1000
0010
0001
0010
,
0100
0001
1001
0000
0001
0010
1000
0000
,
1000
0010
0001
0010
1000
0010
0001
0100
,
0010
0001
0010
1000
0200
0000
0301
0100
,
0020
0000
0031
0100
2000
0000
3100
0010
,
2000
0000
3200
0000
0301
0100
2000
0000
,
3010
0100
1000
0100
0001
0010
0100
0001
,
0100
0000
1000
0000
0010
0000
0001
0000
0100
0000
1000
0000
0001
0100
0001
0100
,
0010
0000
0010
1000
0001
0010
0110
0000
,
1100
1000
0001
0100
1000
0100
0010
1000
,
1010
0000
1001
0001
0010
0100
0001
0100
,
0110
1000
0001
0000
0100
0010
1000
0100
,
0110
0001
0011
0000
1001
0000
1010
0010
,
0110
0000
0101
0001
1001
0000
0110
1000
,
1100
1000
0010
0110
0100
0001
1001
0000
,
1000
0000
0100
0000
0010
0000
1000
0000
0010
0000
0001
1000
0010
0100
0010
0100
,
0001
0000
1000
0001
0011
1000
0100
0000
,
0010
0001
0100
1000
0100
0010
1000
0001
,
0011
0000
0110
0100
1000
0001
0100
0010
,
0110
0000
0100
0000
0101
0000
0000
0000
1001
0000
1000
0000
0100
0000
0010
0001
,
1000
0010
0110
0000
0101
0000
1001
0001
,
0011
0000
0110
0100
1100
0000
1001
0001
,
0101
0100
0010
1010
0001
0010
0110
0000
,
1100
0000
0001
0000
0100
0000
0110
0000
1000
0000
0001
0000
0010
0001
0010
0001
,
1000
0000
0010
0100
0001
0010
1000
0000
,
0010
0001
1000
0010
0100
1000
0100
0001
,
0000
0001
0010
1000
0010
0100
1000
0001
,
0100
1000
0100
0010
0000
1010
0100
0011
,
0001
1000
0010
0100
0001
1000
0100
0010
,
0001
0000
0001
0100
1000
0001
1000
0100
,
0010
0010
1000
1000
0100
0100
0001
0001
,
0110
1000
0010
0100
0001
0010
1000
0020
,
0030
0000
0000
0000
;
