#TITLE:How Do You Sleep?;
#SUBTITLE:;
#ARTIST:Jesse McCartney;
#TITLETRANSLIT:;
#SUBTITLETRANSLIT:;
#ARTISTTRANSLIT:;
#GENRE:;
#CREDIT:;
#MUSIC:How Do You Sleep.mp3;
#BANNER:;
#BACKGROUND:;
#CDTITLE:;
#SAMPLESTART:52.958;
#SAMPLELENGTH:12.736;
#SELECTABLE:YES;
#OFFSET:2.231;
#BPMS:0.000=106.000;
#STOPS:;
#BGCHANGES:2.231=How Do You Sleep.avi=1.000=1=0=0,
99999=-nosongbg-=1.000=0=0=0 // don't automatically add -songbackground-
;
#FGCHANGES:;

//--------------- dance-single - OrangeRight ----------------
#NOTES:
     dance-single:
     OrangeRight:
     Beginner:
     1:
     0,0,0,0,0:
0000
0000
0000
0000
,
0000
0000
0000
0000
,
0000
0000
0000
0000
,
0000
0000
0000
0000
,
0000
0000
0000
0000
,
1000
0000
0000
0000
,
1000
0000
0000
0000
,
1000
0000
0001
0000
,
0100
0000
0000
0000
,
0001
0000
0000
0000
,
0001
0000
0000
0000
,
0001
0000
1000
0000
,
0100
0000
0100
0000
,
1000
0000
0000
0000
,
0001
0000
0000
0000
,
1000
0000
0000
0000
,
0001
0000
0100
0000
,
0001
0000
0000
0000
,
1000
0000
0000
0000
,
0001
0000
0000
0000
,
1000
0000
0100
0000
,
1000
0000
1000
0000
,
0001
0000
0001
0000
,
1000
0000
1000
0000
,
0001
0000
1000
0000
,
0001
0000
0000
0000
,
0001
0000
0000
0000
,
0001
0000
1000
0000
,
0010
0000
0000
0000
,
1000
0000
0000
0000
,
1000
0000
0000
0000
,
1000
0000
0001
0000
,
0010
0000
0000
0000
,
0001
0000
0000
0000
,
0100
0000
0001
0000
,
1000
0000
0000
0000
,
0100
0000
1000
0000
,
0010
0000
0000
0000
,
0010
0000
0100
0000
,
0001
0000
0000
0000
,
0001
0000
1000
0000
,
0001
0000
0001
0000
,
1000
0000
1000
0000
,
0001
0000
0001
0000
,
1000
0000
0001
0000
,
1000
0000
1000
0000
,
0100
0000
0100
0000
,
0010
0000
0100
0000
,
1000
0000
0000
0000
,
0001
0000
0001
0000
,
0100
0000
0100
0000
,
0010
0000
1000
0000
,
0001
0000
1000
0000
,
0001
0000
0000
0000
;

//--------------- dance-single - OrangeRight ----------------
#NOTES:
     dance-single:
     OrangeRight:
     Easy:
     3:
     0,0,0,0,0:
0000
0000
0000
0000
,
0000
0000
0000
0000
,
0000
0000
0000
0000
,
0000
0000
0000
0000
,
0000
0000
1000
0100
,
2000
3000
0001
0100
,
0002
0003
1000
0001
,
2000
3000
1001
0000
,
1001
0000
0001
0010
,
0002
0003
1000
0010
,
2000
3000
0001
1000
,
0002
0003
1001
0000
,
1001
0000
1000
0001
,
1000
0000
0010
0000
,
0100
0001
1000
0001
,
0010
0000
0100
0000
,
1000
0001
0100
0010
,
1000
0000
0100
0000
,
0010
0100
1000
0001
,
0100
0000
0010
0000
,
1000
0100
0010
0001
,
1000
1000
0100
0000
,
0010
0010
0001
0000
,
1000
1000
0001
0000
,
1000
0001
1000
0001
,
2000
3000
0100
1000
,
0002
0003
0100
0001
,
2000
3000
1001
0000
,
1001
0000
0001
1000
,
0002
0003
0010
0001
,
2000
3000
0010
1000
,
0200
0300
1001
0000
,
1001
0000
1000
0001
,
1000
0100
1000
0100
,
0010
0001
2000
3000
,
0001
0100
0001
0100
,
0010
1000
0002
0003
,
1000
0100
0010
0100
,
1000
0001
2000
3000
,
0001
1000
0001
0001
,
1000
0001
1000
1000
,
0001
0001
0100
0000
,
0010
0010
1000
0000
,
1000
1000
0001
0000
,
1000
0001
1000
0100
,
0020
0030
0001
0100
,
0020
0030
1000
0001
,
2000
3000
1001
0000
,
1001
0000
0001
0010
,
0200
0300
1000
0010
,
0200
0300
0001
1000
,
0002
0003
1001
0000
,
1001
0000
1000
0002
,
2000
0000
0000
0000
,
3003
0000
0000
0000
;

//--------------- dance-single - OrangeRight ----------------
#NOTES:
     dance-single:
     OrangeRight:
     Medium:
     7:
     0,0,0,0,0:
0000
0000
0000
0000
,
0000
0000
0000
0000
,
0000
0000
0000
0000
,
0000
0000
0000
0000
,
0000
0000
0001
1000
,
0002
0000
0103
0000
0100
0010
0100
0000
,
0020
0000
1030
0000
1000
0001
1000
0000
,
0002
0000
1003
0000
1000
0100
1000
0000
,
0001
0100
0001
0000
1000
0000
0001
0000
,
2000
0000
3100
0000
0100
0010
0100
0000
,
0020
0000
0031
0000
0001
1000
0001
0000
,
2000
0000
3001
0000
1000
0100
1000
0000
,
0001
0100
0001
0000
0100
0010
0100
0000
,
0010
1000
0100
0010
,
0001
0000
0100
0000
0010
0100
0010
0000
,
1000
0100
0010
0001
,
0100
0000
0010
0000
1000
0001
1000
0000
,
0010
0100
0001
0010
,
0100
0000
1000
0000
0010
0100
0010
0000
,
1000
0100
0010
0100
,
1000
0000
0001
0000
0100
0010
1000
0000
,
0001
0001
0001
0000
1000
0001
0100
0000
,
0001
0100
0001
0000
0100
0010
1000
0000
,
0001
0010
0001
0000
1000
0010
1000
0000
,
0001
0010
0100
1000
,
0002
0000
1003
0000
1000
0010
1000
0000
,
0200
0000
0310
0000
0001
1000
0001
0000
,
2000
0000
3100
0000
1000
0010
0100
0000
,
0001
0010
0100
0000
1000
0000
0001
0000
,
2000
0000
3001
0000
0001
0010
0001
0000
,
0200
0000
0310
0000
1000
0001
1000
0000
,
0002
0000
0103
0000
0001
0010
0100
0000
,
1000
0010
0100
0000
0001
1000
0001
0000
,
2000
3001
0100
0010
,
1000
0000
0100
0000
1000
0010
0100
0000
,
0002
1003
0100
0010
,
0001
0000
0100
0000
0001
0010
0100
0000
,
1000
0000
0010
0000
0100
0001
0100
0000
,
0010
1000
0010
0000
1000
0001
1000
0000
,
0001
0000
0010
0000
0100
1000
0100
0010
,
0100
1000
0100
0000
0010
0000
0001
0000
,
1000
1000
1000
0000
0001
0100
0001
0000
,
0100
0010
0100
0000
0010
1000
0001
0000
,
0010
0001
0010
0000
0100
1000
0100
0000
,
1000
0001
1000
0000
0001
0100
0001
0200
,
0000
0310
0000
0010
1000
0010
1000
0200
,
0000
0310
0000
0001
1000
0001
1000
0020
,
0000
0130
0000
0000
0001
0100
0001
0000
,
1000
0100
1000
0000
0001
0010
0001
0020
,
0000
0130
0000
1000
0100
1000
0100
0020
,
0000
0031
0000
0001
0100
0010
1000
0002
,
0000
1003
0000
0000
1000
0010
1000
0000
,
0001
0010
0001
0000
1000
0001
1000
0002
,
2000
0000
0000
0000
,
3003
0000
0000
0000
;

//--------------- dance-single - OrangeRight ----------------
#NOTES:
     dance-single:
     OrangeRight:
     Hard:
     10:
     0,0,0,0,0:
0000
0000
0000
0000
,
0000
0000
0000
0000
,
0000
0000
0000
0000
,
0000
0000
0000
0000
,
0000
0000
0000
0000
0000
0000
0000
0000
1000
0100
1000
0000
0001
0000
0200
0000
,
0000
0301
0000
0001
0100
0010
1000
0200
,
0000
0000
1300
0000
0000
1000
0001
0000
0010
0000
0100
0000
1000
0000
0002
0000
,
0000
1003
0001
0000
1000
0100
0001
0000
,
0001
0000
0100
0000
1000
0000
0001
0010
0001
0000
0100
0000
0010
0000
2000
0000
,
0000
3001
0000
1000
0010
0100
0001
0020
,
0000
0130
0000
0100
1000
0001
0100
0020
,
0000
0130
0010
0000
1000
0010
0001
0000
,
0001
0010
1000
0010
0100
0001
0010
0001
,
1000
0000
0010
0000
1000
0000
0000
0001
0000
0000
1000
0000
0100
0000
0000
0000
,
1000
0100
0010
0001
0100
0010
0100
0000
,
0001
0000
0100
0000
0001
0000
0000
1000
0000
0000
0001
0000
0010
0000
0000
0000
,
0001
0100
0001
0010
0100
1000
0001
0000
,
1000
0010
1000
0010
0100
0000
0001
0000
,
0010
0100
1000
0000
0010
0100
0001
0000
,
1000
0100
0010
0001
0100
0001
1000
0001
,
0010
0100
1000
0001
2000
0000
3001
0000
,
1000
0000
0100
0000
1000
0000
0010
0000
0100
0000
0001
0100
0000
0000
0001
0000
,
0010
0000
0100
0000
1000
0000
0010
0000
0100
0000
0001
1000
0000
0000
1000
0000
,
0001
0000
0010
0000
0001
0000
0100
0000
0010
0000
1000
0100
0000
0100
1000
0000
,
0001
0000
0100
0000
0010
0000
1000
0000
0001
0010
0001
0000
0100
0000
0020
0000
,
0000
1030
0000
1000
0100
0010
0001
0200
,
0000
0000
0310
0000
0000
0010
1000
0000
0001
0000
0010
0000
0001
0000
2000
0000
,
0000
3001
1000
0000
0001
0100
1000
0000
,
1000
0000
0100
0000
0001
0000
1000
0100
1000
0000
0001
0000
0100
0000
0020
0000
,
0000
1030
0000
1000
0100
0010
0100
2000
,
0000
3010
0000
0100
0001
0010
0100
2000
,
0000
3001
1000
0000
0001
0010
1000
0000
,
1000
0010
0001
0010
0100
1000
0010
1000
,
0001
0100
0000
0000
0100
0000
0010
0000
1000
0000
0100
0000
0010
0000
0000
0001
,
0000
0100
0010
0000
1000
0001
1001
0000
,
1000
0100
0000
0000
0100
0000
0010
0000
0001
0000
0100
0000
0010
0000
0000
1000
,
0000
0001
0010
0100
1000
0010
1010
0000
,
0010
1000
0100
0010
0001
0100
0001
0000
,
0010
0000
0100
0000
1000
0000
0000
0000
0001
0000
0000
0100
0000
0000
0010
0000
,
1000
0000
0100
0000
0010
0000
0001
0010
0001
0000
0100
0000
1000
0000
0100
0000
,
0010
0100
0001
0010
0100
1000
0001
0000
,
1000
0000
0001
0000
0010
0000
0100
0000
1000
0000
0010
1000
0000
0000
1000
0000
,
0100
0000
0010
0000
0001
0000
0100
0000
0010
0000
1000
0001
0000
0000
0001
0000
,
0010
0000
0100
0000
1000
0000
0010
0000
0100
0000
0001
0100
0000
0100
0001
0000
,
1000
0000
0001
0000
1000
0000
0100
0000
1000
0010
1000
0000
0001
0000
0200
0000
,
0000
0301
0000
0001
1000
0010
0100
0020
,
0000
0000
0130
0000
0000
0100
0001
0000
1000
0000
0100
0000
1000
0000
0002
0000
,
0000
1003
0001
0000
1000
0100
0001
0000
,
0001
0000
0100
0000
1000
0000
0001
0100
0001
0000
1000
0000
0100
0000
0020
0000
,
0000
0031
0000
0001
0100
0010
0100
0002
,
0000
0013
0000
0100
1000
0010
0001
0020
,
0000
1030
0001
0000
1000
0100
0001
0000
,
0001
0100
1000
0010
0100
0001
0010
0002
,
2000
0000
0000
0000
,
3003
0000
0000
0000
;

//--------------- dance-double - OrangeRight ----------------
#NOTES:
     dance-double:
     OrangeRight:
     Easy:
     4:
     0,0,0,0,0:
00000000
00000000
00000000
00000000
,
00000000
00000000
00000000
00000000
,
00000000
00000000
00000000
00000000
,
00000000
00000000
00000000
00000000
,
00000000
00000000
10000000
00010000
,
20000000
30000000
00010000
10000000
,
00020000
00030000
01000000
00010000
,
00200000
00300000
00002000
00003000
,
00020000
00030000
00000100
00001000
,
00000002
00000003
00000100
00000001
,
00002000
00003000
00000010
00001000
,
00000200
00000300
00020000
00030000
,
00002000
00003000
00010000
00001000
,
00010000
00000000
00001000
00000000
,
00100000
00010000
01000000
00000000
,
00001000
00000000
00010000
00000000
,
00000100
00001000
00000010
00000000
,
00000100
00000000
00000001
00000000
,
00001000
00000100
00000010
00000000
,
00000001
00000000
00001000
00000000
,
00000010
00010000
00001000
00100000
,
00010000
00010000
01000000
00000000
,
00100000
00100000
10000000
00000000
,
10000000
00010000
01000000
00000000
,
00001000
00010000
00000100
00001000
,
00000002
00000003
00000010
00000001
,
00002000
00003000
00000010
00001000
,
00000200
00000300
00020000
00030000
,
00002000
00003000
01000000
00010000
,
20000000
30000000
00100000
10000000
,
00020000
00030000
00100000
00010000
,
20000000
30000000
02000000
03000000
,
00200000
00300000
00010000
10000000
,
00010000
01000000
00010000
01000000
,
00100000
10000000
00010000
00000000
,
00100000
00001000
00010000
00000100
,
00001000
00000001
00001000
00000000
,
00000001
00000100
00000001
00000100
,
00000010
00001000
00000100
00000000
,
00001000
00000100
00010000
00000100
,
00001000
00000010
00000200
00000300
,
00000001
00000001
00000100
00000000
,
00000010
00000010
00001000
00000000
,
00000001
00000001
00001000
00000000
,
00000001
00001000
00000100
00000010
,
00000002
00000003
00000100
00000010
,
00002000
00003000
00000100
00010000
,
00002000
00003000
00200000
00300000
,
00010000
01000000
00100000
10000000
,
00020000
00030000
00100000
00010000
,
20000000
30000000
00100000
10000000
,
02000000
03000000
00100000
00010000
,
01000000
00100000
10000000
00020000
,
20000000
00000000
00000000
00000000
,
30030000
00000000
00000000
00000000
;

//--------------- dance-double - OrangeRight ----------------
#NOTES:
     dance-double:
     OrangeRight:
     Medium:
     6:
     0,0,0,0,0:
00000000
00000000
00000000
00000000
,
00000000
00000000
00000000
00000000
,
00000000
00000000
00000000
00000000
,
00000000
00000000
00000000
00000000
,
00000000
00000000
10000000
01000000
,
00200000
00000000
00310000
00000000
01000000
00010000
01000000
00000000
,
00020000
00000000
00130000
00000000
00001000
00010000
00001000
00000000
,
00010000
00000000
00000100
00000000
00001000
00000010
00001000
00000000
,
00000001
00000100
00000001
00000000
00001000
00000000
00000100
00000000
,
00000020
00000000
00000031
00000000
00000100
00000001
00000100
00000000
,
00000020
00000000
00001030
00000000
00000100
00001000
00000100
00000000
,
00020000
00000000
00031000
00000000
00001000
01000000
00001000
00000000
,
01000000
00010000
01000000
00000000
00100000
01000000
00100000
00000000
,
10000000
01000000
10000000
00000000
00100000
00000000
01000000
00000000
,
00010000
00000000
00100000
00000000
00001000
00010000
00001000
00000000
,
00010000
00000100
00001000
00000010
,
00000100
00000000
00000001
00000000
00001000
00000001
00001000
00000000
,
00000100
00010000
00001000
00100000
,
00010000
00000000
01000000
00000000
00100000
10000000
01000000
00000000
,
10000000
00010000
10000000
00000000
00100000
01000000
00100000
00000000
,
10000000
00100000
01000000
00010000
,
20000000
00000000
31000000
00000000
01000000
00100000
01000000
00000000
,
00200000
00000000
00310000
00000000
01000000
00010000
01000000
00000000
,
00020000
00000000
00130000
00000000
00100000
00001000
00010000
00000000
,
00000100
00001000
00000100
00000000
00000010
00000000
00000001
00000000
,
00000200
00000310
00000100
00000001
,
00000020
00000130
00001000
00000001
,
00002000
00000000
00003100
00000000
00000100
00010000
00000100
00000000
,
00010000
00001000
00010000
00000000
00001000
00000000
00100000
00000000
,
00020000
01030000
00100000
10000000
,
02000000
03100000
00010000
10000000
,
00020000
00000000
10030000
00000000
00010000
01000000
00010000
00000000
,
10000000
01000000
10000000
00000000
00100000
01000000
00100000
00000000
,
01000000
00010000
00100000
00001000
,
00010000
00000000
00000100
00000000
00001000
00000010
00000100
00000000
,
00000010
00001000
00000100
00010000
,
00001000
00000000
00100000
00000000
00010000
01000000
00100000
00000000
,
01000000
00010000
00100000
00010000
,
01000000
00000000
00001000
00000000
00010000
00000100
00001000
00000000
,
00000010
00000100
00000001
00001000
,
00000100
00000000
00000010
00000000
00000001
00000100
00000010
00000000
,
00002000
00000000
00003100
00000000
00000100
00000010
00000100
00000000
,
00000020
00000000
00000031
00000000
00000001
00000100
00000001
00000000
,
00001000
00000100
00010000
00000000
00001000
01000000
00010000
00000000
,
00100000
00010000
01000000
00000000
00100000
10000000
00100000
00000000
,
02000000
00000000
03010000
00000000
00010000
00100000
00010000
00000000
,
02000000
00000000
03100000
00000000
10000000
00010000
10000000
00000000
,
00020000
00000000
10030000
00000000
10000000
00010000
10000000
00000000
,
00010000
01000000
00010000
00000000
00100000
00001000
00100000
00000000
,
00002000
00000000
00013000
00000000
00010000
00000100
00010000
00000000
,
00000200
00000000
00001300
00000000
00001000
00000010
00000100
00000000
,
00000002
00000000
00001003
00000000
00001000
00000001
00001000
00000000
,
00000010
00000100
00000010
00000000
00001000
00000001
00001000
00000002
,
00002000
00000000
00000000
00000000
,
00003003
00000000
00000000
00000000
;

//--------------- dance-double - OrangeRight ----------------
#NOTES:
     dance-double:
     OrangeRight:
     Hard:
     10:
     0,0,0,0,0:
00000000
00000000
00000000
00000000
,
00000000
00000000
00000000
00000000
,
00000000
00000000
00000000
00000000
,
00000000
00000000
00000000
00000000
,
00000000
00000000
00000000
00000000
00000000
00000000
00000000
00000000
10000000
01000000
10000000
00000000
00010000
00000000
02000000
00000000
,
00000000
03010000
00000000
00100000
00001000
00010000
00000100
00002000
,
00000000
00000000
00003010
00000000
00000000
00000010
00000100
00000000
00000001
00000000
00000010
00000000
00000100
00000000
00002000
00000000
,
00000000
00003001
00001000
00000000
00000001
00000100
00001000
00000000
,
00001000
00000000
00000100
00000000
00000001
00000000
00001000
00000100
00001000
00000000
00000001
00000000
00000100
00000000
00000020
00000000
,
00000000
00001030
00000000
00000100
00010000
00001000
00100000
00020000
,
00000000
01030000
00000000
00100000
10000000
01000000
00100000
00020000
,
00000000
10030000
00010000
00000000
10000000
01000000
00010000
00000000
,
00010000
01000000
10000000
00100000
01000000
00010000
00100000
01000000
,
10000000
00000000
00100000
00000000
10000000
00000000
00000000
00010000
00000000
00000000
01000000
00000000
00001000
00000000
00000000
00000000
,
00010000
00001000
00010000
00000100
00001000
00000010
00000100
00000000
,
00000001
00000000
00000010
00000000
00000001
00000000
00000000
00001000
00000000
00000000
00000100
00000000
00010000
00000000
00000000
00000000
,
00001000
00010000
00001000
01000000
00010000
10000000
01000000
00000000
,
10000000
01000000
00100000
00010000
01000000
00001000
00010000
00000000
,
00001000
00010000
00000100
00000000
00001000
00000010
00000100
00000000
,
00000001
00000000
00000010
00000001
00000010
00000000
00000001
00000000
00000100
00000010
00000100
00000000
00000010
00000000
00001000
00000001
,
00001000
00000001
00000100
00000010
00002000
00000000
00003001
00000000
,
00001000
00000000
00000100
00000000
00001000
00000000
00000010
00000000
00000100
00000000
00000010
00001000
00000000
00000000
00000100
00000000
,
00010000
00000000
00001000
00000000
00100000
00000000
00001000
00000000
00010000
00000000
00000100
00010000
00000000
00000000
00001000
00000000
,
00100000
00000000
00010000
00000000
01000000
00000000
00100000
00000000
10000000
00000000
00010000
10000000
00000000
10000000
00010000
00000000
,
10000000
00000000
01000000
00000000
00100000
00000000
00010000
00000000
10000000
00100000
10000000
00000000
00010000
00000000
00200000
00000000
,
00000000
00310000
00000000
01000000
00001000
00010000
00000010
00002000
,
00000000
00000000
00003100
00000000
00000000
00000100
00000010
00000000
00000001
00000000
00000100
00000000
00000010
00000000
00002000
00000000
,
00000000
00003001
00001000
00000000
00000001
00000010
00001000
00000000
,
00001000
00000000
00000010
00000000
00000001
00000000
00001000
00000010
00001000
00000000
00000001
00000000
00000010
00000000
00000200
00000000
,
00000000
00001300
00000000
00000010
00010000
00001000
01000000
00020000
,
00000000
00130000
00000000
01000000
10000000
00100000
01000000
00020000
,
00000000
10030000
00010000
00000000
10000000
00100000
00010000
00000000
,
00010000
00100000
10000000
01000000
00100000
00010000
01000000
00100000
,
10000000
00010000
00000000
00000000
01000000
00000000
00001000
00000000
00010000
00000000
00000100
00000000
00001000
00000000
00000000
00000010
,
00000000
00000100
00000001
00000010
00000100
00000010
00000110
00000000
,
00000001
00001000
00000000
00000000
00000100
00000000
00010000
00000000
00001000
00000000
01000000
00000000
00010000
00000000
00000000
00100000
,
00000000
01000000
10000000
00100000
01000000
00010000
00110000
00000000
,
00100000
01000000
10000000
00100000
01000000
00010000
00100000
00000000
,
00010000
00000000
00100000
00000000
00001000
00000000
00010000
00000000
00000100
00000000
00000000
00001000
00000000
00000000
00000001
00000000
,
00001000
00000000
00000010
00000000
00000100
00000000
00000010
00001000
00000010
00000000
00000100
00000000
00000001
00000000
00000100
00000000
,
00001000
00000100
00000001
00000100
00000010
00001000
00000100
00000000
,
00001000
00000000
00000100
00000000
00010000
00000000
00001000
00000000
00100000
00000000
00010000
01000000
00000000
00000000
01000000
00000000
,
00010000
00000000
00100000
00000000
00001000
00000000
00010000
00000000
00000100
00000000
00001000
00000010
00000000
00000000
00000100
00000000
,
00000001
00000000
00000010
00000000
00000100
00000000
00001000
00000000
00000010
00000000
00000100
00000001
00000000
00000001
00000100
00000000
,
00000010
00000000
00001000
00000000
00000100
00000000
00000010
00000000
00000001
00000100
00000001
00000000
00001000
00000000
00000200
00000000
,
00000000
00001300
00000000
00000010
00001000
00000100
00010000
00002000
,
00000000
00000000
00013000
00000000
00000000
00001000
00100000
00000000
00010000
00000000
00100000
00000000
01000000
00000000
20000000
00000000
,
00000000
30010000
10000000
00000000
00010000
01000000
10000000
00000000
,
10000000
00000000
01000000
00000000
00010000
00000000
10000000
01000000
10000000
00000000
01000000
00000000
00100000
00000000
00020000
00000000
,
00000000
01030000
00000000
00010000
01000000
00001000
00010000
00002000
,
00000000
00013000
00000000
00010000
00000100
00001000
00000010
00000200
,
00000000
00000310
00000100
00000000
00000001
00000100
00001000
00000000
,
00001000
00000100
00000001
00000010
00000100
00001000
00000010
00000200
,
00000002
00000000
00000000
00000000
,
00000303
00000000
00000000
00000000
;
