#TITLE:HOT N COLD;
#SUBTITLE:(Bimbo Jones Remix);
#ARTIST:Katy Perry;
#TITLETRANSLIT:;
#SUBTITLETRANSLIT:;
#ARTISTTRANSLIT:;
#GENRE:;
#CREDIT:;
#MUSIC:Hot N Cold (Bimbo Jones Remix).mp3;
#BANNER:;
#BACKGROUND:;
#CDTITLE:;
#SAMPLESTART:51.230;
#SAMPLELENGTH:15.058;
#SELECTABLE:YES;
#OFFSET:1.820;
#BPMS:0.000=129.500;
#STOPS:;
#BGCHANGES:;
#FGCHANGES:;

//--------------- dance-single - OrangeRight ----------------
#NOTES:
     dance-single:
     OrangeRight:
     Beginner:
     2:
     0,0,0,0,0:
0000
0000
0000
0000
,
0000
0000
0000
0000
,
0000
0000
0000
0000
,
0000
0000
0000
0000
,
0000
0000
0000
0000
,
1000
0000
0000
0000
,
0001
0000
0000
0000
,
0100
0000
0000
0000
,
0100
0000
0000
0000
,
0001
0000
0000
0000
,
1000
0000
0000
0000
,
0100
0000
0000
0000
,
0010
0000
0000
0000
,
0001
0000
0000
0000
,
0001
0000
0000
0000
,
0100
0000
0000
0000
,
0010
0000
0000
0000
,
1000
0000
0000
0000
,
1000
0000
0000
0000
,
0100
0000
0000
0000
,
0010
0000
0000
0000
,
0001
0000
0000
0000
,
1000
0000
0000
0000
,
0010
0000
0000
0000
,
0010
0000
0000
0000
,
1000
0000
0000
0000
,
0001
0000
0000
0000
,
0010
0000
0000
0000
,
0100
0000
0000
0000
,
1000
0000
1000
0000
,
0001
0000
0001
0000
,
0100
0000
0010
0000
,
0010
0000
0100
0000
,
0001
0000
0001
0000
,
1000
0000
1000
0000
,
0010
0000
0100
0000
,
0100
0000
0010
0000
,
1000
0000
0000
0000
,
0001
0000
0000
0000
,
0100
0000
0000
0000
,
0100
0000
0100
0000
,
0001
0000
0000
0000
,
1000
0000
0000
0000
,
0100
0000
0010
0000
,
0001
0000
0000
0000
,
1001
0000
0000
0000
,
1000
0000
1000
0000
,
0001
0000
0001
0000
,
0100
0000
0010
0000
,
0010
0000
0100
0000
,
0001
0000
1000
0000
,
0001
0000
1000
0000
,
0100
0000
0010
0000
,
0001
0000
1000
0000
,
0001
0000
0001
0000
,
0010
0000
0100
0000
,
1000
0000
1000
0000
,
0010
0000
0100
0000
,
0001
0000
0001
0000
,
1000
0000
1000
0000
,
0100
0000
0010
0000
,
0010
0000
0100
0000
,
1000
0000
0000
0000
;

//--------------- dance-single - OrangeRight ----------------
#NOTES:
     dance-single:
     OrangeRight:
     Easy:
     4:
     0,0,0,0,0:
0000
0000
0000
0000
,
0000
0000
0000
0000
,
0000
0000
0000
0000
,
0000
0000
0000
0000
,
0000
0000
0000
0000
,
1000
0100
1000
0000
,
0001
0100
0001
0000
,
0100
0001
0010
0000
,
0100
1000
0010
0100
,
0001
0010
0001
0000
,
1000
0010
1000
0000
,
0010
1000
0100
0010
,
0002
0000
1003
0001
,
2000
3000
0000
1000
,
0002
0003
0000
0001
,
0200
0300
0000
0100
,
0020
0030
0010
1000
,
0002
0003
0000
0001
,
2000
3000
0000
1000
,
0020
0030
0000
0010
,
0100
0001
1000
0001
,
2000
3000
0001
0100
,
0002
0003
1000
0010
,
2000
3000
0001
0010
,
0002
0003
0100
0010
,
2000
3000
1000
0100
,
0020
0030
0002
0003
,
2000
3000
0001
1000
,
0002
0000
0003
0000
,
1000
0001
1000
0000
,
0001
1000
0001
0000
,
1000
0100
0010
0000
,
0010
0100
1000
0000
,
0001
1000
0001
0000
,
1000
0001
1000
0000
,
0001
0100
0010
0000
,
1000
0100
0010
0001
,
2000
0000
3000
0000
,
0002
0000
0003
0000
,
0200
0300
0020
0030
,
2000
3000
0002
0003
,
2000
0000
3000
0000
,
0002
0000
0003
0000
,
0020
0030
0200
0300
,
2002
0000
3003
0000
,
0110
0000
0000
0000
,
1000
0010
0100
0000
,
0001
0010
0100
0000
,
1000
0100
0010
0000
,
0010
0100
1000
0000
,
0001
0100
0010
0000
,
1000
0100
0010
0000
,
0001
0010
0100
0000
,
1000
0001
1000
0001
,
1001
1000
0010
0100
,
0001
0000
0001
0000
,
1001
0001
0010
0100
,
1000
0000
1000
0100
,
1000
0001
0010
0000
,
0001
1000
0010
0000
,
0010
1000
0100
0000
,
0010
0001
0100
0010
,
1001
0000
0000
0000
;

//--------------- dance-single - OrangeRight ----------------
#NOTES:
     dance-single:
     OrangeRight:
     Medium:
     7:
     0,0,0,0,0:
0000
0000
0000
0000
,
0000
0000
0000
0000
,
0000
0000
0000
0000
,
0000
0000
0000
0000
,
0000
0000
0000
0000
,
1000
0100
1000
0010
,
0100
0001
0100
0010
,
1000
0100
0010
0001
,
0100
0000
1000
0000
0100
0001
1000
0000
,
0001
0100
0001
0010
,
0100
1000
0100
0010
,
0001
0100
0010
1000
,
0100
0000
0001
0000
0100
1000
0001
0000
,
2000
0000
3010
0000
0010
0100
0010
0000
,
0200
0000
0301
0000
0001
1000
0001
0000
,
2000
0000
3001
0000
0001
0100
0001
0000
,
0002
0000
1003
0000
1000
0100
1000
0000
,
0002
0000
0013
0000
0010
0100
0010
0000
,
0200
0000
1300
0000
1000
0001
1000
0000
,
0002
0000
1003
0000
1000
0010
0100
0000
,
0200
0000
0310
0000
0010
1000
0001
0000
,
0002
0000
0013
0000
0010
0100
1000
0000
,
2000
0000
3010
0000
0010
0100
0001
0000
,
0020
0000
0130
0000
0100
1000
0001
0000
,
0200
0000
0310
0000
0010
1000
0001
0000
,
2000
0000
3001
0000
1000
0001
1000
0000
,
0002
0103
2000
3100
,
2000
0001
0001
3001
,
2002
0000
0000
0000
3003
0000
1000
0001
,
0000
1000
0001
0000
0100
0000
0001
1000
,
0000
0001
1000
0000
0100
0000
1000
0010
,
0000
0100
0001
0000
1000
0000
0001
0010
,
0000
0100
1000
0000
0100
0000
1000
0010
,
0000
0010
1000
0000
0100
0000
0010
0001
,
0000
0001
0010
0000
0100
0000
1000
0001
,
0000
1000
0001
0000
0010
0000
0001
1000
,
0000
0001
1000
0000
0100
0010
0100
0000
,
2000
0000
0000
0100
0000
0100
0000
0000
,
3200
0000
0000
0010
0000
0010
0000
0000
,
0310
0001
0100
0010
,
1000
0001
1000
1000
,
0002
0000
0000
0100
0000
0100
0000
0000
,
0203
0000
0000
0010
0000
0010
0000
0000
,
0310
1000
0001
0010
,
0002
1000
1000
1003
,
2002
0000
0000
0000
3003
0000
1000
0001
,
0000
1000
0001
0000
0010
0000
0001
1000
,
0000
0001
1000
0000
0010
0000
1000
0010
,
0000
0100
0001
0000
1000
0000
0001
0010
,
0000
0100
1000
0000
0100
0000
1000
0001
,
0000
0001
1000
0000
0100
0000
1000
0010
,
0000
0010
1000
0000
0001
0000
0100
0010
,
0000
0010
0100
0000
0001
0000
1000
0100
,
0000
0010
0001
0000
1000
0001
1000
0000
,
1001
0000
1000
0001
1000
0001
0100
0010
,
0100
0000
0000
0100
0000
0000
0001
0000
,
1001
0000
0001
1000
0001
1000
0010
0100
,
0010
0000
0000
0010
0000
0000
0010
1000
,
0000
0100
0010
0000
1001
0000
0010
0001
,
0000
0100
0010
0000
1001
0000
0001
1000
,
0000
0010
0100
0000
1001
0000
1000
0010
,
0000
0100
0001
0000
0100
0010
0100
0000
,
1001
0000
0000
0000
;

//--------------- dance-single - OrangeRight ----------------
#NOTES:
     dance-single:
     OrangeRight:
     Hard:
     9:
     0,0,0,0,0:
0000
0000
0000
0000
,
0000
0000
0000
0000
,
0000
0000
0000
0000
,
0000
0000
0000
0000
,
0000
0000
0000
0000
,
1000
0000
0100
0000
1000
0000
0010
0100
,
0001
0000
0010
0000
0100
1000
0001
1000
,
0010
0000
0100
0000
0001
0100
0001
0000
,
0010
0000
0100
0000
1000
0100
1000
0000
,
0001
0000
0100
0000
0010
0000
1000
0010
,
0100
0000
0001
0000
0010
0001
1000
0001
,
0100
0000
0010
0000
1000
0010
1000
0000
,
0100
0000
0010
0000
0001
1000
0001
0000
,
1002
0000
0103
0000
0001
0100
0010
1000
,
0002
0000
0013
0000
0010
0001
0100
0010
,
2000
0000
3100
0000
1000
0100
0010
0001
,
1000
0001
1000
0110
,
2001
0000
3010
0000
1000
0010
0100
0001
,
2000
0000
3100
0000
0100
1000
0010
0100
,
0002
0000
0013
0000
0001
0010
0100
1000
,
0001
1000
0001
0110
,
2010
0000
3100
0000
1000
0100
0010
0100
,
2000
0000
3001
0000
0001
0100
0010
0100
,
0002
0000
1003
0000
1000
0010
0100
0001
,
1000
0001
1000
0110
,
0012
0000
0103
0000
0100
0010
1000
0001
,
2000
0000
3001
0100
0002
0000
1003
0010
,
0200
1000
0010
0301
,
2001
0000
0001
0000
3001
0010
0001
0100
,
0000
0001
1000
0000
1100
0000
1000
0010
,
0000
1000
0001
0000
0011
0000
0001
1000
,
0000
0010
0100
0000
0101
0000
0001
0010
,
0000
0100
1000
0000
1100
0000
0100
0010
,
0000
0001
1000
0000
1001
0000
0001
1000
,
0000
0010
0100
0000
0110
0000
0010
1000
,
0000
1000
0100
0000
0110
0000
0010
0001
,
0000
0001
0100
0000
0001
1000
1001
0000
,
2000
0000
0000
0010
0000
0100
0000
0000
,
3002
0000
0000
0010
0000
0100
0000
0000
,
1003
0010
0100
0002
0000
0013
0100
2000
,
0000
3002
0000
0203
0000
0320
0000
0000
,
2030
0000
0000
0001
0000
0010
0000
0000
,
3002
0000
0000
1000
0000
0010
0000
0000
,
2003
0000
3001
0100
0010
2000
0000
3001
,
0200
0001
0010
1300
,
2002
0000
0000
0000
3003
0000
1000
0010
,
0100
0001
0010
0000
0011
0000
0001
0100
,
0010
1000
0100
0000
1100
0000
1000
0010
,
0100
0010
1000
0000
1001
0000
0001
0010
,
0100
0010
0001
0000
0101
0000
0001
0100
,
0010
1000
0100
0000
1100
0000
1000
0010
,
0100
0001
0010
0000
0011
0000
0010
0001
,
1000
0001
0100
0000
0110
0000
0010
1000
,
0001
1000
0100
0000
1000
0001
1001
0000
,
0110
0000
0010
1000
0100
0001
0100
1000
,
1010
0000
0001
0011
0000
1000
0001
0000
,
1001
0000
0001
0010
1000
0010
0001
0100
,
0101
0000
0001
1001
0000
1000
0100
1100
,
0000
0001
0100
0000
1001
0000
0001
0011
,
0000
1000
0010
0000
1001
0000
1000
1100
,
0000
0001
0101
0000
0110
0000
1000
1010
,
0000
0001
0011
0000
0100
0010
1001
0000
,
0110
0000
0000
0000
;

//--------------- dance-double - OrangeRight ----------------
#NOTES:
     dance-double:
     OrangeRight:
     Easy:
     3:
     0,0,0,0,0:
00000000
00000000
00000000
00000000
,
00000000
00000000
00000000
00000000
,
00000000
00000000
00000000
00000000
,
00000000
00000000
00000000
00000000
,
00000000
00000000
00000000
00000000
,
10000000
00000000
10000000
00000000
,
00010000
00000000
01000000
00000000
,
00001000
00000000
00010000
00000000
,
00001000
00000000
00001000
00010000
,
00000100
00000000
00001000
00000000
,
00000010
00000000
00000100
00000000
,
00000001
00000000
00001000
00000000
,
00000002
00000000
00001003
00000000
,
00000002
00000003
00000000
00000001
,
00000200
00000300
00000000
00000100
,
00000020
00000030
00000000
00000010
,
00002000
00003000
00000100
00010000
,
00002000
00003000
00000000
00001000
,
00200000
00300000
00000000
00100000
,
00020000
00030000
00000000
00010000
,
02000000
03000000
00100000
10000000
,
00020000
00030000
10000000
01000000
,
20000000
30000000
00010000
01000000
,
00020000
00030000
00100000
00010000
,
00200000
00300000
01000000
10000000
,
00020000
00030000
01000000
00001000
,
00020000
00030000
00000200
00000300
,
00002000
00003000
00000001
00001000
,
00002002
00003003
00000000
00000000
,
00001000
00000001
00001000
00000000
,
00000001
00001000
00000001
00000000
,
00001000
00000100
00000010
00000000
,
00000010
00000100
00001000
00000000
,
00000100
00010000
00001000
00000000
,
00001000
01000000
00010000
00000000
,
10000000
01000000
00100000
00000000
,
00010000
01000000
00100000
10000000
,
00020000
00000000
00030000
00000000
,
02000000
00000000
03000000
00000000
,
00002000
00003000
00020000
00030000
,
00000200
00000300
00002000
00003000
,
00000020
00000000
00000030
00000000
,
00020000
00000000
00030000
00000000
,
00002000
00003000
02000000
03000000
,
00200000
00000000
00000000
00000000
,
01300000
00000000
00000000
00000000
,
00010000
10000000
00010000
00000000
,
10000000
00010000
10000000
00000000
,
00010000
01000000
00100000
00000000
,
00100000
01000000
00010000
00000000
,
01000000
00001000
00010000
00000000
,
00010000
00000100
00001000
00000000
,
00000001
00000100
00000010
00000000
,
00001000
00000100
00000010
00000001
,
00001000
00000010
00000100
00000010
,
00001000
00000000
00001000
00000000
,
00001000
00000100
00010000
00001000
,
01000000
00000000
01000000
00000000
,
00010000
01000000
00100000
00000000
,
10000000
00100000
01000000
00000000
,
00100000
10000000
01000000
00000000
,
00100000
00010000
01000000
00000000
,
10010000
00000000
00000000
00000000
;

//--------------- dance-double - OrangeRight ----------------
#NOTES:
     dance-double:
     OrangeRight:
     Medium:
     7:
     0,0,0,0,0:
00000000
00000000
00000000
00000000
,
00000000
00000000
00000000
00000000
,
00000000
00000000
00000000
00000000
,
00000000
00000000
00000000
00000000
,
00000000
00000000
00000000
00000000
,
10000000
00100000
01000000
00010000
,
00100000
00010000
01000000
00001000
,
00010000
00000100
00001000
00000010
,
00000100
00000000
00000001
00000000
00001000
00000001
00001000
00000000
,
00000001
00000010
00000100
00001000
,
00000010
00001000
00000100
00010000
,
00001000
01000000
00010000
00100000
,
01000000
00000000
10000000
00000000
00010000
01000000
00010000
00000000
,
20000000
00000000
31000000
00000000
10000000
00100000
10000000
00000000
,
00200000
00000000
01300000
00000000
00100000
01000000
00100000
00000000
,
02000000
00000000
03010000
00000000
01000000
00001000
00010000
00000000
,
00002000
00000000
00013000
00000000
00010000
00000100
00001000
00000000
,
00002000
00000000
00003010
00000000
00001000
00000010
00001000
00000000
,
00000020
00000000
00000130
00000000
00000010
00000100
00000010
00000000
,
00000200
00000000
00000301
00000000
00000001
00001000
00000100
00000000
,
00002000
00000000
00003100
00000000
00000010
00000001
00000100
00000000
,
00000002
00000000
00000103
00000000
00000001
00000010
00000100
00000000
,
00000200
00000000
00001300
00000000
00001000
00000100
00010000
00000000
,
00002000
00000000
00013000
00000000
00001000
00100000
00010000
00000000
,
00020000
00000000
01030000
00000000
00010000
01000000
00100000
00000000
,
20000000
00000000
30100000
00000000
00100000
01000000
00010000
00000000
,
20000000
31000000
00020000
01030000
,
20000000
01000000
00100000
30010000
,
20020000
00000000
00000000
00000000
30030000
00000000
10000000
00010000
,
00000000
10000000
00010000
00000000
01000000
00000000
00100000
01000000
,
00000000
00100000
01000000
00000000
00010000
00000000
00100000
00010000
,
00000000
00010000
01000000
00000000
00001000
00000000
00010000
00000100
,
00000000
00001000
00000010
00000000
00000100
00000000
00000001
00001000
,
00000000
00001000
00000001
00000000
00000100
00000000
00000001
00000010
,
00000000
00000010
00000100
00000000
00001000
00000000
00000010
00000100
,
00000000
00000001
00001000
00000000
00000001
00000000
00001000
00000100
,
00000000
00000010
00000001
00000000
00001000
00000001
00001000
00000000
,
00000002
00000000
00000000
00000100
00000000
00000100
00000000
00000000
,
00000203
00000000
00000000
00000010
00000000
00000010
00000000
00000000
,
00000310
00001000
00000100
00010000
,
00001000
00000000
00100000
00000000
00010000
01000000
00010000
00000000
,
20000000
00000000
00000000
00100000
00000000
00100000
00000000
00000000
,
30200000
00000000
00000000
01000000
00000000
01000000
00000000
00000000
,
01300000
00010000
00100000
00001000
,
00020000
00001000
00001000
00031000
,
00022000
00000000
00000000
00000000
00033000
00000000
00010000
00001000
,
00000000
00010000
00001000
00000000
01000000
00000000
00001000
00010000
,
00000000
00001000
00010000
00000000
00000100
00000000
00001000
00000001
,
00000000
00000100
00000010
00000000
00001000
00000000
00000001
00000010
,
00000000
00000100
00001000
00000000
00000100
00000000
00001000
00000010
,
00000000
00000010
00001000
00000000
00000100
00000000
00010000
00001000
,
00000000
00001000
00100000
00000000
00010000
00000000
01000000
00100000
,
00000000
10000000
00010000
00000000
00100000
00000000
00010000
10000000
,
00000000
00100000
01000000
00000000
00010000
10000000
00010000
00000000
,
10010000
00000000
10000000
00010000
10000000
00010000
01000000
00000000
,
00010000
00000000
00100000
00001000
00010000
00000000
00000100
00000000
,
00001001
00000000
00001000
00000001
00001000
00000001
00000100
00000010
,
00000100
00000000
00000010
00010000
00001000
00000000
00100000
00010000
,
00000000
01000000
00100000
00000000
10000000
00000000
01000000
10000000
,
00000000
00100000
01000000
00000000
00010000
00000000
01000000
00100000
,
00000000
10000000
00010000
00000000
10000000
00000000
00010000
00100000
,
00000000
01000000
10000000
00000000
01000000
00100000
01000000
00000000
,
10010000
00000000
00000000
00000000
;

//--------------- dance-double - OrangeRight ----------------
#NOTES:
     dance-double:
     OrangeRight:
     Hard:
     10:
     0,0,0,0,0:
00000000
00000000
00000000
00000000
,
00000000
00000000
00000000
00000000
,
00000000
00000000
00000000
00000000
,
00000000
00000000
00000000
00000000
,
00000000
00000000
00000000
00000000
,
10000000
00000000
00100000
00000000
01000000
00000000
00010000
00100000
,
00010000
00000000
01000000
00000000
00001000
00010000
00001000
00000000
,
00010000
00000000
00000100
00000000
00010000
00001000
00010000
00000000
,
00000100
00000000
00001000
00000000
00000010
00000100
00000001
00000000
,
00001000
00000000
00000001
00000000
00000010
00000000
00000100
00001000
,
00000100
00000000
00010000
00000000
00001000
00010000
00001000
00000000
,
00100000
00000000
00010000
00000000
01000000
00100000
01000000
00000000
,
00010000
00000000
10000000
00000000
00100000
01000000
00010000
00000000
,
20010000
00000000
31000000
00000000
10000000
01000000
00100000
00010000
,
02000000
00000000
03010000
00000000
00010000
01000000
00001000
00010000
,
00002000
00000000
00013000
00000000
00010000
00000100
00001000
00000010
,
00001000
00000001
00001000
00000110
,
00001002
00000000
00000013
00000000
00000001
00000010
00000100
00001000
,
00000020
00000000
00001030
00000000
00001000
00000010
00010000
00001000
,
00020000
00000000
00031000
00000000
00001000
00100000
00010000
01000000
,
00010000
10000000
00010000
01100000
,
21000000
00000000
30100000
00000000
00100000
01000000
00010000
00100000
,
00020000
00000000
01030000
00000000
01000000
00010000
00100000
00001000
,
00020000
00000000
00031000
00000000
00001000
00010000
00000100
00001000
,
00000010
00000000
00000100
00000000
00000010
00001000
00000001
00000010
,
00000002
00000000
00001003
00000000
00001000
00000100
00010000
00001000
,
00020000
00000000
00031000
00200000
00000000
00310000
01000000
00200000
,
00000000
10300000
00010000
00000000
10000000
00010000
01000000
00100000
,
10000000
00000000
00010000
00000000
10000000
00010000
00100000
01000000
,
00000000
10000000
00010000
00000000
10010000
00000000
10000000
00100000
,
00000000
01000000
00010000
00000000
01010000
00000000
01000000
00001000
,
00000000
00010000
00000010
00000000
00001010
00000000
00000010
00010000
,
00000000
00001000
01000000
00000000
01010000
00000000
01000000
00010000
,
00000000
00010000
00100000
00000000
00110000
00000000
00100000
00001000
,
00000000
00001000
00010000
00000000
00010100
00000000
00000100
00001000
,
00000000
00001000
00000010
00000000
00000110
00000000
00000100
00000001
,
00000000
00000001
00000010
00000000
00000001
00001000
00001001
00000000
,
00000002
00000000
00000000
00000010
00000000
00000100
00000000
00000000
,
00000203
00000000
00000000
00000001
00000000
00000010
00000000
00000000
,
00000310
00001000
00000100
00010000
00000000
00001000
01000000
00010000
,
00000000
00100000
00010000
01000000
00100000
10000000
00010000
00000000
,
20000000
00000000
00000000
00100000
00000000
01000000
00000000
00000000
,
30200000
00000000
00000000
10000000
00000000
01000000
00000000
00000000
,
01300000
00000000
00010000
00100000
00001000
00010000
00000000
00010000
,
00000200
00000001
00000010
00001300
,
00002002
00000000
00000000
00000000
00003003
00000000
00000001
00000100
,
00000000
00001000
00000100
00000000
00001001
00000000
00000001
00000010
,
00000000
00001000
00000010
00000000
00001001
00000000
00000100
00010000
,
00000000
00001000
00100000
00000000
00110000
00000000
00100000
00001000
,
00000000
00010000
00000100
00000000
00001100
00000000
00000100
00001000
,
00000000
00001000
00000010
00000000
00010010
00000000
00010000
00001000
,
00000000
00001000
01000000
00000000
01001000
00000000
01000000
00010000
,
10000000
00010000
00100000
00000000
01100000
00000000
01000000
10000000
,
00010000
10000000
00100000
00000000
10000000
00010000
10010000
00000000
,
01100000
00000000
10000000
01000000
00010000
00001000
00010000
01000000
,
10000000
00000000
00010000
01000000
00001000
00010000
00000010
00000000
,
00001001
00000000
00000001
00000010
00001000
00010000
00001000
00000010
,
00000001
00000000
00001000
00000010
00010000
00001000
01000000
01001000
,
00000000
00001000
00010000
00000000
00010010
00000000
00000010
00001010
,
00000000
00001000
00000100
00000000
00000110
00000000
00001000
00001100
,
00000000
00000001
00000101
00000000
00000110
00000000
00001000
00001010
,
00000000
00000100
00000101
00000000
00000100
00000010
00001001
00000000
,
00000110
00000000
00000000
00000000
;
