#TITLE:Homesick Pt2&3;
#SUBTITLE:;
#ARTIST:ORANGE NOISE SHORTCUT;
#TITLETRANSLIT:;
#SUBTITLETRANSLIT:;
#ARTISTTRANSLIT:;
#GENRE:;
#CREDIT:;
#MUSIC:Homesick Pt 2&3.ogg;
#BANNER:;
#BACKGROUND:;
#CDTITLE:;
#SAMPLESTART:65.851;
#SAMPLELENGTH:12.000;
#SELECTABLE:YES;
#OFFSET:0.195;
#BPMS:0.000=178.000;
#STOPS:;
#BGCHANGES:;
#FGCHANGES:;

//--------------- dance-single - OrangeRight ----------------
#NOTES:
     dance-single:
     OrangeRight:
     Beginner:
     2:
     0,0,0,0,0:
0000
0000
0000
0000
,
0000
0000
0000
0000
,
0000
0000
0000
0000
,
0000
0000
0000
0000
,
0000
0000
0000
0000
,
0000
0000
0000
0000
,
0000
0000
0000
0000
,
0000
0000
0000
0000
,
0000
0000
0000
0000
,
1000
0000
0000
0000
,
0001
0000
0000
0000
,
1000
0000
0000
0000
,
0100
0000
0000
0000
,
0010
0000
0000
0000
,
0001
0000
0001
0000
,
0001
0000
0000
0000
,
1000
0000
1000
0000
,
1000
0000
0000
0000
,
0100
0000
0000
0000
,
0010
0000
0000
0000
,
0010
0000
0000
0000
,
0001
0000
0000
0000
,
0100
0000
0000
0000
,
0010
0000
0000
0000
,
1000
0000
0000
0000
,
0001
0000
0000
0000
,
1000
0000
0000
0000
,
0100
0000
0000
0000
,
0010
0000
0000
0000
,
0001
0000
0000
0000
,
0100
0000
0100
0000
,
0100
0000
0000
0000
,
0010
0000
0000
0000
,
1000
0000
0000
0000
,
0001
0000
1000
0000
,
0100
0000
0000
0000
,
0010
0000
0000
0000
,
0001
0000
0000
0000
,
1000
0000
0001
0000
,
1000
0000
0000
0000
,
1000
0000
0000
0000
,
0001
0000
0000
0000
,
0001
0000
0000
0000
,
0100
0000
0000
0000
,
0010
0000
0000
0000
,
1000
0000
0000
0000
,
1000
0000
0000
0000
,
1000
0000
0000
0000
,
0001
0000
0000
0000
,
1000
0000
1000
0000
,
0001
0000
0001
0000
,
1000
0000
1000
0000
,
0001
0000
0001
0000
,
1000
0000
0000
0000
,
0001
0000
0000
0000
,
0100
0000
0000
0000
,
0010
0000
0000
0000
,
1000
0000
1000
0000
,
0001
0000
0001
0000
,
1000
0000
1000
0000
,
0001
0000
0001
0000
,
1000
0000
0000
0000
,
0100
0000
0000
0000
,
0010
0000
0000
0000
0000
0000
0000
1000
,
0000
0000
0000
0001
0000
0000
0000
1001
;

//--------------- dance-single - OrangeRight ----------------
#NOTES:
     dance-single:
     OrangeRight:
     Easy:
     5:
     0,0,0,0,0:
0000
0000
0000
0000
,
0000
0000
0000
0000
,
0000
0000
0000
0000
,
0000
0000
0000
0000
,
0000
0000
0000
0000
,
0000
0000
0000
0000
,
0000
0000
0000
0000
,
0000
0000
0000
0000
0000
0000
0000
2002
,
0000
0000
0000
3003
,
1000
0100
1000
0000
,
0001
0100
0001
0000
,
1000
0001
1000
0001
,
0100
0010
1000
0000
,
1000
0000
0001
0000
,
0100
0001
0010
0000
,
0100
0000
1000
0000
,
0001
1000
0001
0000
,
2000
0000
3000
0000
,
0002
0000
0003
0000
,
1000
0100
1000
0000
,
0010
0000
0100
0000
,
0002
0000
0003
0000
,
2000
0000
3000
0000
,
0010
0100
0001
1000
,
0001
0000
1000
0000
,
0001
0000
0100
0000
,
0010
0000
1000
0000
,
0100
0000
0010
0000
,
0100
1000
0001
0000
,
0001
0000
0100
0000
,
0010
1000
0001
0000
,
2000
0000
3001
0000
,
0002
0000
1003
0000
,
1000
0000
0100
0000
,
0010
0001
0010
0000
,
0002
0000
1003
0000
,
2000
0000
3001
0000
,
0001
0000
0100
0000
,
0010
1000
0100
0000
,
1000
0000
0100
0000
,
0010
0001
0001
0010
,
0100
0000
1000
0000
,
0010
1000
1000
0010
,
0200
0000
0301
0000
,
0002
0000
1003
0000
,
0010
0000
1000
0000
,
0100
0000
0010
0000
,
0001
0000
0100
0000
,
0110
0000
1000
0001
,
1000
0100
1000
0000
,
0001
0100
0001
0000
,
1000
1000
0001
0000
,
0001
0001
1000
0000
,
1000
0000
0100
0000
,
0010
0001
0100
0000
,
0001
0100
0010
1000
,
0002
0000
1003
0000
,
1000
0010
1000
0000
,
0001
0010
0001
0000
,
1000
1000
0001
0000
,
0001
0001
1000
0000
,
1000
0000
0010
0000
,
0100
0001
0010
0000
,
0100
0000
0000
0000
1000
0000
0000
0001
,
0000
1000
0000
0001
0000
1000
0000
2002
,
0000
0000
3003
0000
;

//--------------- dance-single - OrangeRight ----------------
#NOTES:
     dance-single:
     OrangeRight:
     Medium:
     9:
     0,0,0,0,0:
0000
0000
0000
0000
,
0000
0000
0000
0000
,
0000
0000
0000
0000
,
0000
0000
0000
0000
,
0000
0000
0000
0000
,
0000
0000
0000
0000
,
0000
0000
0000
0000
,
0000
0000
0000
0000
0000
0000
0000
2002
,
0000
0000
0000
3003
,
1000
0001
1000
0000
0001
0000
0100
0010
,
0000
0010
1000
0000
0001
1000
0001
0000
,
1000
0100
1000
0000
0100
0000
0010
0001
,
0000
0100
0000
0010
0000
0100
0010
2000
,
0000
0000
3100
0000
1000
0001
0000
0100
,
0000
0010
0000
0100
0000
0001
1000
0000
,
0001
1000
0001
1000
0001
1000
0000
0100
,
0000
0010
0100
0010
0000
0001
0000
1002
,
0000
0000
0103
0000
0010
1000
0000
2001
,
0000
3100
0010
0001
,
0100
0010
1000
0001
,
1000
0000
0100
0000
1000
0001
0000
0001
,
2000
0000
0100
0000
3010
0100
0000
0001
,
0000
0100
0000
0010
0000
1000
0000
0000
,
0001
1000
0100
1000
,
0010
0000
0100
0000
0001
1000
0001
0000
,
1000
0100
0010
0001
,
0100
0000
0010
0100
0000
0000
0001
0000
,
1000
0001
0010
0100
,
1000
2000
3000
0001
,
1000
0100
0010
0001
,
1000
0000
0010
0000
0100
0001
0000
1002
,
0000
1003
0001
1000
,
0100
1000
0001
0010
,
0100
0000
1000
0001
0000
0100
0000
0001
,
1000
0000
0100
0000
0010
0001
0000
1001
,
0000
0001
1000
0001
,
0010
0001
1000
0100
,
1000
2002
3003
0000
,
1000
0000
0100
0000
1000
0001
1000
0000
,
2001
0100
0000
0100
,
3001
0100
0010
1000
,
1002
0100
0000
0100
,
1003
0100
0010
0001
,
1002
0000
0103
0000
0001
0100
0010
0000
,
2001
0000
3100
0000
1000
0001
1000
0000
,
2001
0100
3002
0100
,
2003
0010
3002
0010
,
2003
0000
0100
0000
3010
0100
0010
0100
,
0000
2002
0000
0000
3003
0000
0100
0000
,
1001
0100
1000
0010
,
0100
0000
0001
1000
0000
0000
0001
0000
,
1000
0000
1000
0000
0100
0000
0010
0001
,
0000
1000
0000
0001
0000
0100
0010
1000
,
0000
0000
0001
0000
1000
0010
0000
0100
,
0000
0001
0000
1000
0000
0100
1000
0000
,
0001
1000
0001
1000
0001
1000
0000
0100
,
0000
1000
0001
0000
0100
0000
0010
0000
,
2001
0100
3002
0100
,
1003
0100
0010
0001
,
1002
0010
2003
0010
,
3100
0000
0010
0000
0001
0100
0010
0000
,
2001
0000
3100
0000
1000
0001
0000
1000
,
0000
0100
0000
0010
0000
0001
1000
0000
,
0010
0100
0010
0100
0001
1000
0000
1001
,
0000
1001
0000
0110
0000
0110
0000
2002
,
0000
0000
3003
0000
;

//--------------- dance-single - OrangeRight ----------------
#NOTES:
     dance-single:
     OrangeRight:
     Hard:
     12:
     0,0,0,0,0:
0000
0000
0000
0000
,
0000
0000
0000
0000
,
0000
0000
0000
0000
,
0000
0000
0000
0000
,
0000
0000
0000
0000
,
0000
0000
0000
0000
,
0000
0000
0000
0000
,
0000
0000
0000
0000
0000
0000
0000
2002
,
0000
0000
0000
3003
,
1000
0100
1000
0010
1000
0100
0010
0001
,
0000
0001
0100
0001
0010
0100
1000
0000
,
1000
0010
1000
0100
1000
0010
0100
0001
,
0000
0100
0000
0010
0000
1000
0001
0020
,
0000
0000
0130
0000
1000
0100
0000
1100
,
0000
1001
0000
0101
0000
0100
0010
0100
,
0001
0010
0001
1000
0001
0100
0000
0101
,
0000
0100
0010
1000
0000
1100
0000
0012
,
0000
0000
1000
0000
0103
0010
0000
2010
,
0000
0001
0100
3001
,
1000
0100
0010
0100
1000
0001
0100
0010
,
0000
1000
0100
0000
0010
0001
0000
1000
,
0002
0000
0100
0000
0013
0001
0000
0101
,
0000
1001
0000
1100
0000
1000
0001
0100
,
0010
1000
0100
0010
0000
0010
0001
0100
,
0000
0100
0010
1000
0000
0001
1000
0001
,
0010
0100
1000
0000
0010
0100
0001
0000
,
0100
0010
1000
0001
0000
1000
0000
0010
,
1000
0000
0100
0010
0001
0000
1000
0001
,
0000
0100
0000
0010
1000
0000
0001
0000
,
0100
0010
1000
0000
0001
0010
0100
0000
,
1000
0010
0100
0001
1000
0001
0000
2001
,
0000
0010
0100
0010
,
3002
0100
0010
0100
,
1003
0000
0100
1000
0000
0010
0000
0100
,
0001
0000
0010
0000
0001
1000
0000
1002
,
0000
0100
1000
0100
,
2003
0010
0001
0010
,
3100
0000
0110
0000
0010
0001
0100
0000
,
0010
1000
0100
0010
0100
1000
0001
0000
,
1001
0000
1000
0100
0010
0001
0000
0101
,
0000
0100
0010
1000
0000
1000
0010
0100
,
0001
0000
1001
0000
0001
1000
0010
0100
,
0000
0001
0010
0100
0000
0010
0100
1000
,
1002
0000
0100
0000
0013
0001
0000
2001
,
0000
0100
0000
3010
1000
0100
0020
0000
,
0031
0100
0010
2000
0000
3001
0010
0200
,
0000
1300
0001
0200
0000
0310
1000
0002
,
0000
1003
0100
0020
0000
0031
1000
1001
,
0000
0220
0000
0330
1000
0001
1000
0000
,
2001
0000
3100
1000
0001
0100
0010
1000
,
0000
0100
0000
0010
0001
0100
0010
0000
,
1001
0000
0110
0000
1000
0010
0100
0001
,
0000
0011
0000
1001
0000
1000
0100
0020
,
0000
0000
0031
0000
0100
0010
0000
1001
,
0000
0110
0000
1001
0000
1000
0010
0100
,
0001
0010
0100
0010
0001
0100
0000
0101
,
0000
0100
0010
0100
0010
1000
0001
1000
,
2001
0000
3100
0000
1002
0000
0103
0010
,
1000
0100
0010
0001
1000
0001
0100
0000
,
0101
0000
1010
0000
1000
0001
0000
0011
,
0000
1100
0000
1001
0000
1000
0010
0200
,
0000
0000
0301
0000
1000
0001
0000
1001
,
0000
0110
0000
1001
0000
0001
1000
0010
,
0100
0001
0100
1000
0100
0010
0000
1010
,
0000
1100
0000
0011
0000
0101
0000
2002
,
0000
0000
3003
0000
;

//--------------- dance-double - OrangeRight ----------------
#NOTES:
     dance-double:
     OrangeRight:
     Easy:
     6:
     0,0,0,0,0:
00000000
00000000
00000000
00000000
,
00000000
00000000
00000000
00000000
,
00000000
00000000
00000000
00000000
,
00000000
00000000
00000000
00000000
,
00000000
00000000
00000000
00000000
,
00000000
00000000
00000000
00000000
,
00000000
00000000
00000000
00000000
,
00000000
00000000
00000000
00000000
00000000
00000000
00000000
00022000
,
00000000
00000000
00000000
00033000
,
00010000
00001000
00010000
00000000
,
00000100
00010000
00000100
00000000
,
00001000
00000100
00001000
00000010
,
00000100
00000000
00000001
00000000
,
00001000
00000100
00001000
00000000
,
00000010
00000100
00000010
00000000
,
00001000
00000001
00001000
00000001
,
00000100
00000010
00001000
00000000
,
00000002
00000000
00000103
00000000
,
00002000
00000000
00003100
00000000
,
00001000
00000001
00000100
00000010
,
00001000
00000000
00000100
00000000
,
00020000
00000000
00031000
00000000
,
00002000
00000000
00013000
00000000
,
00001000
00000000
00010000
00000000
,
00001000
00000000
01000000
00000000
,
00100000
10000000
00010000
10000000
,
01000000
00100000
00010000
00000000
,
10000000
00010000
01000000
00100000
,
10000000
20000000
30000000
00010000
,
10000000
01000000
00100000
00010000
,
01000000
00001000
00010000
00000000
,
00002000
00000000
00013000
00000000
,
00020000
00000000
00031000
00000000
,
00001000
00010000
00000100
00001000
,
00000010
00000000
00001000
00000000
,
00000002
00000000
00001003
00000000
,
00002000
00000000
00003001
00000000
,
00001000
00000000
00000001
00000000
,
00000100
00000010
00000100
00000010
,
00002000
00000000
00003100
00000000
,
00000100
00010000
00001000
01000000
,
00020000
00000000
01030000
00000000
,
00100000
01000000
00010000
10000000
,
00020000
00000000
10030000
00000000
,
20000000
00000000
30010000
00000000
,
10000000
00000000
01000000
00000000
,
00100000
00000000
00010000
00000000
,
01000000
00000000
00001000
00000000
,
00022000
00000000
00033000
00000000
,
00010000
00001000
00010000
00000000
,
00000010
00010000
00000010
00000000
,
00001000
00000010
00001000
00000100
,
00000010
00000000
00000001
00000000
,
00001000
00000100
00001000
00000000
,
00000010
00000100
00000010
00000000
,
00001000
00000001
00001000
00000001
,
00000100
00000000
00000010
00000000
,
00010000
00001000
00010000
00000000
,
00001000
01000000
00001000
00000000
,
01000000
00010000
01000000
00100000
,
10000000
01000000
10000000
00000000
,
00010000
10000000
00010000
00000000
,
01000000
00100000
01000000
00000000
,
00010000
00000000
10000000
00000000
00010000
00000000
00000000
10000000
,
00000000
00010000
00000000
10000000
00000000
00010000
00000000
20020000
,
00000000
00000000
30030000
00000000
;

//--------------- dance-double - OrangeRight ----------------
#NOTES:
     dance-double:
     OrangeRight:
     Medium:
     8:
     0,0,0,0,0:
00000000
00000000
00000000
00000000
,
00000000
00000000
00000000
00000000
,
00000000
00000000
00000000
00000000
,
00000000
00000000
00000000
00000000
,
00000000
00000000
00000000
00000000
,
00000000
00000000
00000000
00000000
,
00000000
00000000
00000000
00000000
,
00000000
00000000
00000000
00000000
00000000
00000000
00000000
20020000
,
00000000
00000000
00000000
30030000
,
10000000
00010000
10000000
00000000
00010000
00000000
01000000
00010000
,
00000000
00010000
00100000
00000000
00001000
00100000
00001000
00000000
,
00010000
00001000
00010000
00000000
00001000
00000000
00010000
00001000
,
00000000
00010000
00000000
00000100
00000000
00001000
00000100
00000020
,
00000000
00000000
00000031
00000000
00000100
00000010
00000000
00001000
,
00000000
00000001
00000000
00001000
00000000
00000100
00000010
00000000
,
00000001
00001000
00000001
00000000
00000100
00000000
00000010
00001000
,
00000000
00000001
00001000
00000001
00000000
00001000
00000000
00001002
,
00000000
00000000
00000103
00000000
00000001
00001000
00000000
00002001
,
00000000
00000100
00000010
00003001
,
00000100
00000010
00001000
00000100
,
00010000
00000000
00001000
00000000
00100000
00010000
00000000
00010000
,
20000000
00000000
01000000
00000000
30010000
01000000
00000000
00100000
,
00000000
10000000
00000000
00010000
00000000
10000000
00000000
00000000
,
01000000
10000000
00100000
01000000
,
00010000
10000000
01000000
00100000
,
00010000
01000000
00100000
10000000
,
01000000
00100000
00010000
00000000
,
10000000
00000000
01000000
00000000
00100000
00000000
00000000
00010000
,
00000000
01000000
00000000
00010000
00100000
00000000
00000000
00000000
,
00001000
00010000
00000100
00001000
,
00000010
00000000
00000100
00000000
00000001
00001000
00000000
00002001
,
00000000
00003001
00001000
00000001
,
00000100
00000001
00001000
00000010
,
00001000
00000100
00010000
00001000
,
01000000
00000000
00010000
00000000
10000000
00010000
00000000
10020000
,
00000000
10030000
00010000
10000000
,
00100000
10000000
00010000
01000000
,
00100000
02200000
03300000
00000000
,
10000000
01000000
00100000
00010000
,
10020000
01000000
00000000
01000000
,
00130000
00001000
00010000
00000100
,
00002000
00000010
00000000
00000010
,
00003100
00010000
00001000
01000000
,
00010000
00100000
00001000
00010000
,
00000010
00001000
00000001
00000000
,
00001002
00000100
00002003
00000100
,
00003002
00000010
00002003
00000010
,
00003200
00000000
00010000
00000000
00010300
00001000
00010000
00001000
,
00000000
00022000
00000000
00000000
00033000
00000000
00100000
00000000
,
10010000
00010000
01000000
00001000
,
00010000
00000000
00000100
00001000
00000000
00000000
00000100
00000000
,
00001000
00000000
00001000
00000000
00000001
00000100
00000000
00000010
,
00000000
00001000
00000000
00000100
00000000
00001000
00000001
00000000
,
00001001
00000000
00000100
00000000
00000010
00000000
00001000
00000100
,
00000000
00000010
00000000
00000001
00000000
00000100
00000010
00000000
,
00001000
00000001
00001000
00000000
00000100
00000010
00000000
00000001
,
00000000
00002002
00000000
00000000
00003003
00000000
00000100
00000000
,
00001002
00000100
00002003
00000100
,
00003010
00001000
00000100
00010000
,
00012000
00100000
00023000
00000100
,
00031000
01000000
00010000
10000000
,
10010000
00000000
00100000
00000000
10000000
01000000
00000000
00100000
,
00000000
00010000
00000000
10000000
00000000
00010000
10000000
00000000
,
00100000
01000000
00100000
01000000
00100000
10000000
00000000
10010000
,
00000000
10010000
00000000
01100000
00000000
01100000
00000000
20020000
,
00000000
00000000
30030000
00000000
;

//--------------- dance-double - OrangeRight ----------------
#NOTES:
     dance-double:
     OrangeRight:
     Hard:
     12:
     0,0,0,0,0:
00000000
00000000
00000000
00000000
,
00000000
00000000
00000000
00000000
,
00000000
00000000
00000000
00000000
,
00000000
00000000
00000000
00000000
,
00000000
00000000
00000000
00000000
,
00000000
00000000
00000000
00000000
,
00000000
00000000
00000000
00000000
,
00000000
00000000
00000000
00000000
00000000
00000000
00000000
20020000
,
00000000
00000000
00000000
30030000
,
10000000
00010000
10000000
00010000
10000000
00100000
01000000
00010000
,
00000000
00100000
00001000
00010000
00001000
00010000
00000100
00000000
,
00001000
00000001
00001000
00000001
00001000
00000100
00000010
00000001
,
00000000
00000010
00000000
00000001
00000000
00000100
00000010
00000200
,
00000000
00000000
00000301
00000000
00001000
00000001
00000000
00001001
,
00000000
00000110
00000000
00001001
00000000
00000001
00000100
00000010
,
00001000
00000100
00001000
00000100
00001000
00000010
00000000
00000100
,
00000000
00000001
00001000
00000001
00000000
00001001
00000000
00001200
,
00000000
00000000
00010300
00000000
00001000
01000000
00000000
01020000
,
00000000
00000000
00130000
00000000
00001000
00010000
00000100
00000000
,
00001000
00000010
00010000
00001000
00010000
00000100
00001000
00000100
,
00000000
00010100
00000000
00000000
00001000
00010000
00000000
00001000
,
00200000
00000000
00010000
00000000
00301000
00010000
00000000
00011000
,
00000000
00010100
00000000
00011000
00000000
01001000
00000000
00000000
,
00001000
01000000
00010000
00100000
00000000
00010000
00100000
00001000
,
00000000
00010000
00000010
00001000
00000000
00000010
00001000
00000000
,
00000001
00000100
00000010
00000000
00000100
00000010
00001000
00000000
,
00000100
00010000
00001000
00010000
00000000
00001000
00010000
00001000
,
01000000
00100000
00000000
10000000
01000000
00100000
00010000
10000000
,
00000000
10010000
00000000
00010000
01000000
00000000
00100000
00000000
,
10000000
01000000
00100000
00000000
01000000
00100000
00010000
00000000
,
00100000
00001000
00010000
00000100
00001000
00000010
00000000
00001020
,
00000000
00002030
00003020
00000230
,
00000302
00000023
00002030
00003020
,
00000031
00000000
00000100
00000010
00000000
00001000
00000000
00000001
,
00000100
00000000
00000010
00000000
00001000
00000100
00000000
00020000
,
00000000
00032000
00203000
00320000
,
02030000
23000000
32000000
03020000
,
10030000
00000000
10010000
00000000
10000000
00010000
01000000
00000000
,
00010000
10000000
01000000
10000000
00100000
01000000
00010000
00000000
,
10000000
00000000
01000000
00100000
00010000
01000000
00001000
00010000
,
00000000
00001000
00010000
00000100
00000000
00010000
00001000
00100000
,
00010000
00000000
10010000
00000000
10000000
00100000
01000000
00010000
,
00000000
00100000
00001000
00010000
00000000
00000100
00010000
00001000
,
00200000
00000000
00010000
00000000
00310000
01000000
00100000
20000000
,
00000000
00010000
00000000
31000000
00000000
10000000
00010000
00000000
,
01000000
00100000
10000000
02000000
00000000
13000000
01000000
00200000
,
00000000
01300000
00100000
00020000
00000000
01030000
00001000
00020000
,
00000000
00030100
00001000
00000020
00000000
00000130
00000001
00001001
,
00000000
00000220
00000000
00000000
00000330
00000000
00001000
00000000
,
00001001
00000000
00000100
00000010
00000001
00000100
00000010
00001000
,
00000000
00000100
00010000
00001000
00100000
00001000
00010000
00000000
,
00001000
00100000
00010000
01000000
00100000
10000000
01000000
00100000
,
00000000
01000000
00000000
10000000
00000000
00100000
01000000
00200000
,
00000000
00000000
10300000
00000000
00010000
10000000
00000000
10010000
,
00000000
01100000
00000000
10010000
00000000
10000000
00100000
01000000
,
00010000
00100000
00001000
00100000
00010000
01000000
00000000
01100000
,
00000000
10000000
00010000
10000000
00100000
01000000
00010000
10000000
,
10020000
00000000
01030000
00000000
20010000
00000000
31000000
00100000
,
00010000
01000000
00001000
00010000
00000000
00000100
00001000
00000010
,
00001010
00000000
00000101
00000000
00000001
00001000
00000000
00001100
,
00000000
00000011
00000000
00001001
00000000
00001000
00000010
00000200
,
00000000
00000000
00000301
00000000
00001000
00000001
00000000
00001001
,
00000000
00000110
00000000
00001001
00000000
00000010
00000001
00000100
,
00001000
00000100
00000001
00000010
00000100
00001000
00000000
00001100
,
00000000
00010100
00000000
00101000
00000000
00110000
00000000
02020000
,
00000000
00000000
03030000
00000000
;
