#TITLE:Holiday;
#SUBTITLE:;
#ARTIST:♪♪♪♪♪;
#TITLETRANSLIT:;
#SUBTITLETRANSLIT:;
#ARTISTTRANSLIT:;
#GENRE:;
#CREDIT:;
#MUSIC:Holiday.mp3;
#BANNER:;
#BACKGROUND:;
#CDTITLE:;
#SAMPLESTART:32.679;
#SAMPLELENGTH:16.580;
#SELECTABLE:YES;
#OFFSET:-0.037;
#BPMS:0.000=115.802;
#STOPS:;
#BGCHANGES:;
#FGCHANGES:;

//--------------- dance-single - aboutblank ----------------
#NOTES:
     dance-single:
     aboutblank:
     Beginner:
     1:
     0,0,0,0,0:
0000
0000
0000
0000
,
0000
0000
0000
0000
,
0000
0000
0000
0000
,
0000
0000
0000
0000
,
1000
0000
0000
0000
,
0000
0000
0000
0000
,
0001
0000
0000
0000
,
0000
0000
0000
0000
,
0100
0000
0000
0000
,
0000
0000
0000
0000
,
0010
0000
0000
0000
,
0000
0000
0000
0000
,
1000
0000
0000
0000
,
0000
0000
0000
0000
,
0001
0000
0000
0000
,
0000
0000
0000
0000
,
0100
0000
0100
0000
,
0010
0000
0000
0000
,
0010
0000
0010
0000
,
0100
0000
0000
0000
,
1000
0000
1000
0000
,
0001
0000
0000
0000
,
1001
0000
0000
0000
,
0100
0000
0100
0000
,
0001
0000
0000
0000
,
1000
0000
1000
0000
,
0010
0000
0000
0000
,
0100
0000
0001
0000
,
1000
0000
0000
0000
,
0100
0000
1000
0000
,
0001
0000
0000
0000
,
0010
0000
0100
0000
,
1000
0000
0000
0000
,
0100
0000
0000
0000
,
0001
0000
0000
0000
,
0010
0000
0000
0000
,
1000
0000
1000
0000
,
0001
0000
0000
0000
,
0010
0000
0010
0000
,
0100
0000
0000
0000
,
1000
0000
1000
0000
,
1000
0000
0000
0000
,
0001
0000
0001
0000
,
0001
0000
0000
0000
,
0100
0000
0100
0000
,
0010
0000
0000
0000
,
0110
0000
0000
0000
,
0010
0000
0110
0000
;

//--------------- dance-single - aboutblank ----------------
#NOTES:
     dance-single:
     aboutblank:
     Easy:
     3:
     0,0,0,0,0:
0000
0000
0000
0000
,
0000
0000
0000
0000
,
0000
0000
0000
0000
,
0000
0000
0000
0000
,
1000
0000
1000
0000
,
0001
0000
0001
0000
,
0100
0000
0100
0000
,
0010
0000
0010
0000
,
1000
0100
1000
0000
,
0001
0010
0001
0000
,
1000
0100
1000
0000
,
0001
0010
0001
0000
,
1000
0010
1000
0000
,
0001
0100
0001
0000
,
1000
0010
1000
0000
,
0001
0100
0001
0000
,
1000
1000
1000
0000
,
0010
0000
0100
0000
,
0001
0001
0001
0000
,
1000
0000
0100
0000
,
0010
0010
0010
0000
,
0100
0000
1000
0000
,
1001
0000
0000
0000
,
0001
1000
1001
0000
,
0010
0010
0010
0000
,
1000
0000
0100
0000
,
0001
0001
0001
0000
,
1001
0000
0000
0000
,
0001
0000
1000
1000
,
1000
0000
0100
0000
,
0010
0000
0100
0100
,
0010
0000
0001
0000
,
1000
0010
1000
0000
,
0001
0100
0001
0000
,
1000
0100
1000
0000
,
0001
0010
0001
0000
,
1000
0000
0100
0000
,
0010
0001
1000
0000
,
0001
0000
0100
0100
,
2000
0000
0000
3000
,
1000
0100
1000
0000
,
1000
0100
1000
0000
,
0001
0100
0001
0000
,
0001
0100
0001
0000
,
1000
0010
1000
0000
,
1000
0010
1000
0000
,
0001
0010
0001
0000
,
1000
0001
1001
0000
;

//--------------- dance-single - aboutblank ----------------
#NOTES:
     dance-single:
     aboutblank:
     Medium:
     6:
     0,0,0,0,0:
0000
0000
0000
0000
,
0000
0000
0000
0000
,
0000
0000
0000
0000
,
0000
0000
0000
0000
,
1000
0100
0001
0010
,
1000
0100
0001
0010
,
1000
0010
0001
0100
,
1000
0010
0001
0100
,
1000
0000
1000
0000
0001
1000
0100
0000
,
0001
0000
0001
0000
1000
0001
0100
0000
,
0010
0000
0010
0000
1000
0010
0100
0000
,
0001
0010
1000
0000
1000
0100
0001
0000
,
1000
0000
1000
0000
0100
0010
0100
0000
,
0001
0000
0001
0000
0100
0010
0100
0000
,
1000
0000
1000
0000
0010
1000
0100
0000
,
0010
0000
0000
0001
0000
0000
1001
0000
0000
0000
0000
0000
0001
0000
1000
0000
,
0100
0001
0010
1000
,
0100
0000
0001
0000
0010
0000
1000
0100
,
0010
0001
0100
1000
,
0010
0000
0001
0000
0100
0000
1000
0001
,
0100
1000
0010
0001
,
0100
0000
1000
0000
0010
0000
0001
1000
,
0100
0000
0001
0000
0100
0000
1000
0010
,
0100
0000
0110
0000
1001
0000
0001
0010
,
0100
1000
0010
0001
,
0100
0000
1000
0000
0010
0000
0001
0010
,
0100
0000
1100
0000
0101
0000
1000
0001
,
0200
0000
0010
0000
0310
0000
1000
0100
,
0001
0010
1000
0100
,
0001
0000
0010
0000
1000
0000
0001
0100
,
1000
0010
0001
0100
,
0110
0000
1001
0000
0110
0000
1000
0100
,
0020
1000
0001
1000
,
0001
0000
1030
0000
0001
0000
0100
0001
,
0020
0001
1000
0001
,
0100
0001
0130
0110
,
0001
0000
1000
0000
0001
1000
0100
0000
,
0110
0000
0001
0000
1000
0001
0100
0000
,
0010
0001
0100
1000
,
0120
0000
0000
0130
0000
0000
1000
0100
,
0001
0100
1000
0100
,
0010
0000
0010
0000
0010
0000
0001
0100
,
1000
0100
0001
0100
,
0010
0000
0010
0000
0010
0000
1000
0010
,
0001
0010
1000
0010
,
0001
0100
1000
0100
,
0110
0000
0000
0001
0000
0000
1000
0000
0000
0000
0010
0000
0000
0100
0000
0000
,
1001
0000
0110
0000
1001
0000
1000
0001
,
1000
0000
0000
0000
;

//--------------- dance-single - aboutblank ----------------
#NOTES:
     dance-single:
     aboutblank:
     Hard:
     9:
     0,0,0,0,0:
0000
0000
0000
0000
,
0000
0000
0000
0000
,
0000
0000
0000
0000
,
0000
0000
0000
0000
,
1000
0000
0000
1000
0000
0000
2000
0000
0000
0000
0010
0000
3010
0000
0000
0000
,
0010
0000
0000
0100
0000
0000
0020
0000
0000
0000
0100
0000
0130
0000
0000
0000
,
0100
0000
0000
0010
0000
0000
0200
0000
0000
0000
0001
0000
0301
0000
0000
0000
,
0001
0000
0000
1000
0000
0000
0002
0000
0000
0000
1000
0000
1003
0000
0000
0001
,
1000
0000
0100
0000
0010
0000
0000
0000
0010
0001
0000
0010
0001
0000
0000
0000
,
1000
0000
0001
0000
0100
0000
0000
0000
0002
0000
0000
0000
1003
0000
0001
1000
,
0001
0000
1000
0000
0100
0000
0000
0000
0010
0100
0000
0010
0100
0000
0000
0000
,
0010
0000
0001
0000
1000
0000
0000
0000
0020
0000
0000
0000
1030
0000
0001
0100
,
0001
0000
1000
0000
0001
0000
0000
0000
1000
0100
0000
1000
0100
0000
0000
0000
,
0010
0000
0000
0001
0000
0000
1000
0000
0000
0000
0100
0000
0010
0000
0001
1000
,
0001
0000
1000
0000
0010
0000
0000
0000
0100
0001
0000
0100
0001
0000
0000
0000
,
0010
0000
0000
0001
0000
0000
2000
0000
0000
0000
0010
0000
3010
0000
0000
0000
,
0101
0000
0000
1000
0000
0000
0200
0000
0001
0000
0000
0000
1300
0000
0000
0000
,
0020
0000
0000
0130
0000
0000
0001
0000
2000
0000
0000
3100
0000
0000
0010
0000
,
1001
0000
0000
1000
0000
0000
0020
0000
0001
0000
0000
0000
1030
0000
0000
0000
,
0002
0000
0010
1000
0003
0000
0001
1000
,
0001
0000
0000
0000
0100
0000
0000
0010
0000
0000
1000
0000
0001
0000
0000
0000
,
2000
0000
0000
3001
0000
0000
0100
0000
0010
0000
0000
1000
0000
0000
0001
0000
,
0010
0000
0110
0000
1000
0100
0010
0000
,
0011
0000
1100
0000
0101
0000
1000
0001
,
0100
0000
0000
0100
0010
0000
2000
0000
0001
0000
0000
0000
3001
0000
0000
0000
,
1200
0301
0021
1030
,
0001
0001
0010
0010
0100
0100
1000
0010
,
0200
0000
1000
0000
0301
0000
1000
0100
,
0001
0000
0110
0000
0001
1000
0100
0000
,
0100
0000
0000
1000
0000
0000
0110
0000
0000
0000
0001
0000
1000
0000
0000
0000
,
0001
0000
0000
0010
0000
0000
1000
0000
0010
0000
1000
0000
0010
0000
0001
0000
,
1000
0101
0001
1010
,
0002
0100
1000
0013
,
2000
0100
0001
3010
,
0002
0010
1000
0103
,
2000
0000
3001
0000
1000
0001
0100
0000
,
0110
0000
0000
0000
1000
0000
0100
0010
0000
0000
0001
0000
0010
0000
0000
0000
,
0020
0000
0000
0000
0130
0000
0000
1000
0000
0000
0001
0000
0100
0000
0000
0000
,
0020
0000
1030
0000
1000
0100
0001
0010
,
2000
0001
0001
3001
,
1001
0000
0000
1000
0000
0000
0100
0000
0001
0000
0100
0000
1000
0000
0000
0000
,
1020
0130
0021
0130
,
1001
0000
0000
0001
0000
0000
0100
0000
1000
0000
0100
0000
0001
0000
0000
0000
,
1200
0310
0201
0310
,
0110
0000
0000
0000
1000
0000
0000
0010
0000
0000
0001
0000
0010
0000
0000
0000
,
1200
0301
0021
1030
,
0001
1000
0100
0000
0010
0001
1000
0000
,
1001
0000
0000
0000
0110
0000
0000
0000
1001
0000
0000
0000
1000
0001
1000
0001
;
