#TITLE:Holiday Waltz;
#SUBTITLE:;
#ARTIST:Kinuyo Yamashita;
#TITLETRANSLIT:;
#SUBTITLETRANSLIT:;
#ARTISTTRANSLIT:;
#GENRE:;
#CREDIT:;
#MUSIC:Holiday Waltz.mp3;
#BANNER:;
#BACKGROUND:;
#CDTITLE:;
#SAMPLESTART:59.296;
#SAMPLELENGTH:9.290;
#SELECTABLE:YES;
#OFFSET:1.091;
#BPMS:0.000=155.000;
#STOPS:;
#BGCHANGES:;
#FGCHANGES:;

//--------------- dance-single - aboutblank ----------------
#NOTES:
     dance-single:
     aboutblank:
     Beginner:
     1:
     0,0,0,0,0:
0000
0000
0000
0000
,
0000
0000
0000
0000
,
0000
0000
0000
0000
,
0000
0000
0000
0000
,
0000
0000
0000
0000
,
0000
0000
0000
0000
,
0000
0000
0000
1000
,
0000
0000
0000
0000
,
0000
0100
0000
0000
,
0000
0000
0000
0001
,
0000
0000
0000
0000
,
0000
0100
0000
0000
,
0000
0000
0000
0020
,
0000
0000
0000
0030
,
0000
0000
0001
0000
,
0000
0000
0000
1000
,
0000
0000
0000
0000
,
0000
0001
0000
0000
,
0000
0000
0000
0001
,
0000
0000
0000
0000
,
0000
0100
0000
0000
,
0000
0000
0000
0010
,
0000
0000
0000
0000
,
0000
0100
0000
0000
,
0000
0000
0000
0100
,
0000
0000
0000
0000
,
0000
0002
0000
0003
,
0001
0000
0000
2000
,
0000
3000
1000
0000
,
0000
0002
0000
0003
,
0001
0000
0000
0002
,
0000
0003
0001
0000
,
0000
0020
0000
0030
,
0010
0000
0000
0200
,
0000
0300
0100
0000
,
0000
0020
0000
0030
,
0010
0000
0000
2000
,
0000
3000
1000
0000
,
0000
0200
0000
0000
,
0000
0000
0000
0310
,
0000
0000
0010
0000
,
0000
0001
0000
0000
,
0001
0000
0000
0100
,
0000
0000
0000
0000
,
0000
1000
0000
0000
,
0000
0000
0000
0010
,
0000
0000
0010
0000
,
0000
1000
0000
0000
,
1000
0000
0000
0100
,
0000
0000
0000
0000
,
0000
0001
0000
0000
,
0000
0000
0000
1001
,
0000
0000
0000
0000
,
0000
0000
0000
0000
,
0000
0000
0000
1000
,
0000
0000
1000
0000
,
0000
0100
0000
0000
,
0100
0000
0000
0001
,
0000
0000
0000
0000
,
0000
1001
0000
0000
,
0000
0000
0000
0001
,
0000
0000
0001
0000
,
0000
0010
0000
0000
,
0010
0000
0000
1000
,
0000
0000
0001
0000
,
0000
2000
0000
0000
,
0000
0000
0000
3001
;

//--------------- dance-single - aboutblank ----------------
#NOTES:
     dance-single:
     aboutblank:
     Easy:
     3:
     0,0,0,0,0:
0000
0000
0000
0000
,
0000
0000
0000
0000
,
0000
0000
0000
0000
,
0000
0000
0000
0000
,
0000
0000
0000
0000
,
0000
0000
0000
0000
,
0000
0000
0000
1000
,
0000
0000
2000
0000
,
3000
0001
0000
0000
,
0002
0000
0003
0100
,
0000
0000
0200
0000
,
0300
0010
0000
0000
,
0020
0000
0030
2002
,
0000
0000
0000
0000
,
3003
2000
0000
0000
,
3100
0000
0000
0002
,
0000
0000
0103
0000
,
0000
2000
0000
0000
,
3010
0000
0000
0002
,
0000
0000
0103
0000
,
0000
2000
0000
0000
,
3010
0000
0000
0002
,
0000
0000
0013
0000
,
0000
2000
0000
0000
,
3100
0000
0000
0002
,
0000
0000
0013
0000
,
0000
2000
0000
0000
,
3100
0100
0000
0002
,
0000
0000
0000
0000
0010
0003
0010
0000
,
0000
2000
0000
0000
,
0001
0000
0000
3002
,
0000
0000
1000
0000
,
0000
0203
0000
0000
,
0010
0310
0000
0020
,
0000
0000
0100
0130
,
0000
2000
0000
3100
,
0001
0000
0000
0002
,
0000
0013
1000
0000
,
0000
1001
0000
0000
,
0000
0000
0000
2000
,
0000
3100
0001
0000
,
0000
2000
0000
3100
,
0001
0000
0000
2000
,
0000
3000
0020
0000
,
0030
0002
0000
0003
,
0200
0000
0300
0002
,
0000
0103
1000
0000
,
0000
0002
0000
0103
,
1000
0000
0000
0002
,
0000
0003
0020
0000
,
0030
2000
0000
3000
,
0200
0000
0300
0110
,
0000
0000
0000
0000
,
0000
1001
0000
0000
,
0000
0000
0000
2000
,
0000
3100
0001
0000
,
0000
0002
0000
0013
,
1000
0000
0000
2000
,
0000
3100
0001
0000
,
0000
0002
0000
0013
,
1000
0100
0000
2000
,
0000
3010
0001
0000
,
0000
0002
0000
0103
,
1000
0000
0000
2000
,
0000
3100
0002
0000
,
0013
1000
0100
0001
,
0010
0000
0000
1001
;

//--------------- dance-single - aboutblank ----------------
#NOTES:
     dance-single:
     aboutblank:
     Medium:
     6:
     0,0,0,0,0:
0000
0000
0000
0000
,
0000
0000
0000
0000
,
0000
0000
0000
0000
,
0000
0000
0000
0000
,
0000
0000
0000
0000
,
0000
0000
0000
0000
,
0000
0000
0000
1000
,
0000
0000
0100
0010
,
0000
0001
0000
0000
,
0010
0100
0000
1000
,
0000
0000
0001
1000
,
0100
0010
0000
0000
,
0001
0000
0000
1001
,
0000
0000
0000
0000
,
0000
1000
0000
0000
,
0010
0100
0001
0010
,
0000
0000
0010
0100
,
1000
0001
0000
0000
,
0100
0000
0100
0001
,
0000
0001
1000
0000
,
1000
0010
0000
0000
,
0010
0100
1000
0001
,
0000
0000
0001
0010
,
1000
0001
0000
0000
,
0100
0001
1000
0100
,
0000
0100
0010
0000
,
0010
1001
0000
0001
,
0100
0100
1000
0100
,
0000
0001
0010
0010
,
1000
0010
0000
0001
,
1000
0000
0100
0010
,
0000
0001
0010
0000
,
0100
1000
0000
1000
,
0100
0001
0100
1000
,
0000
0001
0100
1000
,
0100
0001
0000
0001
,
0010
0000
1000
0100
,
0000
0001
0010
0000
,
2000
0002
0000
0000
,
0000
0000
3003
1001
,
1100
1100
0001
1000
,
0000
1001
0101
0101
,
1000
0001
0000
1001
,
1100
0001
1000
0010
,
0100
1001
0011
1000
,
0001
0010
0100
0110
,
1000
0001
0100
0010
,
0000
0110
1000
0001
,
1000
0100
0000
1100
,
0100
0010
0011
0010
,
0100
1001
1000
0010
,
0101
0001
1000
0020
,
0000
0000
0000
0000
,
0000
0230
0000
0000
,
0001
0001
0301
2000
,
0100
3001
0002
0100
,
1003
2000
0100
3001
,
0002
0100
1003
0020
,
0100
0130
0200
0010
,
0310
2000
0001
3001
,
1000
0001
1000
0001
1000
0000
0002
0000
,
0010
1003
2000
0010
,
3001
0002
0010
1003
,
2000
0010
3001
0200
,
0010
0310
0020
0100
,
0130
0000
0001
1000
0001
1000
0001
0000
,
0100
0010
0100
0010
0100
0000
1001
0000
;

//--------------- dance-single - aboutblank ----------------
#NOTES:
     dance-single:
     aboutblank:
     Hard:
     11:
     0,0,0,0,0:
0000
0000
0000
0000
,
0000
0000
0000
0000
,
0000
0000
0000
0000
,
0000
0000
0000
0000
,
0000
0000
0000
0000
,
0000
0000
0000
0000
,
0000
0000
0000
0010
,
0000
0000
0000
0000
0000
0000
0010
0000
0010
0001
0000
0000
,
0100
1000
0000
0000
,
0010
0000
0010
1000
0000
0000
0100
0000
0000
0001
0000
0000
,
0000
0000
0000
0000
0000
1000
0010
0000
0000
0001
0000
0000
,
0100
0010
0000
0000
,
0110
0000
0000
2002
,
0000
0000
0000
0000
,
3003
0000
0000
0002
0000
0000
0100
0000
0000
0103
0000
0010
,
1000
0000
0010
0100
0000
0000
0001
0000
0000
2000
0000
0000
,
0100
0000
0000
3100
0000
0010
0001
0000
0010
0100
0000
0000
,
1000
0000
0000
0020
0000
0000
0100
0000
0000
0130
0000
0001
,
1000
0000
0001
1000
0000
0000
0010
0000
0100
0002
0000
0000
,
1000
0000
0000
1003
0000
0100
0010
0000
0100
0010
0000
0000
,
0001
1000
0001
2000
0000
0000
0100
0000
0000
3100
0000
0001
,
1000
0000
0100
1000
0000
0000
1100
0000
0000
0002
0000
0000
,
0100
0000
0000
0103
0000
1000
0001
0000
0100
0001
0000
0000
,
0101
0000
0000
1020
0000
0000
0100
0000
0000
0130
0000
0001
,
0010
0000
0001
1000
0000
0000
1010
0000
0000
0201
0000
0000
,
0010
0000
0000
0310
0000
0000
1000
0001
1000
0001
0000
0000
,
0100
0010
0100
0020
0000
0000
1000
0000
0000
1030
0000
0000
,
0200
0010
0310
0002
,
0100
0103
0020
1000
,
1030
0200
0001
0301
,
0020
0000
0000
1000
0000
0000
1030
0000
0001
0200
0000
0000
,
0010
0000
0000
0310
0000
0000
1000
0100
0010
0001
0000
0000
,
0001
0010
0100
2000
0000
0000
0001
0000
0000
3001
0000
0100
,
0002
0000
0000
0010
0000
0000
0013
0000
0001
2000
0000
0000
,
3100
0000
0000
1000
0100
0010
0002
0000
0000
0100
0000
0000
,
1003
0100
1000
0020
0000
0000
0100
0000
0000
1030
0010
0100
,
0002
0000
0000
0010
0000
0000
0013
0000
0100
2000
0000
0000
,
0100
0000
0000
3100
0010
0001
0200
0000
0000
0010
0000
0000
,
0310
0220
0000
0330
,
1001
0000
0000
0110
0000
0000
0000
0000
1000
0200
0000
0000
,
0310
0001
0010
0100
1000
0100
0020
0000
0000
0031
0000
0000
,
0100
0000
0010
2000
0000
0000
3001
0010
0100
1000
0100
0010
,
0002
0000
0000
0103
0000
0000
0010
0000
1000
0200
0000
0000
,
0310
0000
0001
0010
0000
0000
0002
0000
0000
0103
0000
0001
,
0100
0000
0000
2000
0000
0000
3100
0000
1000
0100
0000
0000
,
2000
0000
0000
3010
0000
1000
0010
0000
0000
0002
0000
0000
,
1003
0000
1000
0100
0000
0100
0010
0000
0000
0101
0000
0000
,
1000
0000
0010
0200
0000
0000
0301
0000
0001
1000
0000
1000
,
0010
0000
0000
0101
0000
0000
0001
0000
0001
0020
0000
0000
,
1000
0031
0200
1000
,
0301
0000
0000
0020
0000
0000
0031
0000
0001
1000
0000
1000
,
0200
0000
0000
1300
0000
1000
0001
0000
0001
0020
0000
0000
,
0100
0100
0100
0100
,
0130
2000
0001
0001
,
3001
1000
0100
0001
1000
0010
0002
0000
,
1000
0000
0000
1003
0000
0000
0101
0000
0010
1000
0000
0100
,
0010
0002
1000
1003
,
0011
0000
0100
1000
0000
0010
0100
0000
0000
0002
0000
0000
,
0010
0000
0000
0013
0000
0000
1100
0000
1000
0100
0000
0010
,
0001
2000
0010
3010
,
1010
1000
0010
0100
0001
0010
0200
0000
,
1000
0000
0000
1300
0000
0000
1001
0000
0001
0100
0000
0010
,
1000
1200
0010
0310
,
0011
0000
1000
0010
0000
0100
0001
0000
0000
0021
0000
0000
,
0100
0130
1020
0100
,
0130
0000
0001
0010
0100
0010
0001
1000
,
0100
0000
0000
0010
0000
0000
0001
0000
0000
0100
0000
0000
0001
0000
1000
0000
0100
0000
0010
0000
0000
0000
0000
0000
;
