#TITLE:Happy in commet;
#SUBTITLE:;
#ARTIST:Sampling Masters MEGA;
#TITLETRANSLIT:;
#SUBTITLETRANSLIT:;
#ARTISTTRANSLIT:;
#GENRE:;
#CREDIT:;
#MUSIC:Happy in commet.mp3;
#BANNER:;
#BACKGROUND:;
#CDTITLE:;
#SAMPLESTART:11.028;
#SAMPLELENGTH:15.000;
#SELECTABLE:YES;
#OFFSET:1.301;
#BPMS:0.000=175.000;
#STOPS:;
#BGCHANGES:;
#FGCHANGES:;

//--------------- dance-single - forcednature ----------------
#NOTES:
     dance-single:
     forcednature:
     Beginner:
     5:
     0,0,0,0,0:
0000
0000
0000
0000
,
0000
0000
0000
0000
,
0000
0000
0000
0000
,
0000
0000
0000
0000
,
0000
0000
0000
0000
,
1000
0000
0001
0000
,
0100
0000
0010
0000
,
0100
0000
0010
0000
,
0100
0100
0010
0010
,
1000
0001
0000
0010
,
0000
0001
0000
0100
,
0000
0010
0000
0000
,
0010
0000
0010
0000
,
1000
0001
0000
0010
,
0000
0001
0000
1000
,
0000
0010
0000
0000
,
0100
0000
0100
0000
,
0001
1000
0000
0100
,
0000
1000
0000
0010
,
0000
0100
0000
0000
,
0010
0000
0010
0000
,
1000
0001
0000
0010
,
0000
0001
0000
1000
,
0001
0000
0000
0000
,
1000
0000
0000
0010
,
0000
0100
0000
0001
,
0000
1000
0000
0100
,
0000
0010
0000
0001
,
0000
0100
0000
0010
,
0000
1000
0000
0010
,
0000
1000
0000
0001
,
0000
0100
0000
0001
,
0000
0010
0000
0100
,
0000
0010
0000
0010
,
0000
0001
0000
0001
,
0000
1000
0000
1000
,
0000
0010
0000
0010
,
0100
0000
0000
0000
,
1001
0000
0000
0000
,
1001
0000
1001
0000
,
0100
0100
0100
0100
,
0100
0000
0000
0000
,
0000
0000
0000
0000
,
0010
0010
0000
0000
,
0000
0000
0000
0000
,
0100
1001
0000
0000
,
0000
0000
0000
0000
,
1001
0000
0110
0000
,
0010
0010
0100
0100
,
0010
0010
0000
0001
,
0000
0100
0000
0010
,
0000
1000
0000
0100
,
0000
1000
0000
0010
,
0000
0100
0000
0001
,
0000
0010
0000
0001
,
0000
0100
0000
0010
,
0100
0100
0100
0100
,
0010
0000
0000
0000
,
1001
0000
0000
0000
,
0100
0000
0000
0000
,
0100
0100
0100
0100
,
0010
0000
0000
0000
,
1001
0000
0000
0000
,
0100
0000
0010
0000
,
0100
0100
0100
0100
,
1000
0001
0000
0100
,
0000
0001
0000
1000
,
0010
0000
0010
0000
,
0100
0100
0100
0100
,
0001
0010
0000
0100
,
0000
1000
0000
0001
,
0100
0000
0010
0000
,
0010
0010
0010
0010
,
1000
0001
0000
1000
,
0000
0100
0000
0010
,
0000
0001
0000
0000
,
1000
0000
1000
0000
,
0010
0100
0000
0001
,
0000
0010
0000
0100
,
1000
0000
0000
0010
,
0000
0000
0010
0000
,
0100
0000
0000
1001
,
0000
0000
0000
0000
,
0110
0000
0000
1001
,
0000
0000
0000
0000
,
0010
0000
0100
0000
,
1000
1000
1000
1000
,
0001
0001
0001
0001
,
1001
0000
0000
0000
;

//--------------- dance-single - forcednature ----------------
#NOTES:
     dance-single:
     forcednature:
     Easy:
     9:
     0,0,0,0,0:
0000
0000
0000
0000
,
0000
0000
0000
0000
,
0000
0000
0000
0000
,
0000
0000
0000
0000
,
0000
0000
0000
0000
,
1001
0001
0100
0001
,
1000
0010
1000
0000
,
0110
0000
1001
0000
,
0110
0100
1001
0010
,
1001
0001
0100
0001
,
1000
0010
1000
0100
,
0010
0000
0100
0000
0100
0000
0000
0010
,
0000
0010
0000
0000
0100
0000
1000
0000
,
0001
1000
0010
1000
,
0001
0010
0001
1000
,
0010
0000
0100
0000
0100
0000
0000
0010
,
0000
0010
0000
0000
0100
0000
0001
0000
,
1001
0001
0010
0100
,
1000
0010
0100
0001
,
0010
0000
0001
0000
0001
0000
0000
1000
,
0000
1000
0000
0000
0001
0000
1000
0000
,
0010
0100
0001
1000
,
0100
0010
0001
0100
,
0010
0000
1000
0000
0001
0000
0000
0010
,
0000
0100
0000
0000
1000
0000
0001
0000
,
0100
0110
0000
1001
,
0000
0110
0000
1001
,
0000
0101
0000
1100
,
0000
1001
0010
0110
,
0000
1100
0000
0011
,
0000
0101
0000
1010
,
1000
1100
0001
0011
,
0100
0110
0001
1001
,
0000
0101
0000
0011
,
0000
1100
0000
1010
,
0000
0110
0000
1001
,
0000
0011
0100
1001
,
2200
0000
3300
0000
,
0202
0000
0303
0100
,
1001
0000
0110
0000
,
1001
0100
0010
0110
,
2002
0000
0000
0000
,
0000
0000
3003
0000
,
0110
0220
0000
0000
,
0000
0000
0000
0330
,
1001
2002
0000
0000
,
0000
0000
3003
0000
,
1001
0000
0110
0000
,
1001
1100
0011
1001
,
0110
0001
1000
0001
,
0100
0010
1000
0001
,
1000
0100
0010
0001
,
0100
0010
1000
0001
,
0010
0100
1000
0001
,
0100
0010
1000
0001
,
1000
0100
0010
0001
,
0200
0010
0010
0310
,
0100
0001
1000
0000
,
0010
1000
0001
0000
,
1000
0100
0010
0000
,
1001
0100
0010
0100
,
1001
0010
0001
0100
,
0001
1000
0010
1000
,
1001
0000
0110
0000
,
0100
0100
0010
0010
,
1001
0100
0001
1000
,
0010
1000
0001
0010
,
0110
0000
1001
0000
,
0110
0100
0010
0110
,
1001
0100
0001
1000
,
0010
1000
0001
0010
,
0110
0000
1001
0000
,
1100
0100
0011
0010
,
1001
0001
0100
0001
,
1000
0010
1000
0001
,
0010
0000
0100
0000
0100
0000
0000
0010
,
0000
0010
0000
0000
0100
0000
0010
0000
,
1001
0001
0100
0010
,
1000
0001
0010
0100
,
1000
0000
0010
0000
0100
0000
0000
0001
,
0000
1000
0000
0000
0010
0000
0100
0000
,
1001
1000
0100
0110
,
0001
0000
1000
0000
0000
0101
0000
0000
,
1001
0100
0010
1001
,
0010
0000
0100
0000
0000
1100
0000
0000
,
0110
1000
0110
0001
,
1001
1001
0101
0101
,
1001
1001
1100
1100
,
1001
0000
0000
0000
;

//--------------- dance-single - forcednature ----------------
#NOTES:
     dance-single:
     forcednature:
     Medium:
     12:
     0,0,0,0,0:
0000
0000
0000
0000
,
0000
0000
0000
0000
,
0000
0000
0000
0000
,
0000
0000
0000
0000
,
0000
0000
0000
0000
,
1001
0000
0100
0000
0001
0000
0010
0100
,
0000
1000
0000
0001
0100
0000
0010
0000
,
1001
0000
0000
0000
0100
0100
0000
0001
,
0000
1000
0000
0100
0110
0000
0001
1000
,
0001
0000
0100
0000
0010
1000
0000
0001
,
0000
1000
0100
0010
0001
0100
0010
1000
,
0100
0000
0020
0000
0032
0000
0003
2000
,
0000
3020
0000
0130
0001
0010
0100
1000
,
0010
0000
0100
0000
0001
1000
0000
0100
,
0000
1000
0010
0100
0001
0010
0001
0100
,
0010
0000
2000
0000
3200
0000
0300
2000
,
0000
3020
0000
0130
0001
1000
0001
0010
,
0100
0000
1000
0000
0010
0100
0000
0001
,
0000
1000
0010
1000
0001
0010
0001
0100
,
0010
0000
2000
0000
3020
0000
0030
0002
,
0000
0023
0000
0130
0001
1000
0010
0100
,
0001
0000
1000
0000
0100
0010
0000
0001
,
0000
1000
0010
0100
0001
0100
0010
1000
,
0100
0000
0020
0000
0032
0000
0003
2000
,
0000
3020
0000
0130
0002
0000
0013
0100
,
0010
1001
0100
1001
,
1000
0110
0001
0110
,
0001
0101
0001
0011
,
0001
0000
1001
0000
0001
0100
0001
0000
,
0100
0110
0010
1001
,
0100
1001
0010
0110
,
1000
1100
0001
0101
,
0010
0000
0110
0000
1000
0001
1000
0000
,
0100
0101
0010
1010
,
1000
1100
0001
0011
,
1000
1010
1000
1001
,
1000
0000
1100
0000
1000
0001
1000
0000
,
0110
0001
0001
0000
,
0110
0000
1000
0000
1000
0000
0001
1000
,
0001
0100
1001
0010
,
1100
0101
0011
1010
,
2001
0001
0001
0001
,
0001
0001
3001
0000
,
0110
0120
0100
0100
,
0100
0100
0130
0000
,
1002
1000
1000
0000
1000
0000
1000
0000
,
1000
1000
1003
0000
,
0220
0330
2002
3003
,
1100
0101
1010
0011
,
1001
0000
0100
0000
0010
1000
0000
0001
,
0000
0100
0010
0000
1000
0000
0100
0000
,
0011
0000
0001
0000
0100
0010
0000
1000
,
0000
0100
0010
0000
0001
0100
0001
0000
,
1000
0010
1000
0000
0001
0010
0100
0100
,
0000
1000
0001
0000
0100
0000
0010
0000
,
1000
0100
0010
0001
0100
0010
1000
0001
,
0020
0230
2300
3002
,
1003
0000
0000
0000
1000
0000
0000
0001
1000
0000
0000
0000
2002
0000
3003
0000
,
0001
0000
0000
0000
0001
0000
0000
1000
0001
0000
0000
0000
2002
0000
3003
0000
,
0100
0000
0000
0000
0100
0000
0000
0100
0010
0000
0000
0000
0110
0000
0000
0000
,
0101
0000
1001
0000
1100
0000
1000
0001
,
1000
0000
0000
0000
0001
0000
0000
0100
0001
0000
0000
0000
0010
0000
0100
0000
,
1000
0000
0000
0000
0010
0000
0000
1000
0001
0000
0000
0000
0100
0000
0001
0000
,
0010
0000
0000
0000
0100
0100
0000
0010
,
0001
0100
0001
0100
0010
1000
0010
1000
,
0001
0000
0010
0000
0100
1000
0000
0010
,
0000
0100
0001
1000
0001
1000
0100
0010
,
0001
1000
0001
0000
0110
0000
0001
0000
,
1001
0000
0101
0000
1100
0000
1000
0001
,
1000
0000
0010
0000
0100
0001
0000
0010
,
0000
0100
1000
0010
0100
0001
0010
0001
,
0100
0010
0100
0000
1001
0000
0100
0000
,
1100
0101
0011
1010
,
1001
0000
0001
0000
0010
0001
0000
0100
,
0000
0010
1000
0100
1000
0001
0100
0001
,
1000
0000
0020
0000
0230
0000
0300
0002
,
0000
0023
0000
0130
1000
0001
0100
0001
,
1000
0000
0010
0000
1000
0100
0000
0010
,
0000
0001
0100
0010
0100
0001
0010
0001
,
1000
0000
0020
0000
0230
0000
0300
0002
,
0000
2003
0000
3001
0020
0000
0130
1000
,
0100
0020
0031
1001
,
0200
0000
0320
0000
1030
0002
0000
0003
,
0101
2000
3010
0110
,
0002
0000
0023
0000
0031
2000
0000
3000
,
0110
0000
0002
0003
0101
0000
2000
3000
,
1001
0011
0110
1100
,
1001
0101
0110
1010
,
2002
3003
0000
0000
;

//--------------- dance-single - forcednature ----------------
#NOTES:
     dance-single:
     forcednature:
     Hard:
     15:
     0,0,0,0,0:
0000
0000
0000
0000
,
0000
0000
0000
0000
,
0000
0000
0000
0000
,
0000
0000
0000
0000
,
0000
0000
0000
0000
,
1000
0001
0100
0001
0010
0100
1000
0020
,
0000
0001
0000
1000
0130
0001
0010
0100
,
1100
0000
1000
0000
0000
0000
0001
0000
0101
0000
0101
0000
0000
0000
0001
1000
,
0001
0000
0010
0000
0001
0000
0100
0000
0010
0000
1000
0000
0001
1000
0001
1000
,
0002
0003
0010
0100
1000
0002
0003
0200
,
0000
0300
1000
0000
0100
0000
0001
0000
0010
0000
0100
0000
0001
0000
0100
0000
,
1000
0000
0010
0000
0100
0000
0000
0000
0101
0000
0000
0000
1000
0000
0100
0010
,
0100
0000
1000
0000
0010
0000
0000
0000
0100
0000
0000
0000
0001
0010
0001
0010
,
0002
0003
1000
0100
0001
0200
0300
0020
,
0000
0030
0001
0000
0100
0000
0010
0000
0001
0000
0010
0000
1000
0000
0100
0000
,
0010
0000
0001
0000
0100
0000
0000
0000
0110
0000
0000
0000
0001
0000
1000
0100
,
1000
0000
0010
0000
0100
0000
0000
0000
0001
0000
0000
0000
1000
0010
1000
0010
,
2000
3000
0100
0001
0100
0020
0030
0002
,
0000
0003
0100
0000
1000
0000
0001
0000
0010
0000
0100
0000
0001
0000
0010
0000
,
0100
0000
1000
0000
0010
0000
0000
0000
1001
0000
0000
0000
0001
0000
1000
0010
,
1000
0000
0100
0000
0010
0000
0000
0000
0001
0000
0000
0000
0100
0010
0100
0010
,
0200
0300
0001
0010
0100
2000
3000
0020
,
0000
0030
1000
0000
0001
0000
0010
0000
0001
0000
0100
0000
1000
0000
0100
0000
,
0020
0000
0000
0000
0000
0000
0030
0000
0000
0000
0000
0000
0200
0000
0000
0000
0000
0000
0000
0000
0300
0000
0000
0000
0002
0000
0000
0000
0000
0000
0000
0000
0003
0000
0000
0000
1000
0000
0000
0000
0000
0000
0001
0000
0000
0010
0000
0000
,
0001
0000
0000
0000
0000
0000
0200
0000
0000
0000
0000
0000
0000
0000
0300
0000
0000
0000
0010
0000
0000
0000
0000
0000
2000
0000
0000
0000
0000
0000
0000
0000
3000
0000
0000
0000
0100
0000
0000
0010
0000
0000
0100
0000
0000
0010
0000
0000
,
0200
0000
1300
0010
0200
0000
1300
0100
,
0001
0000
0010
0000
0100
0000
0001
0000
0200
0000
0000
0000
1300
0000
0000
0001
,
1000
0010
0001
0010
0100
1000
0100
0001
,
0010
1000
0010
0100
2000
0010
3001
0000
,
0002
0000
0000
0000
0013
0000
0100
0000
0002
0000
0000
0000
0103
0000
1000
0001
,
2000
0000
0000
0000
3010
0000
0100
0000
2000
0000
0000
0000
3100
0000
0001
1000
,
0001
0000
0010
0000
0100
0000
1000
0000
0010
0000
0001
0000
0010
0000
0000
0100
,
0001
1000
0100
0001
0100
0010
0110
0000
,
2000
0000
0000
0000
3010
0000
0001
0000
2000
0000
0000
0000
3100
0000
0001
1000
,
0001
0000
0010
0000
0001
0000
0100
0000
2000
0000
0000
0000
3100
0000
0000
0001
,
0010
0000
0100
0000
0001
0000
0100
0000
1000
0000
0010
0000
0001
0000
0010
0100
,
0010
1000
0100
1000
0020
0001
1030
0000
,
1002
0000
0103
0001
2000
0000
3100
0010
,
1002
0000
0000
0000
0013
0000
0100
0000
2000
0000
0000
0000
3010
1000
0010
1000
,
0010
0000
0000
0000
0100
0000
0000
0001
1000
0000
0000
0000
0100
0000
0000
0010
,
0001
0000
0101
0000
0010
1000
1000
0100
,
1001
0000
0001
0200
0000
0310
1000
0200
,
0000
0310
0001
0100
0001
1000
0010
1000
,
0110
0000
1001
0002
0000
0013
0100
2000
,
0000
3010
0100
0001
0100
1000
0100
0001
,
0110
0110
0110
2000
0000
3100
0010
0002
,
0000
0103
0010
1000
0100
0001
0100
0010
,
1001
0000
0100
0010
1001
0000
0010
0100
,
1001
0000
0000
0000
0110
0000
0000
0000
1001
0000
0000
0000
0001
1000
0001
1000
,
0001
0000
0000
0000
0011
0000
0000
0000
0001
0000
0100
0000
0010
0000
1000
0001
,
1000
0000
0001
0000
0110
0000
0000
0000
0001
0000
0000
0000
0110
0000
0000
1000
,
0010
0000
0000
0000
0101
0000
0000
0000
1000
0000
0100
0000
0001
0000
0100
0010
,
0100
0010
1001
0000
0100
1001
1001
0000
,
0001
0000
0001
0000
0101
0000
0100
0000
0010
0000
1000
0000
0001
0010
0001
0010
,
0000
0000
0100
0000
1100
0000
0000
0000
0010
0000
0000
0000
1001
0000
0000
0001
,
0100
1000
0100
0001
0010
1000
0010
0001
,
1000
0010
1000
0000
0001
0010
0001
0000
0100
0010
1000
0000
0100
0010
0001
0000
,
1000
0000
0001
0000
0100
0000
0010
1000
0010
0000
0000
0000
2002
0000
3003
0000
,
1000
0000
0100
0000
0010
0000
0001
0100
0001
0000
0000
0000
0220
0000
0330
0000
,
1000
0000
0010
0000
0100
0000
0001
0010
0001
0000
0000
0000
2002
0000
3003
0000
,
1100
0000
0000
0000
0101
0000
0000
0000
0001
0000
0100
0000
0010
1000
0010
1000
,
0100
0000
0010
0000
0001
0000
1000
0100
1000
0000
0010
0000
0200
0000
0310
0000
,
1000
0000
0001
0000
0010
0000
0001
1000
0001
0000
0100
0000
0020
0000
1030
0000
,
1100
0000
0001
0000
0000
0000
1000
0000
0101
0000
0101
0000
0000
0000
0001
1000
,
0001
0000
0010
0000
0100
0000
1000
0000
0110
0000
0000
0000
0001
1000
0001
1000
,
0002
0003
0010
0100
0001
0200
0300
2000
,
0000
3000
0010
0000
0100
0000
1000
0000
0100
0000
0001
0000
0010
0000
0100
0000
,
1100
0000
0001
0000
0100
0000
0000
0000
1001
0000
0000
0000
0001
0000
1000
0010
,
1000
0000
0001
0000
0011
0000
0000
0000
1100
0000
0000
0000
0001
0010
0001
0010
,
0002
0003
0100
1000
0100
0002
0003
0020
,
0000
0030
0100
0000
1000
0000
0010
0000
0100
0000
0001
0000
0010
0000
0100
1000
,
0100
0000
0010
0000
0001
0000
0000
0000
0101
0000
0000
0000
0100
0000
0001
0010
,
0001
0000
1000
0000
1001
0000
0000
0000
0110
0000
0000
0000
1000
0010
1000
0010
,
2000
3000
0100
0010
0001
2000
3000
0020
,
0000
0030
0001
0000
0010
0000
0100
0000
0001
0000
1000
0000
0100
0000
0010
0001
,
0010
0000
0001
0000
0100
0000
0000
0000
1001
0000
0000
0000
0001
0000
1000
0100
,
1000
0000
0010
0000
0100
0000
0000
0000
0001
0000
0000
0000
0010
0100
0010
0100
,
0020
0030
0001
1000
0010
0002
0003
0020
,
0000
0030
0100
0000
0001
0000
1000
0000
0100
0000
0001
0000
1000
0000
0010
0100
,
0020
0000
0000
0000
0000
0000
0030
0000
0000
0000
0000
0000
0200
0000
0000
0000
0000
0000
0000
0000
0300
0000
0000
0000
2000
0000
0000
0000
0000
0000
0000
0000
3000
0000
0000
0000
0010
0000
0000
0000
0000
0000
0100
0000
0000
0001
0000
0000
,
0100
0000
0000
0000
0000
0000
0020
0000
0000
0000
0000
0000
0000
0000
0030
0000
0000
0000
1000
0000
0000
0000
0000
0000
0200
0000
0000
0000
0000
0000
0000
0000
0300
0000
0000
0000
0010
0000
0000
0001
0000
0000
0010
0000
0000
0001
0000
0000
,
0020
0000
0000
0030
0000
0000
0002
0000
0000
0000
0003
0000
2000
0000
0000
0000
3000
0000
0220
0000
0000
0330
0000
0000
,
2000
0000
0000
0000
0000
0000
0000
0000
3000
0000
0000
0000
0200
0000
0000
0000
0000
0000
0010
0000
0300
0000
0000
0000
0100
0000
0000
0000
0000
0000
2200
0000
0000
0000
0000
0000
0000
0000
3300
0000
0000
0000
1000
0000
0000
0001
0000
0000
,
2000
0000
0000
3000
0000
0000
0020
0000
0000
0000
0030
0000
0200
0000
0000
0000
0300
0000
0022
0000
0000
0033
0000
0000
,
2000
0000
0000
0000
0000
0000
0000
0000
3000
0000
0000
0000
0002
0000
0000
0000
0000
0000
0100
0000
0003
0000
0000
0000
0010
0000
0000
0000
0000
0000
2020
0000
0000
0000
0000
0000
0000
0000
3030
0000
0000
0000
0010
0000
0000
0100
0000
0000
,
0020
0000
0000
0030
0000
0000
2000
0000
0000
0000
3000
0000
0202
0000
0000
0303
0000
0000
0020
0000
0000
0000
0030
0000
,
2002
3003
0220
0330
0202
0303
2200
3300
,
2020
3030
0022
0033
2002
3003
0220
0330
,
2002
3003
0000
0000
0000
0000
0000
0000
;
