#TITLE:Hands;
#SUBTITLE:;
#ARTIST:The Ting Tings;
#TITLETRANSLIT:;
#SUBTITLETRANSLIT:;
#ARTISTTRANSLIT:;
#GENRE:;
#CREDIT:;
#MUSIC:Hands.mp3;
#BANNER:;
#BACKGROUND:;
#CDTITLE:;
#SAMPLESTART:66.854;
#SAMPLELENGTH:13.848;
#SELECTABLE:YES;
#OFFSET:-0.382;
#BPMS:0.000=129.980;
#STOPS:;
#BGCHANGES:-0.784=Hands.avi=1.000=1=0=0,
99999=-nosongbg-=1.000=0=0=0 // don't automatically add -songbackground-
;
#FGCHANGES:;

//--------------- dance-single - OrangeRight ----------------
#NOTES:
     dance-single:
     OrangeRight:
     Beginner:
     2:
     0,0,0,0,0:
0000
0000
0000
0000
,
0000
0000
0000
0000
,
0000
0000
0000
0000
,
0000
0000
0000
0000
,
0000
0000
0000
0000
,
0000
0000
0000
0000
,
0000
0000
0000
0000
,
0000
0000
0000
0000
,
1000
0000
0000
0000
,
1000
0000
0000
0000
,
0001
0000
0000
0000
,
0001
0000
0000
0000
,
1000
0000
0001
0000
,
0100
0000
0000
0000
,
0001
0000
1000
0000
,
0100
0000
0000
0000
,
1000
0000
0010
0000
,
0100
0000
0000
0000
,
0001
0000
0010
0000
,
0100
0000
0000
0000
,
1000
0000
0100
0000
,
1000
0000
0000
0000
,
0001
0000
0100
0000
,
0001
0000
0000
0000
,
0001
0000
1000
0000
,
0010
0000
0000
0000
,
1000
0000
0001
0000
,
0010
0000
0000
0000
,
0001
0000
0100
0000
,
0010
0000
0000
0000
,
1000
0000
0100
0000
,
0010
0000
0000
0000
,
0100
0000
1000
0000
,
0001
0000
0000
0000
,
0100
0000
0001
0000
,
1000
0000
0000
0000
,
0000
1000
0000
1000
,
0000
1000
0001
0000
,
0000
0001
0000
0001
,
0000
0001
1000
0000
,
0000
1000
0000
1000
,
0000
1000
0001
0000
,
0100
0000
0010
0000
,
1000
0000
0001
0000
,
1000
0000
0000
0000
,
1000
0000
0000
0000
,
0001
0000
0000
0000
,
0001
0000
0000
0100
;

//--------------- dance-single - OrangeRight ----------------
#NOTES:
     dance-single:
     OrangeRight:
     Easy:
     4:
     0,0,0,0,0:
0000
0000
0000
0000
,
0000
0000
0000
0000
,
0000
0000
0000
0000
,
0000
0000
0000
0000
,
0000
0000
0000
0000
,
0000
0000
0000
0000
,
0000
0000
0000
0000
,
0000
0000
0000
0000
,
1000
0100
0010
0000
,
0010
0100
1000
0000
,
0001
0100
0010
0000
,
0010
0100
0001
0000
,
1000
0001
0100
0000
,
0001
1000
0001
0000
,
0001
1000
0100
0000
,
1000
0100
1000
0100
,
0010
0001
0100
0000
,
0100
0010
1000
0000
,
0100
1000
0010
0000
,
0010
0100
0001
0000
,
1000
1000
0001
0001
,
0100
0000
0100
0000
,
0001
0001
1000
1000
,
0100
0000
0010
0000
,
0001
1000
0100
0000
,
1000
0001
1000
0000
,
1000
0001
0100
0000
,
0001
1000
0001
0000
,
0001
0100
0010
0000
,
0010
1000
0100
0000
,
1000
0001
1000
0000
,
0001
1000
0001
1000
,
0001
0001
1000
1000
,
0010
0000
0010
0000
,
1000
1000
0001
0001
,
0020
0000
0030
1001
,
1000
0100
1000
0000
,
0001
0100
0010
0000
,
1000
0010
1000
0000
,
0001
0010
0100
0000
,
0100
1000
0010
0000
,
0100
0100
0001
0000
,
0010
0001
0100
0010
,
1000
0001
1000
0000
,
0002
0000
0003
0000
,
2000
0000
3000
0000
,
0200
0000
0300
0000
,
1000
0001
1000
0001
;

//--------------- dance-single - OrangeRight ----------------
#NOTES:
     dance-single:
     OrangeRight:
     Medium:
     7:
     0,0,0,0,0:
0000
0000
0000
0000
,
0000
0000
0000
0000
,
0000
0000
0000
0000
,
0000
0000
0000
0000
,
0000
0000
0000
0000
,
0000
0000
0000
0000
,
0000
0000
0000
0000
,
0000
0000
0000
0000
,
1000
0000
0100
0000
0010
0000
0100
1000
,
0001
0000
0100
0000
0010
0000
0100
0001
,
1000
0000
0010
0000
0100
0000
0010
1000
,
0100
0000
0010
0000
0001
1000
0001
0000
,
1000
0000
0100
1000
0100
0000
0010
0000
,
0001
0000
0100
0000
0010
1000
0010
0000
,
1000
0000
0100
0010
0100
0000
1000
0000
,
0001
0100
0010
1000
,
0001
0000
0100
0001
0100
0000
0010
0000
,
1000
0000
0100
0000
0010
0001
0010
0000
,
0001
0000
0100
0010
0100
0000
0001
0000
,
1000
0100
0010
0001
,
1000
0100
1000
0000
0001
0100
0001
0000
,
2000
3010
0002
0013
,
1000
0010
1000
0000
0001
0010
0001
0000
,
1000
0001
1000
0000
0001
0000
1000
0100
,
1000
0010
0100
0001
,
0010
0001
0010
0000
0001
0100
0001
0000
,
0100
0000
0010
1000
0010
0000
1000
0000
,
0001
0010
0001
0000
1000
0010
1000
0000
,
0001
0000
1000
0100
1000
0000
0010
0000
,
0100
0001
1000
0000
0100
1000
0001
0000
,
1000
1001
1001
0001
,
1000
0100
0010
0001
,
1000
0010
1000
0000
0001
0010
0001
0000
,
2000
3010
0002
0013
,
0001
0010
0001
0000
1000
0010
1000
0000
,
0002
0000
0003
1001
,
1100
0000
1100
0000
1001
0000
1000
0001
,
0100
0001
0010
0000
,
0011
0000
0011
0000
1001
0000
0001
1000
,
0010
1000
0100
0000
,
1100
0000
1001
0000
1100
0000
0100
1000
,
0010
0100
0001
1000
,
0001
0101
1000
1100
,
1000
0001
0000
1000
0001
0000
0110
0000
,
0002
0100
0000
0100
,
2003
0100
0000
0100
,
3002
0010
0000
0010
,
2003
3002
0203
0310
;

//--------------- dance-single - OrangeRight ----------------
#NOTES:
     dance-single:
     OrangeRight:
     Hard:
     9:
     0,0,0,0,0:
0000
0000
0000
0000
,
0000
0000
0000
0000
,
0000
0000
0000
0000
,
0000
0000
0000
0000
,
0000
0000
0000
0000
,
0000
0000
0000
0000
,
0000
0000
0000
0000
,
0000
0000
0000
0000
,
1000
0100
0010
0000
0010
0100
1000
0000
,
0001
0100
0010
0000
0010
0100
0001
0000
,
0001
0010
0100
0000
0100
0010
0001
0000
,
1000
0010
0100
0000
0010
0100
0001
0000
,
1000
0000
0100
1000
0010
0000
0100
0000
,
0001
0000
0100
0001
0010
0000
0100
0000
,
1000
0010
0100
0001
1000
0000
0001
0000
,
1000
0000
0010
0000
0100
0000
0000
0000
0100
0000
0010
0000
1000
0000
0001
1000
,
0001
0000
0010
0001
0100
0000
0010
0000
,
1000
0000
0010
1000
0100
0000
1000
0000
,
0001
0100
0010
1000
0100
0000
1000
0000
,
0001
0000
0100
0000
0010
0000
0000
0000
0010
0000
0100
0000
0001
0000
1000
0100
,
1000
0010
1000
0010
0100
0001
0100
0001
,
2000
3100
0002
0103
,
0001
0010
0001
0010
0100
1000
0100
1000
,
0010
0100
0010
0000
1000
0000
0001
1000
,
0100
0000
1000
0000
0010
0100
0001
0000
,
1000
0000
0001
0010
0100
1000
0001
0000
,
1000
0001
0010
0001
1000
0000
0001
0000
,
0010
0001
0100
0010
1000
0100
0010
0100
,
1000
0010
0100
0010
1000
0000
0001
0000
,
1000
0100
0010
0001
1000
0001
0100
0000
,
0001
0101
1010
1000
,
0001
0000
0100
0000
0010
0000
0000
0000
0010
0000
0100
0000
0001
0000
1000
0010
,
1000
0001
1000
0001
0100
0010
0100
0010
,
2000
3010
0002
0013
,
0001
0010
0100
0010
0001
0000
0100
0000
,
0001
0100
1000
0100
0001
0000
1001
0000
,
1100
0000
0011
0000
1001
0000
1000
0001
,
0100
0001
0010
0100
1000
0010
1000
0000
,
1010
0000
0101
0000
1001
0000
0001
1000
,
0100
1000
0010
0100
0001
0010
0001
0000
,
0010
1100
0010
0101
,
0010
0100
0001
0010
0100
1000
0001
0100
,
0101
1010
1100
0011
,
0001
0101
0000
1000
1100
0000
1001
0000
,
2000
3100
0002
0103
,
2000
3010
0002
0013
,
2000
3001
0002
1003
,
1000
0100
0010
0001
0100
0010
0110
0000
;

//--------------- dance-double - OrangeRight ----------------
#NOTES:
     dance-double:
     OrangeRight:
     Easy:
     2:
     0,0,0,0,0:
00000000
00000000
00000000
00000000
,
00000000
00000000
00000000
00000000
,
00000000
00000000
00000000
00000000
,
00000000
00000000
00000000
00000000
,
00000000
00000000
00000000
00000000
,
00000000
00000000
00000000
00000000
,
00000000
00000000
00000000
00000000
,
00000000
00000000
00000000
00000000
,
10000000
00000000
01000000
00000000
,
00100000
00000000
00000000
00000000
,
00100000
00000000
00010000
00000000
,
01000000
00000000
00000000
00000000
,
01000000
00010000
01000000
00000000
,
00001000
00000000
00010000
00000000
,
00000100
00001000
00000100
00000000
,
00001000
00000000
00001000
00000000
,
00000010
00001000
00000010
00000000
,
00010000
00000000
00001000
00000000
,
00100000
00010000
00100000
00000000
,
00010000
00000000
00010000
00000000
,
10000000
00000000
00010000
00000000
,
01000000
00000000
00000000
00000000
,
01000000
00000000
00100000
00000000
,
20000000
00000000
30000000
00000000
,
01000000
00000000
00100000
00000000
,
00010000
00000000
01000000
00000000
,
00001000
00010000
00001000
00000000
,
00010000
00000000
00000100
00000000
,
00001000
00000010
00001000
00000000
,
00000100
00000000
00000010
00000000
,
00000001
00001000
00000001
00000000
,
00001000
00000000
00001000
00000000
,
00000001
00000000
00000100
00000000
,
00000010
00000000
00000000
00000000
,
00000010
00000000
00001000
00000000
,
00002002
00000000
00003003
00000000
,
00001000
00000001
00001000
00000000
,
00000100
00000000
00010000
00000000
,
00001000
00010000
00001000
00000000
,
01000000
00000000
00010000
00000000
,
10000000
00010000
10000000
00000000
,
01000000
00000000
00100000
00000000
,
00001000
00010000
00001000
00010000
,
00000100
00000000
00001000
00000000
,
00000002
00000000
00000003
00000000
,
00002000
00000000
00003000
00000000
,
00000200
00000000
00000300
00000000
,
00001000
00000001
00001000
00000001
;

//--------------- dance-double - OrangeRight ----------------
#NOTES:
     dance-double:
     OrangeRight:
     Medium:
     7:
     0,0,0,0,0:
00000000
00000000
00000000
00000000
,
00000000
00000000
00000000
00000000
,
00000000
00000000
00000000
00000000
,
00000000
00000000
00000000
00000000
,
00000000
00000000
00000000
00000000
,
00000000
00000000
00000000
00000000
,
00000000
00000000
00000000
00000000
,
00000000
00000000
00000000
00000000
,
10000000
00000000
00010000
00000000
01000000
00000000
00010000
00100000
,
00010000
01000000
00001000
00010000
,
00000100
00000000
00001000
00000000
00000010
00000000
00000100
00000001
,
00001000
00000000
00000100
00000000
00010000
00001000
00010000
00000000
,
00001000
00100000
00010000
01000000
,
00100000
00000000
10000000
00000000
00010000
10000000
00010000
00000000
,
10000000
01000000
00100000
00010000
,
01000000
00001000
00010000
00000100
,
00010000
00000010
00001000
00000100
,
00000010
00000000
00000001
00000000
00001000
00000001
00001000
00000000
,
00000001
00000100
00000010
00001000
,
00000100
00010000
00001000
00100000
,
00010000
01000000
00010000
00000000
10000000
01000000
10000000
00000000
,
00020000
10000000
00000000
10030000
,
00010000
00100000
00010000
00000000
10000000
00100000
10000000
00000000
,
00100000
01000000
00100000
00000000
01000000
00000000
00010000
00000000
,
00100000
00001000
00010000
00000100
,
00001000
00000010
00001000
00000000
00000100
00001000
00000100
00000000
,
00010000
00001000
00100000
00010000
,
01000000
00010000
01000000
00000000
00010000
00100000
00010000
00000000
,
01000000
00001000
00010000
00000010
,
00001000
00000001
00001000
00000000
00000010
00000100
00000010
00000000
,
00001000
00000110
00001001
00000001
,
00000100
00000010
00000100
00000000
00000001
00001000
00000001
00000000
,
00001000
00000010
00001000
00000000
00000001
00000010
00000001
00000000
,
00002000
00000001
00000000
00003001
,
00000001
00000100
00000001
00000000
00001000
00000100
00001000
00000000
,
00000100
00010000
00001000
01000000
00010000
00000000
10010000
00000000
,
11000000
00000000
11000000
00000000
10010000
00000000
00010000
01000000
,
00001000
00000000
00010000
00000100
00001000
00000000
00000000
00000000
,
00001100
00000000
00001100
00000000
00001001
00000000
00000001
00001000
,
00000100
00000000
00001000
00000001
00000100
00000000
00000000
00000000
,
00000101
00000000
00000101
00000000
00001001
00000000
00001000
00000100
,
00010000
00000000
00001000
01000000
00010000
00000000
10000000
00000000
,
00010000
00110000
10000000
10100000
,
10000000
00010000
00000000
01000000
00100000
00000000
01100000
00000000
,
20000000
01000000
00000000
30100000
,
02000000
00010000
00000000
03001000
,
00200000
00010000
00000000
00301000
,
00020000
00030200
00002300
00003001
;

//--------------- dance-double - OrangeRight ----------------
#NOTES:
     dance-double:
     OrangeRight:
     Hard:
     9:
     0,0,0,0,0:
00000000
00000000
00000000
00000000
,
00000000
00000000
00000000
00000000
,
00000000
00000000
00000000
00000000
,
00000000
00000000
00000000
00000000
,
00000000
00000000
00000000
00000000
,
00000000
00000000
00000000
00000000
,
00000000
00000000
00000000
00000000
,
00000000
00000000
00000000
00000000
,
10000000
00100000
01000000
00000000
00010000
01000000
00100000
01000000
,
00001000
00010000
00001000
00000000
00010000
00000100
00001000
00000000
,
00000001
00000010
00000100
00000000
00001000
00000010
00000100
00000010
,
00010000
00001000
00100000
00000000
00010000
01000000
00100000
00000000
,
10000000
00000000
00010000
10000000
00010000
00000000
01000000
00000000
,
00010000
00000000
01000000
00001000
00010000
00000000
00001000
00010000
,
00000100
00000000
00001000
00000001
00001000
00000000
00000010
00000000
,
00001000
00000100
00000010
00000000
00000010
00000100
00001000
00000000
,
00000001
00000000
00001000
00000001
00001000
00000000
00000100
00000000
,
00001000
00000000
00000100
00010000
00001000
00000000
00010000
00001000
,
01000000
00000000
00010000
10000000
00010000
00000000
00100000
00000000
,
00010000
00000000
01000000
00000000
00100000
00000000
00000000
00000000
01000000
00000000
00100000
00000000
10000000
00000000
00010000
01000000
,
00010000
00100000
00010000
00100000
01000000
10000000
01000000
10000000
,
00200000
01300000
02000000
03100000
,
00100000
10000000
00100000
10000000
00010000
01000000
00010000
01000000
,
00001000
00010000
00001000
00000000
00010000
00000100
00001000
00000001
,
00001000
00000000
00000010
00000000
00000100
00000001
00001000
00000000
,
00000010
00001000
00000100
00000010
00000001
00000100
00000001
00000000
,
00001000
00000100
00010000
00001000
00010000
00000000
00001000
00000000
,
00100000
00010000
01000000
00100000
10000000
00010000
10000000
00000000
,
00010000
00100000
00010000
10000000
00010000
00000000
10000000
00000000
,
01000000
00100000
00010000
00000000
01000000
00001000
00010000
00000000
,
00001000
00101000
00010100
00001000
,
00000001
00000000
00000100
00000000
00000010
00000000
00000000
00000000
00000010
00000000
00000100
00000000
00000001
00000000
00001000
00000100
,
00001000
00000100
00001000
00000100
00000010
00000001
00000010
00000001
,
00000200
00000310
00000020
00000130
,
00000001
00000100
00000010
00000100
00000001
00000000
00001000
00000000
,
00000001
00000010
00001000
00010000
00100000
00000000
10010000
00000000
,
10000000
11000000
00010000
01010000
,
00010000
00100000
01000000
10000000
00020000
00000000
01030000
00000000
,
01000000
00011000
00000100
00011000
,
00010000
00000010
00001000
00000100
00000020
00000000
00000031
00000000
,
00000001
00000101
00001000
00001100
,
00001000
00000100
00010000
00001000
02000000
00000000
03010000
01000000
,
01010000
00110000
01100000
11000000
,
01000000
01100000
00000000
00010000
10010000
00000000
01000000
00000000
,
00020000
00130000
00200000
00301000
,
00002000
00013000
00020000
00030100
,
00000100
00010000
00001000
00000000
01000000
00001000
00010000
00000000
,
00001000
00010000
00001000
00010000
00001000
00010000
00011000
00000000
;
