#TITLE:Habanera (Monster Party Mix);
#SUBTITLE:;
#ARTIST:oo39.com;
#TITLETRANSLIT:;
#SUBTITLETRANSLIT:;
#ARTISTTRANSLIT:;
#GENRE:;
#CREDIT:;
#MUSIC:Habanera (Monster Party Mix).mp3;
#BANNER:;
#BACKGROUND:;
#CDTITLE:;
#SAMPLESTART:27.831;
#SAMPLELENGTH:13.881;
#SELECTABLE:YES;
#OFFSET:-0.070;
#BPMS:0.000=134.000;
#STOPS:;
#BGCHANGES:;
#FGCHANGES:;

//--------------- dance-single - MEGAtive ----------------
#NOTES:
     dance-single:
     MEGAtive:
     Beginner:
     2:
     0,0,0,0,0:
0000
0000
0000
0000
,
0000
0000
0000
0000
,
0000
0000
0000
0000
,
0000
0000
0000
0000
,
1000
0000
0000
0000
,
0100
0000
0000
0000
,
0010
0000
0000
0000
,
0001
0000
0000
0000
,
1001
0000
0000
0000
,
0100
0000
0000
0000
,
0010
0000
0000
0000
,
0100
0000
0000
0000
,
1001
0000
0000
0000
,
0010
0000
0000
0000
,
0100
0000
0000
0000
,
0010
0000
0000
0000
,
1001
0000
1000
0000
,
0010
0000
0100
0000
,
0001
0000
0010
0000
,
0200
0000
0000
0000
,
1300
0000
0001
0000
,
0010
0000
0100
0000
,
1000
0000
0010
0000
,
0200
0000
0000
0000
,
0301
0000
1000
0000
,
0100
0000
0010
0000
,
0001
0000
0100
0000
,
0020
0000
0000
0000
,
1030
0000
0001
0000
,
0100
0000
0010
0000
,
2002
0000
0000
0000
,
3003
0000
0000
0000
,
1000
0000
0000
0000
,
0100
0000
0000
0000
,
0010
0000
0001
0000
,
0100
0000
0000
0000
,
1001
0000
0000
0000
,
0010
0000
0000
0000
,
0100
0000
0001
0000
,
1000
0000
0000
0000
,
1001
0000
0000
0000
,
0001
0000
0000
0000
,
1000
0000
0000
0000
,
1000
0000
0000
0000
,
0001
0000
0010
0000
,
0200
0000
0000
0000
,
2300
0000
0000
0000
,
0000
0000
0000
0000
,
3000
0000
0000
0000
;

//--------------- dance-single - MEGAtive ----------------
#NOTES:
     dance-single:
     MEGAtive:
     Easy:
     5:
     0,0,0,0,0:
0000
0000
0000
0000
,
0000
0000
0000
0000
,
0000
0000
0000
0000
,
0000
0000
0000
0000
,
1000
0000
1000
0000
,
0001
0000
0001
0000
,
0100
0000
0100
0000
,
0010
0000
1000
0000
,
0001
0010
0001
0000
,
1000
0010
1000
0000
,
0001
0100
0010
1000
,
0100
0000
0010
0000
,
0100
1000
0001
0000
,
0100
0010
0100
0000
,
0001
1000
0100
0000
,
0010
0000
0001
0000
,
1000
0010
0100
0010
,
0200
0000
0301
0010
,
0100
1000
0001
1000
,
0002
0000
1000
0000
,
1003
0010
0100
0010
,
2000
0000
3001
0100
,
0001
1000
0100
0010
,
0002
0000
0003
0000
,
0001
0100
0010
0100
,
0020
0000
1030
0100
,
0010
0001
1000
0001
,
2000
0000
0001
0000
,
3001
0010
0100
0010
,
0200
0000
1300
0010
,
2002
0000
0000
0000
,
3003
0000
0001
0000
,
0001
0010
0100
0000
,
1000
0010
0100
0000
,
0001
1000
0100
0010
,
0001
0000
1000
1000
,
0001
0100
0010
0000
,
1000
0100
0010
0000
,
0001
1000
0010
0100
,
0001
0000
1000
1000
,
1001
0000
0000
0000
,
1001
0000
0000
0000
,
0110
0000
0000
0000
,
0110
0000
0000
0000
,
1001
0000
0001
0010
,
0200
0000
0010
0000
,
2300
0000
0001
0000
,
0001
0000
0100
0000
,
3000
0000
0000
0000
;

//--------------- dance-single - MEGAtive ----------------
#NOTES:
     dance-single:
     MEGAtive:
     Medium:
     10:
     0,0,0,0,0:
0000
0000
0000
0000
,
0000
0000
0000
0000
,
0000
0000
0000
0000
,
0000
0000
0000
0000
,
1000
0000
0000
1000
0001
0000
0000
0001
1000
0000
0000
1000
0000
0000
0010
0000
,
0010
0000
0000
0010
0100
0000
0000
0100
0010
0000
0000
0010
0000
0000
1000
0000
,
1000
0000
0000
1000
0001
0000
0000
0001
1000
0000
0000
1000
0000
0000
0100
0000
,
0100
0000
0000
0100
0010
0000
0100
0000
1000
0000
0000
0000
1100
0000
0000
0000
,
0100
0000
1000
0010
0100
0010
1000
0001
,
1000
0000
0001
0010
0100
0010
0001
1000
,
0001
0100
0010
0100
0020
0000
0230
0000
,
0302
0000
1003
0100
0010
0000
0011
0000
,
0010
0000
0001
0100
0010
0100
0001
1000
,
0001
0000
1000
0100
0010
0100
1000
0001
,
1000
0010
0100
0010
0200
0000
0320
0000
,
2030
3001
0011
1100
,
1000
0100
1000
0001
0200
0000
0320
0000
,
0130
0001
1000
0100
0020
0000
0230
0000
,
0310
0001
0010
0001
0200
0000
2300
0000
,
3200
0000
0000
0010
0310
0000
0100
0001
,
1000
0010
1000
0001
0020
0000
0230
0000
,
0310
0001
1000
0010
0200
0000
0320
0000
,
0130
0001
0100
0001
0020
0000
2030
0000
,
3020
0000
0030
0100
0100
0000
1001
0000
,
0001
0100
0001
1000
0200
0000
0320
0000
,
0130
1000
0001
0100
0020
0000
0230
0000
,
0310
1000
0010
1000
0200
0000
0302
0000
,
0203
0000
0000
0010
0310
0000
0100
1000
,
0001
0010
0001
1000
0020
0000
0230
0000
,
0310
1000
0001
0010
0200
0000
0320
0000
,
0130
0000
0100
0000
1000
0000
1000
0000
0001
0000
0001
0000
,
0101
0000
0000
0001
0001
0000
1000
0010
,
0100
0000
0001
0010
0100
0010
0001
1000
,
0001
0000
1000
0010
0100
0010
1000
0001
,
1000
0100
0010
0100
0020
0000
0230
0000
,
2300
0000
3001
0100
0010
0000
1010
0000
,
0010
0000
1000
0100
0010
0100
1000
0001
,
1000
0000
0001
0100
0010
0100
0001
1000
,
0001
0010
0100
0010
0200
0000
0320
0000
,
0032
0000
1003
0010
0100
0000
0101
0000
,
1100
0000
0000
1001
0000
1001
0000
0101
,
0101
0000
0000
1001
0000
1001
0000
0011
,
0011
0000
0000
1001
0000
1001
0000
1010
,
1010
0000
0000
1001
0000
1001
0000
1100
,
1100
0000
0100
1000
0020
0000
0032
0000
,
0023
0100
0100
0100
,
2030
0001
0001
0001
,
0100
0000
0100
0000
0100
0000
0100
0100
,
3000
0000
0000
0000
;

//--------------- dance-single - MEGAtive ----------------
#NOTES:
     dance-single:
     MEGAtive:
     Hard:
     14:
     0,0,0,0,0:
0000
0000
0000
0000
,
0000
0000
0000
0000
,
0000
0000
0000
0000
,
0000
0000
0000
0000
,
1000
0000
0000
1000
0001
0000
0000
0001
0100
0000
0000
0110
0000
0000
0010
0000
,
1000
0000
0000
1000
0100
0000
0000
0100
0010
0000
0000
0011
0000
0000
0001
0000
,
1000
0000
0000
1000
0010
0000
0000
0010
0100
0000
0000
0101
0000
0000
0001
0000
,
1000
0000
0000
1000
0001
0000
0010
0000
0020
0000
0000
0000
0230
0000
0000
0000
,
1300
0001
1000
0010
0001
0010
0100
0001
,
0001
1000
0001
0010
1000
0010
0100
1000
,
1000
0000
0001
0010
0001
0000
0100
0000
0200
0000
0000
0000
2300
0000
0100
0000
,
3100
0000
0010
0000
1000
0000
0001
0000
0002
0000
0000
0000
0103
0000
0010
0100
,
0001
1000
0001
0010
1000
0010
0100
1000
,
1000
0001
1000
0010
0001
0010
0100
0001
,
0001
0000
1000
0010
1000
0000
0100
0000
0200
0000
0000
0000
0302
0000
0100
0000
,
0103
0010
0001
0000
2200
3300
0022
0033
,
0001
0000
0100
0000
1000
0000
0100
0001
0020
0000
1000
0000
0230
0000
0010
0000
,
0310
0000
0100
0000
1000
0000
0001
0100
0020
0000
0001
0000
0230
0000
0010
0000
,
0320
0000
1000
0000
1000
0000
1030
0000
1010
0000
0000
0000
1001
0000
0001
0010
,
0100
0000
0110
0000
0000
0000
0010
0000
0020
0000
0000
0000
0130
1000
0100
1000
,
0001
0100
1000
0200
0010
0310
2000
0100
,
3100
0000
0001
0000
0100
0000
1000
0010
0200
0000
1000
0000
0310
0000
0010
0000
,
0200
0000
0001
0000
0001
0000
0301
0000
0101
0000
0000
0000
1001
0000
1000
0100
,
0010
0000
0100
0000
1000
0000
0001
0000
0001
0000
0000
0000
0100
0010
0100
0010
,
1000
0000
0100
0000
0001
0000
0100
1000
0020
0000
0001
0000
0230
0000
0010
0000
,
0310
0000
0100
0000
0001
0000
1000
0100
0020
0000
1000
0000
0230
0000
0010
0000
,
0320
0000
0001
0000
0001
0000
0031
0000
0011
0000
0000
0000
1001
0000
1000
0010
,
0100
0000
0010
0000
1000
0000
0100
0000
0200
0000
0000
0000
0310
0001
0010
0001
,
1000
0010
0001
0020
0100
0130
0002
0010
,
0013
0000
1000
0000
0010
0000
0001
0100
0020
0000
0001
0000
0130
0000
0001
0000
,
0101
0000
0000
0000
1010
0000
0000
0000
0101
0000
0000
0000
1100
0000
0000
0000
0011
0000
0000
0000
0010
0001
1000
0001
,
2000
0000
0000
0000
0000
0000
0010
0000
3020
0000
0000
0000
1030
0010
1000
0010
,
1000
0001
1000
0100
0001
0100
0010
0001
,
0001
1000
0001
0100
1000
0100
0010
1000
,
1000
0000
0001
0100
0001
0000
0010
0000
0020
0000
0000
0000
2030
0000
0010
0000
,
3010
0000
0100
0000
1000
0000
0001
0000
0002
0000
0000
0000
0013
0000
0100
0010
,
0001
1000
0001
0100
1000
0100
0010
1000
,
1000
0001
1000
0100
0001
0100
0010
0001
,
0001
0000
1000
0100
1000
0000
0010
0000
0020
0000
0000
0000
0032
0000
0010
0000
,
0013
0100
0001
0000
0202
0303
2200
3300
,
1000
0100
0000
0100
1000
0100
1000
0000
0001
0010
0001
0010
0001
0000
1000
0010
,
0100
0010
0000
0010
0100
0010
0100
0000
0001
0100
0001
0100
0001
0000
0010
0100
,
1000
0100
0000
0100
1000
0100
1000
0000
0001
0010
0001
0010
0001
0000
1000
0010
,
0100
0010
0000
0010
0100
0010
0100
0000
0010
1000
0010
1000
0010
0000
0100
0001
,
1000
0000
0100
0010
0100
0000
1000
0000
2000
0000
0010
0000
3020
0000
0100
0000
,
0230
0000
0000
0000
1000
0000
0000
0000
0001
0000
0000
0000
1300
0000
0100
0001
,
0020
0000
1000
0000
0001
0000
1000
0100
,
0001
0000
1000
0000
0001
0000
1000
1000
,
0030
0000
0000
0000
;
