#TITLE:HEALEN;
#SUBTITLE:;
#ARTIST:positive MA;
#TITLETRANSLIT:;
#SUBTITLETRANSLIT:;
#ARTISTTRANSLIT:;
#GENRE:;
#CREDIT:;
#MUSIC:36 - (2 Step) positive MA - HEALEN (Long Version).mp3;
#BANNER:;
#BACKGROUND:;
#CDTITLE:;
#SAMPLESTART:0.000;
#SAMPLELENGTH:0.000;
#SELECTABLE:YES;
#OFFSET:-0.592;
#BPMS:0.000=133.000;
#STOPS:;
#BGCHANGES:;
#FGCHANGES:;

//--------------- dance-single - about-blank ----------------
#NOTES:
     dance-single:
     about-blank:
     Beginner:
     6:
     0,0,0,0,0:
0000
0000
0000
0000
,
0000
0000
0000
0000
,
0000
0000
0000
0000
,
0000
0000
0000
0000
,
0000
0000
0000
0000
,
1000
0000
0000
0000
,
0001
0000
0000
0000
,
0010
0000
0000
0000
,
0100
0000
0000
0000
,
1000
0001
0000
0001
,
0000
0001
0000
0001
,
0010
0100
0000
0100
,
1000
0001
0000
0100
,
0010
0010
0000
0010
,
1000
0100
0000
0100
,
1000
0001
0000
0001
,
1000
0010
0000
0010
,
0100
0001
0000
1000
,
0000
0100
0000
0010
,
0000
0001
0000
1000
,
0010
1000
0001
0000
,
0010
0100
1000
0000
,
0001
0010
0100
0000
,
1000
0010
0100
0000
,
0010
0100
0001
0000
,
1000
0001
0100
0000
,
0001
1000
0010
0000
,
1000
0001
0010
0000
,
0010
0100
1000
0000
,
1001
0000
0000
0000
,
0110
0000
0000
0000
,
1001
0000
0000
0000
,
0110
0000
0000
0000
,
1001
0000
0000
0000
,
0110
0000
0000
0000
,
1001
0000
0000
0000
,
0110
0000
0000
0000
,
1000
0100
0000
0100
,
0001
0100
0000
1000
,
0001
0100
0000
0100
,
1000
0100
0000
0001
,
1000
0010
0000
0010
,
1000
0100
0000
0100
,
0010
0001
0000
0001
,
0010
0100
1000
0000
,
1001
0000
0000
0100
,
1001
0000
0000
0010
,
1001
0000
0000
0100
,
1001
0000
0000
0010
,
0001
1000
0000
1000
,
0000
0100
0000
0100
,
0010
0001
0100
0000
,
1000
0100
0001
0000
,
1001
0000
0000
0000
,
1000
0000
0000
0000
,
0110
0000
0000
0000
,
0001
0000
0000
0000
,
1001
0000
0000
0000
,
0100
0000
0000
0000
,
0110
0000
0000
0000
,
0010
0000
0000
1000
;

//--------------- dance-single - about-blank ----------------
#NOTES:
     dance-single:
     about-blank:
     Easy:
     10:
     0,0,0,0,0:
0000
0000
0000
0000
,
0000
0000
0000
0000
,
0000
0000
0000
0000
,
0000
0000
0000
0000
,
0000
0000
0000
0000
,
1000
0010
1000
1000
,
0001
0100
0001
0001
,
1000
0100
0010
0001
,
0100
0010
1000
0001
,
0010
1000
0000
1000
,
0010
0001
0000
0001
,
0100
0000
0010
0000
0000
1000
0000
0001
,
0010
0000
0010
0000
0100
1000
0001
0000
,
1000
0000
0000
1000
0000
0100
0010
0100
,
1000
0000
0000
1000
0000
1000
0010
0100
,
0001
0000
0000
0001
0000
0001
0010
0100
,
0010
0000
0000
0010
0000
0001
0010
0100
,
1000
0010
0100
0001
0000
1000
0000
0010
,
0000
0100
0000
0001
0000
0010
0000
0001
,
0000
1000
0000
0001
0000
0010
0000
0100
,
1000
0000
0100
0010
0000
0001
1000
0001
,
0100
0000
0100
0000
0010
1000
0010
0000
,
0100
0000
0001
0000
0010
1000
0010
0000
,
0001
0000
0010
0000
0100
1000
0100
0000
,
0010
0000
0001
0000
1000
0001
1000
0000
,
0100
0000
0100
0000
0010
0001
0100
0000
,
1000
0000
0100
0000
0010
1000
0100
1000
,
0001
0000
0100
0000
0010
1000
0001
0000
,
1000
0000
0100
0000
0010
0001
1000
0000
,
0010
0000
0110
0000
0000
0110
0000
0000
,
0001
0000
1001
0000
0000
1001
0000
0000
,
0001
0000
0011
0000
0000
0011
0000
0000
,
1000
0000
1100
0000
0000
1100
0000
0000
,
1000
0100
0010
0000
0100
0010
0000
0001
,
1000
0010
0100
0000
0010
0100
0000
0001
,
0010
0100
0010
0000
0100
0010
0000
0010
,
0001
1000
0100
0000
0000
1000
0010
0100
,
0001
0000
0011
0000
0000
0001
0000
1000
,
0100
0000
0000
0000
0000
1000
0010
0100
,
0001
0000
1010
0000
0000
1000
0000
0010
,
0100
0000
0000
0000
0000
0001
0010
0001
,
1000
0000
0001
0100
0000
0010
0000
1000
,
0001
0000
1001
0000
0000
1000
0000
0001
,
1000
0100
0010
0100
1000
0100
0000
0010
,
0001
0000
1000
0010
0000
0100
0001
0100
,
0010
0000
1010
0001
0000
1000
0001
1000
,
0100
0000
1010
0001
0000
1000
0100
0010
,
0001
0000
0011
1000
0000
0001
0100
0001
,
1000
0000
0011
1000
0000
0001
0100
0010
,
1000
0000
0000
0001
0000
1000
0000
0000
,
0010
0100
0010
1000
0000
0001
0000
0000
,
0010
0000
0100
1000
0100
0010
0000
0001
,
0101
0000
1000
1100
0000
1000
0001
0100
,
0010
0000
0000
1000
0000
0000
0001
0000
,
0010
0000
0000
0100
0000
0000
1000
0000
,
0010
0000
0000
0100
0000
0000
0001
0000
,
1000
0000
0000
0100
0000
0000
0010
0100
,
0010
0000
0000
0010
0000
0000
0001
0000
,
1000
0000
0000
1000
0000
0000
0010
0000
,
0100
0000
0000
0100
0000
0000
0001
0000
,
0010
0000
0000
0001
0000
0010
0100
1000
;

//--------------- dance-single - about-blank ----------------
#NOTES:
     dance-single:
     about-blank:
     Medium:
     12:
     0,0,0,0,0:
0000
0000
0000
0000
,
0000
0000
0000
0000
,
0000
0000
0000
0000
,
0000
0000
0000
0000
,
0000
0000
0000
0000
,
1000
1000
0100
0000
,
0001
0001
0100
0000
,
0010
0001
0100
0000
,
0010
1000
0001
0000
,
0010
1001
0000
0001
,
0000
0001
0000
1000
,
0010
0000
0000
0000
0100
0000
0000
0001
0000
0000
1000
0000
0000
0000
0100
0000
,
0100
0000
0000
0010
0000
0000
0000
0001
0000
0001
0000
0000
1000
0000
0010
0000
,
0100
0000
0000
0001
0000
1000
0100
0010
,
0001
0000
0000
0100
0000
0001
0010
0001
,
0100
0000
0000
0010
0000
1000
0010
0100
,
0001
0000
0000
1000
0000
0001
0010
0100
,
1000
0010
0100
0001
0000
1000
0100
1000
,
0000
1000
0010
1000
0000
0001
0100
0001
,
0000
0001
0010
0001
0000
0010
0100
1000
,
0010
0010
0100
0001
0001
1000
0100
0010
,
0001
0100
0001
0010
0001
0100
0001
0000
,
1000
0010
1000
0001
1000
0100
0010
0010
,
0001
1000
0010
0100
0001
1000
0010
0000
,
1000
0001
0010
0100
1000
0001
0010
0010
,
0100
0010
0001
1000
0100
1000
0001
0000
,
0010
0001
1000
0010
1000
0001
0100
0100
,
0010
1000
0100
0010
0001
0100
0010
0000
,
0001
0010
1000
0100
0010
0001
0100
0100
,
0001
0000
0011
1000
0000
0001
1000
0001
,
0100
0000
1010
0001
0000
1000
0001
0001
,
0100
0000
0110
1000
0000
0110
1000
1000
,
0100
0000
0110
0001
0000
0110
0001
0001
,
0100
0010
1000
0100
0000
0100
0010
0001
,
1000
0001
0100
0010
0000
0010
0001
0010
,
1000
0100
0010
0001
0000
0001
1000
0001
,
0100
0000
0000
0001
0000
0000
1000
0000
0000
0000
0100
0010
0001
0000
1000
0000
,
0110
0000
0011
1000
0000
0001
0100
0010
,
1000
0000
0000
0001
0000
0000
1000
0000
0000
0000
0100
0000
0010
0000
0001
0000
,
1000
0000
1010
0001
0000
1010
0001
0100
,
0010
0000
0000
1000
0000
0000
0010
0000
0000
0000
1000
0000
0100
0000
0010
0000
,
0001
0010
0100
0010
0000
0010
0001
1000
,
0001
0000
0000
0100
0000
0000
0001
0000
0000
0000
0001
0000
0010
0000
0001
0000
,
0100
0010
0001
0010
1000
0100
0000
0100
,
0010
0000
0000
0000
0001
0000
1000
0000
0000
0000
0010
0000
0100
0010
0100
0000
,
0001
1000
1100
0001
0000
1100
0001
1000
,
0100
0000
0000
0010
0000
0000
0001
0000
0000
0000
1000
0000
0100
0000
0010
0000
,
0001
1000
0101
1000
0000
0101
1000
0001
,
0010
0000
0000
0100
0000
0000
1000
0000
0000
0000
0010
0000
0010
0000
0100
0000
,
0001
1000
0100
0010
0000
0100
1000
0010
,
0100
0100
0001
0010
0000
0010
0001
1000
,
0001
0000
0100
0000
0010
0100
0010
0000
1000
0000
0100
0000
0000
0000
1000
0000
,
1100
0000
0000
0000
0001
0000
0011
0000
0000
0000
0001
0000
0100
0010
0100
0001
,
1000
0000
0000
1000
0000
0100
0010
0001
,
0100
0000
0000
0100
0000
0001
0010
0001
,
0010
0000
0000
0010
0000
0001
1000
0100
,
0010
0000
0000
0000
0000
0000
0010
0000
0000
0000
0001
0010
0100
0000
1000
0000
,
0010
0000
0000
0000
0000
0000
0001
0000
0000
0000
0010
0000
1000
0100
0010
0000
,
0001
0000
0000
0000
0000
0000
0010
0000
0000
0000
0100
0000
1000
0010
0100
0000
,
0001
0000
0000
0000
0000
0000
1000
0000
0000
0000
0001
0000
0100
0010
1000
0000
,
1100
0000
0000
0000
0000
0000
0011
0000
0000
0000
1000
0000
0100
0010
0001
1000
;

//--------------- dance-single - about-blank ----------------
#NOTES:
     dance-single:
     about-blank:
     Hard:
     13:
     0,0,0,0,0:
0000
0000
0000
0000
,
0000
0000
0000
0000
,
0000
0000
0000
0000
,
0000
0000
0000
0000
,
0000
0000
0000
0000
,
1000
0001
0000
0100
0000
0010
0000
1000
0000
0000
1000
0000
0000
0001
0000
0000
,
0010
0000
0000
0100
0000
0000
0100
0000
0000
1000
0000
0000
0010
0000
0000
0100
,
0000
0000
0001
1000
0001
0010
0100
1000
,
0001
1000
0010
0100
0001
1000
0100
0010
,
0001
0000
1001
0000
0000
0010
0000
0100
,
0001
0000
0000
0000
0000
0000
0000
0000
0000
0000
1000
0001
1000
0000
0010
0000
,
0100
0000
0000
0000
0001
0000
0000
0110
0000
0000
1000
0000
0000
0000
0001
0000
,
0010
0000
0100
0010
0000
0000
0000
0001
0000
0001
0000
1000
0010
0000
0100
0000
,
0021
0000
0000
0000
0000
0130
0001
0000
0000
0000
0100
0000
0010
0001
0100
0000
,
1010
0000
0000
0100
0000
0000
0002
0000
0000
0003
0100
0010
0100
0000
0010
0000
,
1200
0000
0000
0000
0000
0310
1000
0000
0000
0000
0010
0000
0100
1000
0010
0000
,
0101
0000
0000
1000
0000
0000
0020
0000
0000
0000
0130
0001
0100
0000
0010
1000
,
0100
0010
0001
1000
0000
1000
0001
0100
,
0000
0100
0001
0010
0000
0010
0001
1000
,
0000
0010
1000
0001
0000
0001
1000
0010
,
0100
0010
0100
0000
0001
0000
0010
0100
0010
0000
1000
0000
0001
0100
0010
0000
,
0001
1000
0010
0100
0001
0100
0010
1000
,
0001
0000
0010
0000
1000
0000
0010
0000
0001
0000
1000
0000
0010
0100
0010
0000
,
1000
0001
0010
0100
0001
1000
0010
0001
,
1000
0000
0010
0000
0100
0000
0001
0000
0010
0000
0001
0000
0100
0010
0100
0000
,
0001
0010
1000
0001
0100
0010
0001
1000
,
0010
0000
1000
0000
0001
0000
0100
0000
0001
0000
1000
0000
0010
0100
0010
0000
,
0001
1000
0100
0010
1000
0100
1000
0001
,
1000
0000
0010
0000
0100
0000
0001
0000
1000
0000
0001
0000
0100
0010
0100
0010
,
0100
0000
0000
0000
0011
0000
0100
0000
0000
0000
0011
0000
0001
1000
0001
0000
,
0100
0000
1010
0000
0000
0000
0100
0000
0000
0000
1010
0000
1000
0001
1000
0000
,
0010
0000
0000
0000
0101
0000
0010
0000
0000
0000
0101
0000
0001
1000
0001
0000
,
0010
0000
0000
0000
1100
0000
0010
0000
0000
0000
1100
0000
1000
0100
0010
0001
,
0100
0000
0000
0000
1001
0000
0010
0000
0000
0000
1001
0000
0010
0100
0010
0000
,
0100
0000
1001
0000
0000
0000
0100
0000
0000
0000
1001
0000
0100
0010
0100
0000
,
0010
0000
0000
0000
0110
0000
1000
0000
0000
0000
0110
0000
1000
0001
1000
0000
,
0100
0000
0000
0000
0110
0000
0001
0000
0000
0000
0010
0100
1000
0000
0010
0000
,
0201
0000
0000
0000
0000
0000
0310
0001
0000
0000
1000
0000
0100
0000
0010
0000
,
2000
0000
0000
0100
0000
0000
3001
0000
0000
0000
1000
0001
1000
0000
0010
0000
,
1200
0000
0000
0000
0000
0310
1000
0000
0000
0000
0001
0000
0100
0010
0100
0000
,
2000
0000
0000
0010
0000
0000
3001
0000
0000
0000
1000
0001
0010
0000
0100
0000
,
0010
0001
0100
0010
0000
1000
0010
1000
,
0100
0100
0010
0001
0000
1000
0001
0100
,
0010
0000
0100
0000
0001
0010
0100
0000
1000
0000
0001
0000
0000
0000
1000
0000
,
0010
0000
1000
0000
0001
0000
0100
0000
0000
0000
0001
0000
1000
0010
0000
0100
,
0001
0000
1000
0000
1200
0000
0001
0000
0000
0000
1000
0000
0301
0000
0100
0010
,
0100
0000
1000
0000
0020
0000
0001
0000
0000
0000
0130
0001
0100
0000
0010
0000
,
1000
0000
0001
0000
1020
0000
0001
0000
0000
0000
1000
0000
0031
0000
0010
0100
,
0010
0000
1000
0000
0200
0000
0001
0000
0000
0000
1300
0001
0100
0000
0100
0010
,
1000
0000
0001
0000
0021
0000
1000
0000
0000
0000
0001
0000
1030
0000
0010
0100
,
0010
0000
0001
0000
0200
0000
1000
0000
0000
0000
0301
0000
1000
0010
0100
0000
,
0001
0000
1000
0000
0010
0100
0010
0000
1000
0000
0001
0000
0000
0000
1100
0000
,
0011
0000
0000
0000
1010
0000
0101
0000
0000
0000
1000
0001
1000
0000
0010
0000
,
2000
0000
0000
0000
0000
0000
3001
0000
0000
0000
1000
0000
0100
0010
0001
0000
,
0200
0000
0000
0000
0000
0000
0310
0000
0000
0000
1000
0010
1000
0000
0001
0000
,
0020
0000
0000
0000
0000
0000
0130
0000
0000
0000
1000
0000
0001
0100
0010
0000
,
2000
0000
0000
0000
0000
0000
3001
0000
0000
0000
1000
0100
0010
0000
0010
0000
,
0002
0000
0000
0000
0000
0000
1003
0000
0000
0000
0001
0000
0100
0010
0100
0000
,
0002
0000
0000
0000
0000
0000
1003
0000
0000
0000
0001
0010
0100
0000
1000
0000
,
0020
0000
0000
0000
0000
0000
0130
0000
0000
0000
0001
0000
1000
0010
0100
0000
,
0002
0000
0000
0000
0000
0000
2003
0000
0000
0000
3010
0000
0100
0010
0100
0010
;
