#TITLE:Guardian Angel (UFO Remix);
#SUBTITLE:;
#ARTIST:Scania feat. Malaya;
#TITLETRANSLIT:;
#SUBTITLETRANSLIT:;
#ARTISTTRANSLIT:;
#GENRE:;
#CREDIT:;
#MUSIC:04. Guardian Angel (UFO Remix).mp3;
#BANNER:;
#BACKGROUND:;
#CDTITLE:;
#SAMPLESTART:67.656;
#SAMPLELENGTH:16.552;
#SELECTABLE:YES;
#OFFSET:-1.449;
#BPMS:0.000=87.000;
#STOPS:;
#BGCHANGES:;
#FGCHANGES:;

//--------------- dance-single - aboutblank ----------------
#NOTES:
     dance-single:
     aboutblank:
     Beginner:
     3:
     0,0,0,0,0:
0000
0000
0000
0000
,
0000
0000
0000
0000
,
0000
0000
0000
0000
,
0000
0000
0000
0000
,
0000
0000
0000
0000
,
0000
0000
0000
0000
,
0000
0000
0000
0000
,
0000
0000
0000
0000
,
1000
0000
0100
0000
,
0001
0000
0000
0000
,
0001
0000
0010
0000
,
1000
0000
0000
0000
,
1000
0000
0001
0000
,
0100
0000
0000
0000
,
0010
0000
1000
0000
,
0001
0000
0100
0000
,
0010
0010
0010
0000
,
1000
1000
1000
0000
,
0001
0001
0001
0000
,
0100
0100
0100
0000
,
0001
0001
0001
0000
,
1000
1000
1000
0000
,
0100
0100
0100
0000
,
0010
0010
0010
0000
,
1001
1000
0001
0100
,
0010
0000
1000
0100
,
0010
0000
0001
0010
,
0100
1000
0010
0001
,
1000
0000
0010
0100
,
0001
0000
0010
0001
,
0100
0000
1000
0100
,
0001
0010
1000
0100
,
0001
0001
0001
0000
,
1000
1000
1000
0000
,
0001
0001
0001
0000
,
1000
1000
1000
0001
,
0100
0100
0100
0000
,
0010
0010
0010
0000
,
0100
0100
0100
0000
,
0010
0010
0010
0000
,
1001
0000
0000
0000
;

//--------------- dance-single - aboutblank ----------------
#NOTES:
     dance-single:
     aboutblank:
     Easy:
     6:
     0,0,0,0,0:
0000
0000
0000
0000
,
0000
0000
0000
0000
,
0000
0000
0000
0000
,
0000
0000
0000
0000
,
0000
0000
1000
0000
0000
1000
0000
0000
0010
0000
0000
0010
0000
0000
0100
0000
,
0001
0000
0000
0000
,
0000
0000
0001
0000
0000
0001
0000
0000
0010
0000
0000
0010
0000
0000
0100
0000
,
1000
0000
0002
0000
,
1003
0010
0001
0000
,
1000
0100
0001
0010
,
0100
1000
0001
0000
,
0100
0001
1000
0000
,
0010
1000
0001
0100
,
0001
0010
0100
1000
,
0001
0100
0001
1000
,
0010
0000
0110
0000
,
1000
0000
0001
0000
0100
0010
0100
0000
,
0001
0000
0010
0000
0100
1000
0100
0010
,
0001
0000
1000
0000
0001
0100
0001
0000
,
1000
0000
0001
0000
0100
0010
0100
0010
,
1000
0000
0001
0000
0010
0100
0010
0000
,
0001
0000
1000
0000
0100
1000
0100
0010
,
0001
0000
1000
0000
0001
0100
0001
1000
,
0010
0100
0001
1000
,
0100
0000
0100
0010
0000
0011
0000
1100
,
0000
0000
0000
0001
1000
0000
0010
0100
,
0001
0000
0000
0000
0000
0000
0010
0000
0001
0000
0000
1000
0000
0000
0001
0000
,
0100
1000
0000
0001
0010
1000
0001
0000
,
1000
0000
1000
0100
0010
0000
0001
0000
,
1001
0000
0000
0001
0100
0000
0100
0010
,
1000
0000
0000
0001
0010
0000
0010
0100
,
1000
0100
0001
0000
1000
0010
0001
0000
,
1000
0000
0100
0000
0001
0000
0010
0010
,
1000
0000
0100
0000
0001
0000
0010
0010
,
0001
0000
0100
0000
1000
0000
0010
0010
,
0001
0000
0100
0000
1000
0000
0010
0010
,
0001
0000
1000
0000
0100
0000
0100
0100
,
0010
0000
0001
0000
1000
0000
0010
0010
,
0100
0000
1000
0000
0100
0000
0001
0001
,
0010
0000
0100
0000
1000
0000
0010
0100
,
0110
0000
0000
0000
;

//--------------- dance-single - aboutblank ----------------
#NOTES:
     dance-single:
     aboutblank:
     Medium:
     9:
     0,0,0,0,0:
0000
0000
0000
0000
,
0000
0000
0000
0000
,
0000
0000
0000
0000
,
0000
0000
0000
0000
,
0000
0000
0001
0000
0000
0010
0000
0000
0100
0000
0000
1000
0000
0000
0010
0000
,
0100
0000
0000
0000
,
0000
0000
0001
0000
0000
1000
0000
0000
0100
0000
0000
0010
0000
0000
0001
0000
,
1000
0000
0020
0000
,
0130
0000
0000
0000
0100
0000
0001
0000
1000
0000
0000
1000
0000
0000
1000
0000
,
0000
0000
0000
0000
0010
0000
1000
0000
0100
0000
0000
0100
0000
0000
0100
0000
,
0000
0000
0000
0000
0010
0000
0001
0000
0100
0000
0000
1000
0000
0000
0100
0000
,
0000
0011
1100
0000
,
0000
0000
0000
0000
0001
0000
1000
0000
0001
0000
0000
0100
0000
0000
0010
0000
,
0000
0000
0000
0000
1000
0000
0010
0000
0100
0000
0000
1000
0000
0000
0100
0000
,
0000
0000
0000
0000
0001
0000
0010
0000
0100
0000
0000
0010
0000
0000
0001
0000
,
1000
0000
0000
0000
0110
0000
0000
0000
1001
0000
0000
0000
0000
0001
0000
0000
,
1000
0000
0000
1000
0010
0000
0000
0010
0100
0000
0000
0100
0001
0000
0000
0001
,
0010
0000
0000
0010
0001
0000
0000
0001
1000
0000
0010
0000
0001
0000
0010
0000
,
1000
0000
0000
1000
0100
0000
0000
0100
0010
0000
0000
0010
0001
0000
0000
0001
,
1000
0000
0000
1000
0001
0000
0000
0001
0100
0000
0100
0000
0010
0000
0010
0000
,
1000
0000
0000
1000
0010
0000
0000
0010
0100
0000
0000
0100
1000
0000
0000
1000
,
0001
0000
0000
0001
0010
0000
0000
0010
1000
0000
0100
0000
0010
0000
0001
0000
,
1000
0000
0000
1000
0001
0000
0000
0001
0100
0000
0001
0000
1000
0000
0010
0000
,
0100
0000
0000
0100
0001
0000
0000
0001
0010
0000
0000
0010
0100
0000
0000
0100
,
2000
0000
0000
0000
3001
0000
0001
0000
0010
0000
0000
0010
0100
0000
1000
0000
,
0010
0000
0000
0000
0100
0000
0001
0000
1000
0000
0000
1000
0100
0000
0010
0000
,
0001
0000
0000
0000
0100
0000
0001
0000
0010
0000
0000
0010
0100
0000
1000
0000
,
0100
0001
0100
1000
0010
0001
0010
1000
,
0001
0000
0000
0001
0010
0000
0010
0000
0100
0000
0000
0100
1000
0000
0001
0000
,
1000
0000
0000
0000
0010
0000
0100
0000
1000
0000
0000
1000
0100
0000
0010
0000
,
1000
0000
0000
0000
0001
0000
0010
0000
0100
0000
0000
0100
0001
0000
0100
0000
,
0010
0001
0010
1000
0001
0100
1000
0010
,
0001
0000
0000
0001
0010
0000
0000
0010
1000
0000
0000
1000
0100
0000
0000
0100
,
0001
0000
0000
0001
0100
0000
0000
0100
1000
0000
0000
1000
0010
0000
0000
0010
,
0001
0000
0000
0001
0010
0000
0000
0010
1000
0000
0000
1000
0100
0000
0000
0100
,
0010
0000
0000
0010
1000
0000
0000
1000
0010
0000
0000
0010
0001
0000
0000
0001
,
1000
0000
0000
1000
0001
0000
0000
0001
0100
0000
0000
0100
0010
0000
0000
0010
,
1000
0000
0000
1000
0010
0000
0000
0010
0100
0000
0000
0100
1000
0000
0000
1000
,
0001
0000
0000
0001
0010
0000
0000
0010
0100
0000
0000
0100
0001
0000
0000
0001
,
1000
0000
0000
1000
0100
0000
0000
0100
0010
0000
0000
0010
0001
0000
0000
0001
,
2000
0000
0000
0000
,
0000
0000
0000
0000
,
3000
0000
0000
0000
;

//--------------- dance-single - aboutblank ----------------
#NOTES:
     dance-single:
     aboutblank:
     Hard:
     11:
     0,0,0,0,0:
0000
0000
0000
0000
,
0000
0000
0000
0000
,
0000
0000
0000
0000
,
0000
0000
0000
0000
,
0000
0000
2000
0000
0000
3020
0000
0000
0230
0000
0000
0302
0000
0000
2003
0000
,
0200
0000
0000
3300
,
0000
0000
0002
0000
0000
0023
0000
0000
0230
0000
0000
2300
0000
0000
3002
0000
,
0200
0000
0000
0003
0320
0000
0000
0000
,
2030
0000
0000
0000
0001
0000
0000
0000
3020
0000
0000
0100
0000
0000
0100
0000
,
0032
0000
0000
0000
0000
0000
0000
0000
0010
0000
0000
0010
0000
0000
0010
0000
,
2003
0000
0000
0000
0010
0000
0000
0000
3200
0000
0000
1000
0000
0000
1000
0000
,
0320
0001
0230
0000
,
2300
0000
0000
0000
0000
0000
0000
0000
3020
0000
0000
0100
0000
0000
0100
0000
,
2030
0000
0000
0000
0010
0000
0010
0000
3002
0000
0000
0100
0000
0000
0103
0000
,
2000
0000
0000
0000
0001
0000
0000
0000
3002
0000
0000
0100
0000
0000
0010
0000
,
2003
3020
0230
0302
,
2003
0000
3000
0100
0010
0000
0000
0011
0000
1000
0001
0000
0100
0000
0100
0000
,
0020
0000
0030
1000
0001
0000
0000
0101
0000
0010
1000
0000
0001
0000
1000
0000
,
0110
0000
0000
0001
0100
0000
0000
1010
0000
0001
1000
0000
0100
0000
0010
0000
,
0110
0000
0000
1000
0001
0000
0000
0011
0000
0001
0100
0000
0010
0000
1000
0001
,
1001
0000
0000
1000
0100
0000
0000
0110
0000
0010
0001
0000
1000
0000
1010
0000
,
0101
0000
0000
0001
0010
0000
0000
0110
0000
1000
0100
0000
0010
0000
0001
0100
,
0010
0000
0000
0100
0001
0000
0000
0101
0000
1000
0100
0000
0110
0000
0001
1000
,
0001
0000
0000
0001
0100
0000
0010
1000
0000
0001
0010
0100
1000
0000
0001
0000
,
0200
0000
0310
0000
1000
0010
1000
0000
0001
0000
1000
0100
0010
0000
0001
0000
,
1001
0000
0000
0000
0110
0000
0001
0000
1000
0000
0010
1000
0100
0000
0010
0000
,
0101
0000
0000
0000
1100
0000
0001
0000
0100
0000
0010
1000
0001
0000
0010
0000
,
0210
0000
1000
0000
0000
0000
0301
0100
1000
0000
0001
0000
0110
0000
1000
0001
,
2000
0000
3100
0000
0010
0001
0010
0000
0100
0000
1000
0100
0010
0000
0100
0000
,
1001
0000
0000
0000
0101
0000
1000
0000
0010
0000
0100
1000
0100
0000
0001
0000
,
0011
0000
1000
0000
0100
0010
0001
0000
1000
0000
0001
0010
0001
0000
0100
0000
,
1020
0000
0001
0000
0000
0000
1030
0100
0010
0000
0001
1000
0010
0000
0110
0000
,
1002
0000
0000
0000
0103
0000
1000
0001
0100
0001
0100
0000
0101
0000
0010
0000
,
2001
0000
0000
0000
3100
0000
0001
1000
0100
1000
0100
0000
1100
0000
0100
0000
,
0120
0000
0000
0000
0031
0000
1000
0100
0010
0100
0010
0000
0011
0000
0010
0001
,
2000
0000
0000
0000
3010
0000
0100
0001
0010
0001
0010
0000
1100
0000
1000
0100
,
0120
0000
0000
0000
0031
0000
1000
0001
0010
0100
0010
0000
0001
0000
0100
0010
,
1020
0000
0000
0000
0130
0000
0001
1000
0010
0100
0010
0000
1000
0000
0100
0010
,
1002
0000
0000
0000
0103
0000
0001
1000
0010
0100
0001
0000
1100
0000
0001
1000
,
1020
0000
0000
0000
0130
0000
0001
1000
0100
0001
0100
0000
0010
0001
0100
0010
,
2000
0000
0000
0000
,
3000
0000
0000
0000
;
