#TITLE:Get Ur Freak On;
#SUBTITLE:;
#ARTIST:Missy Elliott;
#TITLETRANSLIT:;
#SUBTITLETRANSLIT:;
#ARTISTTRANSLIT:;
#GENRE:;
#CREDIT:;
#MUSIC:Get Ur Freak On.ogg;
#BANNER:;
#BACKGROUND:;
#CDTITLE:;
#SAMPLESTART:37.867;
#SAMPLELENGTH:10.795;
#SELECTABLE:YES;
#OFFSET:-0.084;
#BPMS:0.000=177.860
,92.000=88.930
,96.000=177.860
,168.000=88.930
,172.000=177.860
,180.000=88.930
,184.000=177.860
,192.000=88.930
,196.000=177.860
;
#STOPS:59.000=1.349;
#BGCHANGES:-0.168=Get Ur Freak On.avi=1.000=1=0=0,
99999=-nosongbg-=1.000=0=0=0 // don't automatically add -songbackground-
;
#FGCHANGES:;

//--------------- dance-single - eataninja ----------------
#NOTES:
     dance-single:
     eataninja:
     Beginner:
     3:
     0,0,0,0,0:
0000
0000
0000
0000
,
0000
0000
0000
0000
,
0000
0000
0000
0000
,
0000
0000
0000
0000
,
0100
0000
0000
0000
,
0100
0000
0000
0000
,
0010
0000
0000
0000
,
0010
0000
0000
0000
,
0100
0000
0000
0000
,
0100
0000
0000
0000
,
0001
0000
0000
0000
,
1000
0000
1000
0000
,
0001
0000
1001
0000
,
0100
0000
0000
0000
,
0100
0000
0010
0000
,
0000
1000
1000
0000
,
0000
0001
0001
0000
,
0000
1000
0000
2002
,
0000
3003
0000
0000
,
1000
0000
0010
0000
,
0100
0000
0100
0000
,
0001
0000
0010
0000
,
0100
0000
0100
0000
,
0000
0000
0000
0000
,
1000
0000
0010
0000
,
1000
0000
0001
0000
,
0000
0100
0100
0000
,
0000
0100
0100
0000
,
0000
0100
0100
0000
,
0000
0100
0100
0000
,
0000
0001
0001
0000
,
0000
0001
0001
0000
,
0000
0001
0000
0001
,
0000
0001
0001
0000
,
0000
1000
1000
0000
,
0000
1000
1000
0000
,
0000
1000
1000
0000
,
0000
1000
1000
0000
,
0000
0100
0100
0000
,
0000
0100
0100
0000
,
0000
0100
0000
0100
,
0000
0100
0100
0000
,
1001
0000
0000
0000
,
0001
0000
1000
0000
,
0001
0000
0000
0000
,
0100
0000
0000
0000
,
0110
0000
0000
0000
,
1001
0000
0000
0000
,
2000
0000
3000
0000
,
1000
0000
0001
0000
,
0010
0000
0000
0000
,
0110
0000
0100
0000
,
1000
0000
0000
0000
,
1001
0000
0001
0000
,
0100
0000
0000
0000
,
0010
0010
0010
0000
,
0100
0000
0000
0000
,
0001
0001
0001
0000
,
1000
0000
0000
0000
,
0100
0100
0100
0000
,
0010
0000
0000
0000
,
0001
0001
0001
0000
,
1000
0000
0000
0000
,
0000
0010
0010
0000
,
0000
0010
0010
0000
,
0000
0010
0010
0000
,
0000
0010
0010
0000
,
0000
0100
0100
0000
,
0000
0100
0100
0000
,
0000
0100
0000
0100
,
0000
0100
0100
0000
,
0000
0001
0001
0000
,
0000
0001
0001
0000
,
0000
0001
0001
0000
,
0000
0001
0001
0000
,
0000
1000
1000
0000
,
0000
1000
1000
0000
,
0000
1000
0000
1000
,
0000
1000
1000
0000
,
1001
0000
0000
0000
;

//--------------- dance-single - eataninja ----------------
#NOTES:
     dance-single:
     eataninja:
     Easy:
     6:
     0,0,0,0,0:
0000
0000
0000
0000
,
0000
0000
0000
0000
,
0000
0000
0000
0000
,
0000
0000
0000
0000
,
0001
0001
0001
0000
,
0001
0100
0010
0000
,
1000
1000
1000
0000
,
1000
0010
0100
0000
,
0001
0001
0001
0000
,
0001
1000
0100
0000
,
0010
0010
0010
0000
,
0001
1000
0001
0001
,
0000
1000
0010
0010
,
0000
0010
0100
0001
,
0000
1000
0001
0101
,
0000
0100
0010
0100
,
0000
0001
1000
1000
,
0000
0001
0010
0200
,
0000
0300
0000
0000
,
1001
0000
1000
0010
,
1001
0000
0001
0010
,
1001
0000
0010
0100
,
1000
1000
0001
0100
,
0000
0020
0000
0000
0000
0030
0000
0000
,
1000
0001
1000
1000
,
0001
0010
0100
0100
,
1000
0001
0100
0000
,
0100
0001
1000
0000
,
0001
1000
0100
0000
,
0100
1000
0001
0000
,
1000
0001
0010
0000
,
0010
0001
1000
0000
,
0010
0100
0001
0001
,
0010
0010
0100
0000
,
1000
0100
1000
0000
,
1000
0001
0100
0000
,
0001
0100
0001
0000
,
0001
1000
0100
0000
,
0010
0001
1000
0000
,
1000
0001
0100
0000
,
0100
0010
1000
1000
,
0100
0100
0010
0000
,
1001
0000
0000
0000
,
0001
0100
0001
0100
,
0000
0000
0110
0000
,
1001
0000
0000
0000
,
1001
1000
0100
0000
,
0010
0001
1000
0000
,
0020
0200
0330
0000
,
0001
1000
0001
0000
,
0010
0100
1000
0000
,
1001
0000
1000
0000
,
0010
0100
0010
0000
,
0110
0100
0001
0000
,
1001
1000
0100
0000
,
0010
0001
1000
1000
,
0000
1000
0010
0100
,
0001
1000
0001
0001
,
0000
0010
0110
0000
,
1001
0001
0100
0100
,
0000
0010
1000
1000
,
1001
0010
0100
0000
,
1000
0001
1000
1000
,
0010
0001
0010
0000
,
0001
0010
1000
0000
,
0100
1000
0100
0000
,
0001
0100
1000
0000
,
0010
0001
0010
0000
,
0001
0010
1000
0000
,
0001
1000
0001
0001
,
0010
0010
0100
0000
,
1000
0100
0001
0000
,
0100
0001
0100
0000
,
1000
0010
0001
0000
,
0010
0001
0010
0000
,
1000
0100
0001
0000
,
0100
0001
0100
0000
,
1000
0001
1000
1000
,
0010
0010
0100
0000
,
1001
0000
0000
0000
;

//--------------- dance-single - eataninja ----------------
#NOTES:
     dance-single:
     eataninja:
     Medium:
     9:
     0,0,0,0,0:
0000
0000
0000
0000
,
0000
0000
0000
0000
,
0000
0000
0000
0000
,
0000
0000
0000
0000
,
0001
0001
0001
0100
,
0001
0001
0001
0100
,
1000
1000
1000
0100
,
1000
1000
1000
0100
,
0001
0001
0001
0100
,
0001
0001
0001
0100
,
0010
0010
1000
0100
,
1000
0000
1000
0000
0001
0100
0100
0000
,
0010
0000
0100
0000
0001
1000
0001
0000
,
0000
0000
0010
0000
0100
1000
0001
0000
,
0000
1000
0010
0101
,
1000
0000
0001
0000
0001
0010
0100
0000
,
1000
0000
0001
0000
0001
0100
0010
0000
,
0001
0000
0010
0000
1000
0001
2000
0000
,
0000
0000
3000
0000
0100
0100
0100
0000
,
1001
0000
1000
0000
0010
0100
0001
0000
,
1001
0000
0001
0000
0010
0100
1000
0000
,
1001
0000
1000
0000
0010
0001
0010
0000
,
0100
0000
0100
0000
0001
0010
0100
0000
,
0000
2002
0000
0000
0000
3003
0000
0000
,
1000
0000
0010
0100
0001
0000
1000
0000
,
0001
0000
0010
0000
0100
1000
1000
0000
,
0001
0000
0100
0000
1000
0100
0000
0000
,
0001
0000
0100
0000
1000
0100
0000
0000
,
0001
0000
1000
0000
0100
0010
0000
0000
,
0001
0000
1000
0000
0010
0100
0000
0000
,
0001
0000
0010
0000
1000
0010
0000
0000
,
0001
0000
0010
0000
1000
0010
0000
0000
,
0100
0000
0100
0000
0010
0001
1000
0000
,
0001
0100
0001
0000
1000
0010
0000
0000
,
1010
0000
0010
0000
0001
0010
0000
0000
,
1010
0000
0010
0000
0001
0010
0000
0000
,
1010
0000
0010
0000
0100
0001
0000
0000
,
1010
0000
1000
0000
0100
0010
0000
0000
,
1100
0000
0100
0000
0001
0100
0000
0000
,
1100
0000
0100
0000
0001
0100
0000
0000
,
1100
0000
0100
0000
0010
0001
0010
0000
,
0001
1000
0010
0000
0100
0001
0000
0000
,
2000
0000
0000
3002
0000
0000
0023
0000
0000
0000
0030
0000
0000
0000
0000
0000
,
0010
0000
0100
1000
0000
1000
0001
0000
,
0100
0000
0000
0010
0110
0000
0000
0000
,
1001
0000
0000
0001
0000
0000
0000
0000
0000
0000
0000
0000
0000
0000
0000
0000
,
0010
0000
0100
1000
0000
1000
0001
0000
,
0100
0000
0010
1000
0000
1000
0001
0000
,
1000
0100
0002
0000
0003
0000
0000
0000
,
0100
0000
0010
0000
0001
1000
0001
0000
,
1000
0000
0000
0010
0110
0000
0000
0000
,
1001
0000
1000
0000
0100
0010
0001
0000
,
1000
0000
0000
1000
0010
0000
0000
0000
,
1001
0000
0001
0000
0100
1000
0100
0000
,
0010
0000
1000
0000
0001
0010
0010
0000
,
0100
0000
1000
0001
1000
0001
0100
0000
,
0010
0000
1000
0001
0000
0001
0010
0000
,
0100
0000
1000
0001
1000
0001
0100
0000
,
1000
0100
0101
1000
,
0001
0000
1000
0100
1000
0100
0010
0000
,
0001
0000
1000
0010
0000
0010
0100
0000
,
0001
0000
1000
0010
1000
0010
0100
0000
,
0001
0000
1000
0000
0100
0010
0001
0000
,
1000
0000
0100
0000
0001
0100
0000
0000
,
0001
0000
1000
0000
0010
0001
0000
0000
,
1000
0000
0010
0000
0001
0010
0000
0000
,
0001
0000
1000
0000
0100
0001
0000
0000
,
1000
0000
0100
0000
0010
0001
0000
0000
,
0001
0000
0100
0000
0010
1000
0000
0000
,
0001
0000
1000
0000
0100
0001
0100
0000
,
1000
0010
1000
0000
0010
0100
0000
0000
,
1000
0000
0100
0000
0001
0001
0001
0000
,
0010
0000
0100
0000
0001
0100
0000
0000
,
0001
0000
0100
0000
1000
1000
1000
0000
,
0010
0000
0100
0000
1000
0100
0000
0000
,
0001
0000
1000
0000
0100
0010
0000
0000
,
0001
0000
1000
0000
0010
0100
0000
0000
,
0001
0000
0010
0000
1000
0010
1000
0000
,
0010
0001
0100
0000
0010
1000
0000
0000
,
1001
0000
0000
0000
;

//--------------- dance-single - eataninja ----------------
#NOTES:
     dance-single:
     eataninja:
     Hard:
     12:
     0,0,0,0,0:
0000
0000
0000
0000
,
0000
0000
0000
0000
,
0000
0000
0000
0000
,
0000
0000
0000
0000
,
0001
0000
0100
0010
0000
0100
0001
0000
,
1000
0000
1000
1000
0001
0010
0100
0000
,
1000
0000
0100
0010
0000
0100
1000
0000
,
0001
0000
0001
0001
0100
0010
1000
0000
,
0001
0000
1000
0100
0000
1000
0001
0000
,
1000
0000
1000
1000
0010
0100
0001
0000
,
0010
0000
0100
0100
0001
0100
1000
0000
,
0001
0000
0001
0100
0010
1000
1000
1000
,
0001
0010
1000
0010
0001
1000
0010
0000
,
0100
0000
0100
0010
1000
0010
0100
0000
,
0001
1000
0100
0100
0010
0001
0100
0000
,
0010
0000
0010
0010
0100
0001
1000
0000
,
1000
0100
0001
0100
0010
0001
1000
0000
,
0010
0100
0010
1000
0001
0010
0100
0002
,
0000
0103
1000
1000
0001
1000
0010
0000
,
0110
0000
0100
0001
1000
0001
0010
0000
,
0110
0100
1000
0001
1000
0001
0100
0000
,
0110
0010
1000
1000
0001
0010
1000
0010
,
0100
0000
0100
0000
0100
1000
0010
0000
,
0000
0000
0100
0002
0000
0000
0000
0000
0000
0000
1003
0100
0010
0001
1000
0000
,
1010
0010
0100
0100
0001
0010
0100
0000
,
1100
0100
0010
0010
0001
1000
1000
1000
,
0002
0000
1003
0010
0001
0010
1000
0000
,
0002
0000
1003
0010
0001
0010
1000
0000
,
0002
0000
1003
0010
0001
0010
1000
0000
,
0200
0000
1300
0010
0001
0010
0100
0000
,
0020
0000
1030
0100
0001
0100
1000
0000
,
0002
0000
1003
0100
0001
0100
1000
0000
,
0002
0000
1003
0100
0001
0100
0001
0100
,
1000
0100
1000
0100
0010
0001
0100
0000
,
0020
0000
0031
0010
1000
0100
0001
0000
,
0200
0000
0301
0100
1000
0010
0001
0000
,
0020
0000
0031
0010
1000
0100
0001
0000
,
2000
0000
3002
0000
1003
0010
0001
0000
,
0200
0000
1300
0100
0001
0010
1000
0000
,
0020
0000
1030
0010
0001
0100
1000
0000
,
0200
0000
1300
0100
0001
0100
0001
0010
,
1000
0010
1000
0010
0100
1000
0000
0000
,
0002
0000
0000
2003
0000
0000
3020
0000
0000
0000
0000
0130
0000
0110
0000
0000
,
0100
0000
0001
1000
0000
0001
1000
0000
,
0100
0000
0000
0010
0001
1000
1000
0000
,
0010
0000
0000
0110
0000
0000
0000
0000
0000
0000
0000
0100
0001
0100
0000
0000
,
0100
0000
0001
1000
0000
0001
0010
0000
,
0100
0000
0001
0100
0001
0100
1000
0000
,
0001
0000
0100
0020
0000
0000
0000
0000
0030
1000
0001
1000
0001
0010
0000
0000
,
0100
0000
0010
0001
1000
1000
0010
0000
,
0100
0001
0010
1000
0010
0001
1000
0000
,
0010
0000
0100
0001
0000
0001
1000
0000
,
0100
0000
0010
0100
0100
1000
0001
0000
,
1000
0010
1000
0010
0000
0110
0000
1001
,
0000
0000
0001
0010
0100
1000
1000
1000
,
0001
0100
0010
0010
0001
0010
1000
0000
,
1010
0010
0100
0100
0001
1000
0001
0000
,
0010
1000
0010
0010
0100
1000
0001
0000
,
0011
0010
0100
0100
1000
0001
1000
0000
,
0010
0001
0010
1000
0100
0001
0100
0000
,
1001
0000
1000
0010
0100
0001
1000
0000
,
1100
0100
0010
0010
0001
1000
0100
0000
,
0110
0000
0010
1000
0010
0001
0100
0000
,
0001
0000
0100
0010
0100
0010
1000
0000
,
0001
0000
1000
0100
1000
0100
0010
0000
,
0001
0000
1000
0010
1000
0010
0100
0000
,
0110
0000
0010
0000
0001
1000
0100
0000
,
0001
0000
1000
0100
1000
0100
0010
0000
,
0001
0000
1000
0010
1000
0010
0100
0000
,
0001
1000
0001
1000
0100
0010
0100
0010
,
0001
1000
0010
0010
0100
0001
0001
0001
,
1000
0000
0010
0100
0010
0100
0001
0000
,
0100
0000
0001
1000
0001
1000
0100
0000
,
0010
0000
0001
1000
0001
1000
0010
0000
,
0110
0000
0100
0000
1000
0001
0010
0000
,
0100
0000
0001
1000
0001
1000
0100
0000
,
1000
0000
0001
0010
0001
0010
0100
0000
,
0001
0100
0001
0100
1000
0100
1000
0100
,
0010
1000
0010
1000
0010
0001
0100
0000
,
1001
0000
0000
0000
;
