#TITLE:月光蝶;
#SUBTITLE:;
#ARTIST:あさき;
#TITLETRANSLIT:gekkou chou;
#SUBTITLETRANSLIT:;
#ARTISTTRANSLIT:Asaki;
#GENRE:;
#CREDIT:;
#MUSIC:Gekkou chou.ogg;
#BANNER:Gekkou chou.png;
#BACKGROUND:Gekkou chou-bg.png;
#CDTITLE:./CDTITLES/GuitarFreaks & DrumMania.png;
#SAMPLESTART:44.344;
#SAMPLELENGTH:15.000;
#SELECTABLE:YES;
#OFFSET:0.000;
#BPMS:0.000=216.800
,4.000=218.000
;
#STOPS:;
#DISPLAYBPM:218.000;
#BGCHANGES:;
#FGCHANGES:;

//--------------- dance-single - KONAMI ----------------
#NOTES:
     dance-single:
     KONAMI:
     Beginner:
     4:
     0,0,0,0,0:
0000
0000
0000
0000
,
0000
0000
0000
0000
,
0000
0000
0000
0000
,
0000
0000
0000
0000
,
0000
0000
0000
0000
,
0000
0100
0000
0000
,
0000
0001
0000
0000
,
0000
1000
0000
0000
,
0000
0010
0000
0000
,
0001
0000
0001
0000
,
1000
0000
1000
0000
,
1000
0000
0001
0000
,
0001
0000
1000
0000
,
1000
0000
0100
0000
,
0010
0000
0001
0000
,
1000
0000
0001
0000
,
1000
0000
0000
0000
,
0001
0000
0001
0000
,
1000
0000
1000
0000
,
1000
0000
0001
0000
,
0010
0000
0100
0000
,
0001
0000
1000
0000
,
0100
0000
0010
0000
,
1000
0000
0001
0000
,
1000
0000
0000
0000
,
0100
0000
0000
0000
,
0001
0000
0000
0000
,
0010
0000
0000
0000
,
1000
0000
0000
0000
,
0001
0000
0000
0000
,
1000
0000
0000
0000
,
1001
0000
0000
0000
,
0000
0000
0000
0000
,
0010
0000
1000
0000
,
0010
0000
0001
0000
,
0100
0000
1000
0000
,
0001
0000
0100
0000
,
1000
0000
1000
0000
,
0001
0000
0001
0000
,
0010
0000
0000
0000
,
0100
0000
0000
0000
,
0001
0000
0100
0000
,
1000
0000
1000
0000
,
0001
0000
0001
0000
,
0001
0000
0100
0000
,
1000
0000
0010
0000
,
0001
0000
0100
0000
,
0010
0000
1000
0000
,
0100
0000
1000
0000
,
0001
0000
0100
0000
,
0010
0000
0100
0000
,
0001
0000
1000
0000
,
0010
0000
0001
0000
,
0010
0000
1000
0000
,
0100
0000
0001
0000
,
1000
0000
0000
0000
,
0001
0000
0000
0000
,
0010
0010
0000
1000
,
0000
0001
0000
0100
,
0000
0010
0000
1000
,
0000
0100
0000
1000
,
0000
0001
0000
0100
,
0000
1000
0000
0100
,
0000
0001
0000
0010
,
0000
1000
0000
0001
,
0000
0100
0000
1000
,
0000
0010
0000
0100
,
0000
0001
0000
0001
,
0000
1000
0000
1000
,
0000
0001
0000
1000
,
0000
0100
0000
0010
,
0010
0000
0000
0000
,
0100
0000
0000
0000
,
1001
0000
0000
0000
;

//--------------- dance-single - KONAMI ----------------
#NOTES:
     dance-single:
     KONAMI:
     Easy:
     4:
     0,0,0,0,0:
0000
0000
0000
0000
,
0000
0000
0000
0000
,
0000
0000
0000
0000
,
0000
0000
0000
0000
,
0000
0000
0000
0000
,
0000
0100
0000
0100
,
0000
0001
0000
0001
,
0000
1000
0000
1000
,
0000
0010
0000
0010
,
1000
0000
0010
0000
,
0100
0000
0001
0000
,
1000
0000
0010
0000
,
0100
0000
0010
0000
,
1000
0000
0100
0000
,
0010
0000
0001
0000
,
1000
0000
0001
0000
,
1000
0000
0000
0000
,
0001
0000
0010
0000
,
0100
0000
0010
0000
,
1000
0000
0001
0000
,
0010
0000
0100
0000
,
0001
0000
1000
0000
,
0100
0000
0010
0000
,
1000
0000
0001
0000
,
1000
0000
0000
0000
,
0100
0000
0000
0000
,
0001
0000
0000
0000
,
0010
0000
0000
0000
,
1000
0000
0000
0000
,
0001
0000
0000
0000
,
1000
0000
0000
0000
,
2002
0000
0000
0000
,
0000
0000
0000
3003
,
0010
0000
1000
0000
,
0010
0000
0001
0000
,
0100
0000
1000
0000
,
0001
0000
0100
0000
,
1000
0000
1000
0000
,
0001
0000
0001
0000
,
0020
0000
0000
0030
,
0200
0000
0000
0300
,
0001
0000
0100
0000
,
1000
0000
0100
0000
,
0010
0000
1000
0000
,
0001
0000
0100
0000
,
1000
0000
0010
0000
,
0001
0000
0100
0000
,
0010
0000
1000
0000
,
0100
0000
1000
0000
,
0001
0000
0100
0000
,
0010
0000
0100
0000
,
0001
0000
1000
0000
,
0010
0000
0001
0000
,
0010
0000
1000
0000
,
0100
0000
0001
0000
,
2000
0000
0000
3000
,
0002
0000
0000
0003
,
0010
0010
0000
1000
,
0000
0001
0000
0100
,
0000
0010
0000
1000
,
0000
0100
0000
1000
,
0000
0001
0000
0100
,
0000
1000
0000
0100
,
0000
0001
0000
0010
,
0000
1000
0000
0001
,
0000
0100
0000
1000
,
0000
0010
0000
0100
,
0000
0001
0000
0010
,
0000
0001
0000
0100
,
0000
0001
0000
1000
,
0000
0100
0000
0010
,
0020
0000
0000
0030
,
0200
0000
0000
0300
,
1001
0000
0000
0000
;

//--------------- dance-single - KONAMI ----------------
#NOTES:
     dance-single:
     KONAMI:
     Medium:
     7:
     0,0,0,0,0:
0000
0000
0000
0000
,
0000
0000
0000
0000
,
0000
0000
0000
0000
,
0000
0000
0000
0000
,
0000
0000
0000
0000
,
0000
0010
1000
0100
,
0000
0010
0001
0100
,
0000
0010
0100
0010
,
0001
1000
0100
1000
,
0010
0001
1000
0010
,
0000
0100
0001
0010
,
0100
1000
0001
0100
,
0000
0001
1000
0100
,
0010
1000
0100
1000
,
0000
1000
0001
0100
,
0001
0000
0000
0000
1000
0000
0000
1001
,
0000
0001
1000
0010
,
1000
0001
1000
0100
,
0000
1000
0010
1000
,
0001
0010
0001
0100
,
0000
0001
1000
0100
,
0001
0100
1000
0001
,
0000
1000
0100
0010
,
0100
1000
0010
0001
,
0000
0010
1000
0000
,
0001
0000
0000
1000
0000
0000
0100
0000
,
0000
1000
0001
0000
,
0010
0000
0000
0001
0000
0000
0100
0000
,
0000
0001
1000
0000
,
0100
0000
0000
1000
0000
0000
0010
0000
,
0000
0100
0001
0000
,
1000
0000
0000
0001
0000
0000
1001
0000
,
0000
1000
0010
0100
,
0000
1001
0010
0001
,
0000
1000
0001
0100
,
0000
1000
0001
0010
,
0000
0100
0001
0010
,
1000
0000
0000
0001
0000
0000
0010
0000
,
0100
0000
0000
1000
0000
0000
0010
0000
,
0002
0000
0000
2000
3003
0000
0110
0000
,
0000
1000
0010
0100
,
0010
1000
0100
0010
,
0000
0100
1000
0001
,
0000
0010
0001
0100
,
0000
1000
0100
0001
,
0010
1000
0100
0010
,
0001
0100
0001
1000
,
0100
0000
0010
0000
0001
0000
0000
0100
,
0000
0000
1000
0000
0000
0001
0000
0110
,
0000
0001
0010
1000
,
0000
0010
0100
0001
,
0000
0010
1000
0100
,
0001
0000
1000
0000
0000
0010
0000
1001
,
0000
0100
0001
1000
,
0000
0001
0010
0001
,
0100
0010
0001
0100
,
1000
0100
0001
0000
,
0010
0001
0100
0010
,
0000
0100
0010
1000
,
0010
0001
0100
0010
,
0000
1000
0100
0010
,
0000
0010
0001
0100
,
1000
0100
0001
0010
,
1000
0000
0100
0000
1000
0000
0000
0001
,
0000
0000
0100
0000
0000
0001
0000
1000
,
0000
0001
1000
0100
,
0000
0010
0100
1000
,
0000
0001
1000
0010
,
0000
0000
1000
0000
0000
0100
0000
1001
,
0000
0100
0001
1000
,
0000
0001
0010
0001
,
0000
0010
0001
0100
,
1000
0100
0010
1001
,
0002
0000
0000
0200
0003
0000
0020
0000
,
0300
1030
0000
0000
;

//--------------- dance-single - KONAMI ----------------
#NOTES:
     dance-single:
     KONAMI:
     Hard:
     10:
     0,0,0,0,0:
0000
0000
0000
0000
,
0000
0000
0000
0000
,
0000
0000
0000
0000
,
0000
0000
0000
0000
,
0000
0000
0000
0000
,
0000
0000
1001
0000
0100
0000
0010
0001
,
0000
0000
1000
0000
0010
0000
0100
1000
,
0000
0000
0100
0000
0010
0000
0100
0001
,
0000
1000
0100
1001
,
0010
0000
0001
0000
1000
0000
0010
0100
,
0000
1000
0000
0100
0000
0001
0010
0000
,
0100
0000
1000
0000
0001
0000
0100
0010
,
0000
0100
0000
0001
0000
1000
0100
0000
,
0010
0000
1000
0000
0100
0000
1000
0010
,
0000
0001
0000
1000
0000
0001
0100
0000
,
0001
0000
0010
0100
0010
0000
1000
0010
,
0000
0001
1000
0110
,
1000
0000
0001
0000
1000
0000
0100
0010
,
0000
0100
0000
1000
0000
0010
1000
0000
,
0001
0000
0010
0000
0100
0000
0010
0001
,
0000
0100
0000
0001
0000
1000
0100
0000
,
0001
0000
0100
0000
1000
0000
0001
0100
,
0000
0010
0000
1000
0000
0100
0010
0000
,
0100
0000
1000
0010
1000
0000
0001
0100
,
0000
0000
0000
0001
0000
0000
0010
0000
0001
0000
1000
0000
,
0011
0000
0000
1100
0000
0000
0210
0000
,
0000
1000
0001
0310
,
1001
0000
0000
0011
0000
0000
2010
0000
,
0000
0100
0001
3010
,
0101
0000
0000
1001
0000
0000
0012
0000
,
0000
1000
0010
0103
,
1000
0000
0000
0001
0000
0000
1001
0000
,
0100
0000
1000
0000
0010
0000
1000
0001
,
0000
0000
1010
0000
0100
0000
0001
0010
,
0000
0000
1000
0000
0001
0000
0100
0010
,
0000
0000
0100
0000
0001
0000
1000
0100
,
0000
0000
1000
0000
0001
0010
0001
0000
,
1000
0000
0000
0001
0000
0000
0010
0100
,
0010
0000
0000
0001
0000
0000
1000
0100
,
2000
0000
0000
0002
3003
0000
0110
0000
,
0000
1000
0010
0101
,
0010
0000
1000
0000
0100
0000
0010
0100
,
0000
1000
0100
0000
1000
0000
0001
0010
,
0000
0010
0001
0000
1000
0000
0010
0100
,
0000
0100
1000
0000
0100
0000
0001
1000
,
0000
0010
1000
0000
0100
0000
0010
0001
,
0000
0010
0100
0000
0001
0000
1000
0100
,
0000
0000
0010
0000
0001
0000
0100
0001
,
0000
1000
0100
0000
1000
0001
0000
0110
,
0000
0000
0001
0000
0010
0000
0100
1000
,
0000
0000
0001
0000
0100
0000
0001
0010
,
0000
0001
0000
1000
0000
0100
0000
0010
,
0000
0100
1000
0100
0000
0110
0000
1001
,
0000
0010
0100
0000
0001
0000
1000
0100
,
0000
1000
0001
0000
0010
0000
0001
1000
,
0000
0100
0000
0010
0000
0001
0000
0100
,
1000
0100
0001
1001
,
0010
0000
0001
0000
0100
0000
0010
1000
,
0000
0001
0100
0000
0010
0000
1000
0010
,
0000
0010
1000
0000
0100
0000
0010
0100
,
0000
0100
1000
0100
0000
0010
0000
0001
,
0000
1000
0010
0000
0100
0000
0010
1000
,
0000
1000
0100
0000
0001
0000
0010
0100
,
0000
1000
0010
0000
1000
0000
0001
0100
,
0000
1000
0100
0000
0001
0010
0000
1100
,
0000
0000
0001
0000
1000
0000
0100
0010
,
0000
0001
0010
0000
0100
0000
1000
0010
,
0000
1000
0001
0000
1000
0000
0010
0100
,
0000
0001
0010
0001
0000
0110
0000
1001
,
0000
0010
0100
0000
0001
0000
1000
0100
,
0000
1000
0001
0000
0010
0000
0001
1000
,
0000
0010
0001
0100
,
1000
0000
0100
0010
0100
0000
1001
0000
,
0002
0000
0000
0200
0003
0000
0020
0000
,
0300
1030
0000
0000
;

//--------------- dance-single - eataninja ----------------
#NOTES:
     dance-single:
     eataninja:
     Challenge:
     14:
     0,0,0,0,0:
0000
0000
0000
0000
,
0000
0000
0000
0000
,
0000
0000
0000
0000
,
0000
0000
0000
0000
,
0000
0000
0000
0000
0000
0000
0000
2100
,
0000
3001
0100
0000
0010
0100
0010
2000
,
0000
3100
0010
0001
0000
1000
0000
1020
,
0000
0130
0001
0001
1000
0100
0010
0002
,
0000
0000
1003
0000
0010
0000
1000
0000
0001
0000
0100
0010
0100
0000
0001
0000
,
0010
0100
0100
0000
1000
0001
1000
0010
,
0000
0100
0010
0100
0001
1000
0100
0000
,
0001
0100
1000
0000
0100
0010
0001
1000
,
0000
1000
0010
0000
0210
0000
0301
0000
,
2001
0000
0100
0000
3001
0000
0010
0100
,
2000
0000
3001
0200
0000
0310
1000
0000
,
1000
0100
0010
0001
1000
0010
0001
0020
,
0000
0000
0130
0000
0001
0000
0001
0000
1000
0000
0001
0010
0001
0000
1000
0010
,
1000
0001
0100
0001
1000
0100
0010
0001
,
1000
0010
1000
0001
0010
0100
1000
0000
,
0001
0100
0001
1000
0010
0100
0001
0010
,
1000
0010
0001
1000
0010
0100
0100
0000
,
0201
0000
1300
0000
0100
0000
0001
0010
,
0000
0100
2000
0000
3002
0000
0203
0000
,
0310
0000
1000
1000
0001
0010
0100
1000
,
0000
0000
0000
0010
0000
0000
0100
0000
0000
0100
0000
0000
0001
0000
0000
0000
0001
0000
0000
0000
0001
0000
0000
0000
,
2000
0000
3100
0002
0000
1003
0010
0000
,
0001
2000
3020
0130
,
0002
0000
0103
2000
0000
3001
0020
0000
,
1030
0000
0001
1000
0100
0100
0010
0010
,
0001
0000
1000
0010
1000
0010
0100
0000
,
0001
0010
0100
0000
1000
0010
0001
0000
,
0010
0010
0100
0001
0001
1000
0100
0010
,
0001
1000
1000
0001
0100
1000
0100
0010
,
0000
0010
1000
0100
0010
0010
0001
1000
,
0000
0010
0100
0010
1000
0001
0010
0100
,
0000
0100
0001
0100
0010
0001
0100
2000
,
0000
3200
0000
0302
0000
1003
0100
0010
,
0001
1000
0010
1000
0001
0010
0100
1000
,
0010
0100
0001
1000
0010
1000
0001
0010
,
0100
0001
0001
0100
1000
1000
0001
0200
,
0000
0000
0000
0000
0310
0000
0000
0000
1000
0000
0001
0010
0001
0000
1000
0100
,
2000
0000
0001
0000
0100
0000
3001
0010
,
0200
0000
1000
0000
0010
0000
1300
0001
,
0100
0000
1000
0000
0100
0000
0010
1000
,
0001
0001
0010
0100
1000
1000
0001
0100
,
0010
0000
0120
0000
0031
0000
0010
0100
,
0001
0000
0012
0000
0103
0000
0100
1000
,
0000
0100
0000
0002
0000
1003
1000
0001
,
0000
0010
0010
0001
1000
0010
0100
0002
,
0000
0013
0100
0000
1000
0001
1000
0020
,
0000
0130
0001
0000
0001
0010
0100
2000
,
0000
3020
0000
0032
0000
2003
0000
3200
,
0000
0310
1000
0001
0000
0011
0000
2100
,
0000
0000
3001
0000
0010
1000
0010
0200
,
0000
1300
0001
0000
0001
1000
0010
0000
,
0100
0000
0001
0000
1000
0000
0001
0010
0001
0000
0100
0000
0010
0000
1000
0000
,
0001
0010
0100
1000
0001
1000
0010
0010
,
1000
0001
1000
0010
0000
0002
0000
0023
,
0000
1030
0010
0100
0001
0010
0000
0100
,
0000
1000
0002
1000
1003
0100
0000
0002
,
0000
0103
1000
0020
0000
0130
0001
2000
,
0000
0100
3100
0000
0002
0000
0103
0020
,
0000
0230
0000
2300
0000
3020
0000
0032
,
0000
1003
0100
0001
1000
0001
0010
0100
,
0000
0000
1000
0001
1000
0000
0100
0000
0010
0000
0001
0000
0000
0000
0101
0000
,
0000
0100
0010
0100
0001
0010
0100
2000
,
0000
3010
0002
0000
0013
0100
0001
0010
,
0200
0000
0301
0000
0200
0000
1300
0002
,
0000
1003
0010
0100
0000
1001
0000
0110
,
0000
0100
0020
0000
1030
0001
0000
0012
,
0000
1003
0010
0000
0100
0001
1000
0000
,
0100
0000
0010
0000
0100
0000
1000
0001
1000
0000
0001
0000
0100
0000
0010
0000
,
1000
0000
0100
0000
0010
0000
0001
0000
1000
0000
0010
1000
0010
0000
0200
0000
,
0000
0000
0000
0002
0300
0000
2000
0000
,
0003
0200
0000
0000
,
0000
0000
0000
3300
;

//--------------- dance-double - KONAMI ----------------
#NOTES:
     dance-double:
     KONAMI:
     Easy:
     3:
     0,0,0,0,0:
00000000
00000000
00000000
00000000
,
00000000
00000000
00000000
00000000
,
00000000
00000000
00000000
00000000
,
00000000
00000000
00000000
00000000
,
00000000
00000000
00000000
00000000
,
00000000
00001000
00000000
00000000
,
00010000
00000000
00000000
00000000
,
00100000
00000000
00100000
00000000
,
01000000
00000000
00000000
00000000
,
00010000
00000000
00010000
00000000
,
10000000
00000000
00000000
00000000
,
01000000
00000000
01000000
00000000
,
00100000
00000000
00000000
00000000
,
00010000
00000000
00000000
00000000
,
10000000
00000000
00000000
00000000
,
00100000
00000000
01000000
00000000
,
00100000
00000000
00000000
00000000
,
00010000
00000000
00010000
00000000
,
00001000
00000000
00001000
00000000
,
00010000
00000000
00010000
00000000
,
00001000
00000000
00001000
00000000
,
00000010
00000000
00000000
00000000
,
00000100
00000000
00000000
00000000
,
00001000
00000000
00000000
00000000
,
00000001
00000000
00000000
00000000
,
00000010
00000000
00001000
00000000
,
00000010
00000000
00001000
00000000
,
00000010
00000000
00000001
00000000
,
00000010
00000000
00000001
00000000
,
00000100
00000000
00000001
00000000
,
00000100
00000000
00000001
00000000
,
00001000
00000000
00000000
00000000
,
00000100
00000000
00000000
00000000
,
00001000
00000000
00001000
00000000
,
00010000
00000000
00010000
00000000
,
00100000
00000000
00100000
00000000
,
10000000
00000000
10000000
00000000
,
00010000
00000000
00000000
00000000
,
10000000
00000000
00000000
00000000
,
01000000
00000000
00000000
00000000
,
00200000
00000000
00300000
00000000
,
10000000
00000000
01000000
00000000
,
00100000
00000000
00010000
00000000
,
01000000
00000000
10000000
00000000
,
00010000
00000000
00000000
00000000
,
00010000
00000000
00001000
00000000
,
00000100
00000000
00000001
00000000
,
00000010
00000000
00001000
00000000
,
00000100
00000000
00000000
00000000
,
00001000
00000000
00001000
00000000
,
00000001
00000000
00000001
00000000
,
00000010
00000000
00000100
00000000
,
00001000
00000000
00000001
00000000
,
00000100
00000000
00000000
00000000
,
00001000
00000000
00000000
00000000
,
00010000
00000000
00000000
00000000
,
00022000
00000000
00000000
00033000
,
00010000
00000000
00100000
00000000
,
10000000
00000000
01000000
00000000
,
00100000
00000000
01000000
00000000
,
10000000
00000000
00010000
00000000
,
01000000
00000000
00000000
00000000
,
00100000
00000000
00000000
00000000
,
10000000
00000000
00000000
00000000
,
01000000
00000000
00000000
00000000
,
00010000
00000000
00001000
00000000
,
00000010
00000000
00000001
00000000
,
00000100
00000000
00000001
00000000
,
00000010
00000000
00000100
00000000
,
00001000
00000000
00000001
00000000
,
00000100
00000000
00001000
00000000
,
00010000
00000000
01000000
00000000
,
10000000
00000000
00100000
00000000
,
00020000
00000000
00000000
00000000
,
00000000
00030000
00000000
00000000
;

//--------------- dance-double - KONAMI ----------------
#NOTES:
     dance-double:
     KONAMI:
     Medium:
     7:
     0,0,0,0,0:
00000000
00000000
00000000
00000000
,
00000000
00000000
00000000
00000000
,
00000000
00000000
00000000
00000000
,
00000000
00000000
00000000
00000000
,
00000000
00000000
00000000
00000000
,
00000000
00000010
00001000
00000001
,
00000000
00000010
00000001
00001000
,
00000000
00000100
00000010
00000100
,
00000000
00001000
00000010
00000100
,
00000001
00000001
00001000
00000000
,
00000001
00000010
00001000
00010000
,
00100000
00100000
01000000
00000000
,
00010000
10000000
01000000
00100000
,
00010000
01000000
00010000
00000000
,
10000000
01000000
10000000
00000000
,
00010000
00000000
00000000
00000000
10000000
00000000
00000000
10010000
,
00000000
00100000
10000000
01000000
,
00100000
00010000
00001000
00000000
,
00000010
00000001
00001000
00000100
,
00000010
00000100
00000001
00000000
,
00000100
00001000
00010000
00100000
,
10000000
00010000
10000000
00000000
,
01000000
10000000
00100000
00000000
,
10000000
00000000
00000000
00000000
00010000
00000000
00000000
10010000
,
00000000
00000000
01000000
00000000
,
00100000
00000000
00000000
00010000
00000000
00000000
00001000
00000000
,
00000000
00000100
00000001
00000000
,
00000010
00000000
00000000
00000001
00000000
00000000
00000100
00000000
,
00000000
00000001
00000010
00000000
,
00000100
00000000
00000000
00000001
00000000
00000000
00000100
00000000
,
00000000
00001000
00010000
00000000
,
01000000
00000000
00000000
00100000
00000000
00000000
10010000
00000000
,
00000000
00100000
00010000
01000000
,
00000000
10010000
00100000
00010000
,
00000000
10000000
00010000
01000000
,
00000000
00100000
10000000
01000000
,
00000000
10000000
00010000
00100000
,
01000000
00000000
00000000
00010000
00000000
00000000
00001000
00000000
,
00010000
00000000
00000000
00000010
00000000
00000000
00000100
00000000
,
00000001
00000000
00000000
00001000
00000000
00000000
00000010
00000000
,
00000200
00000000
00000000
00000300
,
00000010
00001000
00000100
00000000
,
00000010
00000001
00000100
00000000
,
00001000
00010000
00100000
00000000
,
10000000
00010000
01000000
00000000
,
00010000
00100000
01000000
00000000
,
00100000
00010000
01000000
00000000
,
00010000
00000000
10000000
00000000
00100000
00000000
00000000
01000000
,
00000000
00000000
10000000
00000000
00000000
00010000
00000000
00100000
,
00000000
00010000
10000000
00000000
,
00100000
00000000
00010000
00000000
00001000
00000000
00000000
00000100
,
00000000
00000000
00000001
00000000
00000010
00000000
00000000
00000100
,
00000000
00000000
00001000
00000000
00000000
00000001
00000000
00001001
,
00000000
00000000
00000010
00000000
00000100
00000000
00000000
00000001
,
00000000
00000000
00000100
00000000
00001000
00000000
00000000
00010000
,
00000000
01000000
10000000
00100000
,
01000000
00010000
00100000
00000000
,
01000000
10000000
01000000
10000000
,
00100000
10000000
00100000
10000000
,
00100000
00010000
00100000
00010000
,
00001000
00010000
00001000
00010000
,
00001000
00000100
00001000
00000100
,
00000001
00000100
00000001
00000100
,
00000001
00000010
00000001
00000010
,
00001000
00000010
00001000
00000010
,
00000001
00001000
00000100
00000000
,
00000010
00000001
00000100
00000000
,
00001000
00000000
00010000
00000000
00100000
00000000
00000000
10000000
,
00000000
00000000
00000000
00010000
00000000
01000000
00000000
10010000
,
00000000
00000000
01000000
00000000
00100000
00000000
00000000
10000000
,
00000000
00000000
00010000
00000000
01000000
00000000
00000000
00100000
,
00000000
00010000
00001000
00000010
,
00000001
00000100
00001000
00000000
,
00022000
00000000
00000000
00000000
,
00000000
00033000
00000000
00000000
;

//--------------- dance-double - KONAMI ----------------
#NOTES:
     dance-double:
     KONAMI:
     Hard:
     11:
     0,0,0,0,0:
00000000
00000000
00000000
00000000
,
00000000
00000000
00000000
00000000
,
00000000
00000000
00000000
00000000
,
00000000
00000000
00000000
00000000
,
00000000
00000000
00000000
00000000
,
00000000
00000000
00100000
00000000
10000000
00000000
00010000
01000000
,
00000000
00000000
00100000
00000000
00010000
00000000
00001000
00000010
,
00000000
00000000
00000001
00000000
00001000
00000000
00000100
00000010
,
00000000
00000100
00001000
00000010
,
00000100
00000000
00001000
00000000
00010000
00000000
00100000
10000000
,
00000000
01000000
00010000
00001000
,
00000100
00000000
00000001
00000000
00001000
00000000
00000010
00000100
,
00000000
00000001
00001000
00000100
,
00010000
00000000
00001000
00000000
01000000
00000000
00100000
10000000
,
00000000
00010000
00100000
01000000
,
00010000
00000000
00001000
00000100
00001000
00000000
00010000
01000000
,
00000000
10000000
00010000
01100000
,
10000000
00000000
00010000
00000000
01000000
00000000
00001000
00010000
,
00000000
00000010
00001000
00000100
,
00000010
00000000
00000001
00000000
00001000
00000000
00000100
00000010
,
00000000
00001000
00010000
00100000
,
10000000
00000000
01000000
00000000
00010000
00000000
00001000
00000010
,
00000000
00001000
00010000
00000010
,
00000100
00000000
00000001
00000010
00000001
00000000
00000100
00001000
,
00000000
00000000
00000000
00000001
00000000
00000000
00000100
00000000
00001000
00000000
00010000
00000000
,
00000010
00000000
00000000
00000100
00000000
00000000
00001000
00000000
,
00010000
00100000
10000000
00010000
,
01000000
00000000
00000000
00100000
00000000
00000000
10000000
00000000
,
01000000
00010000
00001000
00000100
,
00000001
00000000
00000000
00001000
00000000
00000000
00000010
00000000
,
00000100
00001000
00010000
00100000
,
10000000
00000000
00000000
00010000
00000000
00000000
10010000
00000000
,
01000000
00000000
00001000
00000000
00010000
00000000
00000010
00001000
,
00000000
00000000
00001001
00000000
00000100
00000000
00010000
00001000
,
00000000
00000000
00100000
00000000
00010000
00000000
10000000
00100000
,
00000000
00000000
01000000
00000000
00001000
00000000
00010000
01000000
,
00000000
00010000
00000000
00001000
00000010
00001000
00010000
00000000
,
00000010
00000000
00000000
00001000
00000000
00000000
00000101
00000000
,
00001000
00000000
00000000
00000010
00000000
00000000
00011000
00000000
,
00100000
00000000
00000000
00010000
00000000
00000000
11000000
00000000
,
00020000
00000000
00002000
00033000
,
01000000
00000000
00100000
00000000
10000000
00000000
01000000
00100000
,
00000000
00010000
01000000
00000000
00001000
00000000
00010000
00000010
,
00000000
00000010
00001000
00000000
00000001
00000000
00000010
00000100
,
00000000
00000100
00001000
00000000
00000001
00000000
00000100
00001000
,
00000000
00000000
00011000
00000000
00100000
00000000
00010000
10000000
,
00000000
00000000
10010000
00000000
00100000
00000000
01000000
00010000
,
00000000
00000000
00011000
00000000
00000010
00000000
00001000
00000001
,
00000000
00000010
00000100
00000000
00010000
00001000
00000000
00110000
,
00000000
00000000
01000000
00000000
10000000
00000000
00010000
01000000
,
00000000
00000000
00001000
00000000
00010000
00000000
00000010
00001000
,
00000000
00000000
00000100
00000000
00010000
00000000
00001000
00100000
,
00000000
00001000
00000010
00001000
00000000
00001001
00000000
00010100
,
00000000
00000010
00001000
00000000
00000100
00000000
00010000
00001000
,
00000000
00100000
00010000
00000000
01000000
00000000
00100000
10000000
,
00000000
00000000
01000000
00000000
00010000
00000000
00001000
00000100
,
00001000
00000000
00010000
01000000
00010000
00000000
11000000
00000000
,
00100000
00000000
00010000
00000000
01000000
00000000
00001000
00010000
,
00000000
00010000
00001000
00000000
00000010
00000000
00000001
00001000
,
00000000
00001000
00000010
00000000
00000100
00000000
00001000
00010000
,
00000000
00100000
10000000
00100000
00000000
01000000
00010000
01000000
,
00000000
00001000
00010000
00000000
00000010
00000000
00001000
00000100
,
00000000
00000100
00001000
00000000
00000001
00000000
00000100
00001000
,
00000000
00001000
00010000
00000000
01000000
00000000
10000000
00100000
,
00000000
00010000
00001000
00000000
00000100
00000001
00000000
00001100
,
00000000
00010000
00001000
00000000
00100000
00000000
00010000
01000000
,
00000000
00100000
10000000
00000000
01000000
00000000
00010000
00001000
,
00000000
00100000
00010000
00000000
10000000
00000000
01000000
00010000
,
00000000
00001000
00000100
00001000
00000000
00000101
00000000
00000011
,
00000000
00000100
00001000
00000000
00000010
00000100
00000010
00001000
,
00000000
00000100
00010000
00000000
00001000
00000000
00100000
00010000
,
00000000
01000000
00100000
00000000
10000000
00000000
00010000
01000000
,
00000000
00001000
00010000
00001000
00010000
00000000
00011000
00000000
,
00000010
00000000
00000000
00000100
00000000
00000000
00001000
00000000
,
00000000
00010000
00000000
00000000
;
