#TITLE:GYRUSS -FULL TILT-;
#SUBTITLE:;
#ARTIST:JT.1Up;
#TITLETRANSLIT:;
#SUBTITLETRANSLIT:;
#ARTISTTRANSLIT:;
#GENRE:;
#CREDIT:;
#MUSIC:GYRUSS -FULL TILT-.ogg;
#BANNER:GYRUSS -FULL TILT-.png;
#BACKGROUND:GYRUSS -FULL TILT--bg.png;
#CDTITLE:;
#SAMPLESTART:33.730;
#SAMPLELENGTH:15.000;
#SELECTABLE:YES;
#OFFSET:0.000;
#BPMS:0.000=129.980
,52.000=136.360
,56.000=145.160
,58.000=155.170
,60.000=150.000
,61.000=173.070
,62.000=160.710
,63.000=166.660
,64.000=173.070
,65.000=166.660
,66.000=173.070
,67.000=166.660
,68.000=173.070
,70.000=166.660
,72.000=114.640
,76.000=169.980
,251.500=167.350
,256.000=169.810
;
#STOPS:;
#DISPLAYBPM:130.000:170.000;
#BGCHANGES:4.000=GYRUSS -FULL TILT-.avi=1.000=1=0=0=StretchNoLoop==CrossFade==;
#FGCHANGES:;

//--------------- dance-single - KONAMI ----------------
#NOTES:
     dance-single:
     KONAMI:
     Beginner:
     3:
     0,0,0,0,0:
0000
0000
0000
0000
,
0000
0000
0000
0000
,
0000
0000
0000
0000
,
0000
0000
0000
0000
,
0000
0000
0000
0000
,
0000
0000
0000
0000
,
0001
0000
0000
0000
,
0000
0000
1000
1000
,
1000
0000
0000
0000
,
0001
0000
0000
0000
,
0100
0000
0200
0000
,
0000
0300
0000
0000
,
0001
0000
1000
0000
,
0001
0000
0000
0000
,
1000
0000
0000
0000
,
0000
0000
0000
0000
,
0001
0000
0000
0000
,
0000
0000
0000
0000
,
1001
0000
0000
0000
,
0010
0000
0001
0000
,
0010
0000
0001
0000
,
0100
0000
0000
0000
,
0100
0000
0000
0000
,
0010
0000
1000
0000
,
0010
0000
1000
0000
,
0100
0000
0000
0000
,
0100
0000
0000
0000
,
1000
0000
0000
0000
,
0001
0000
0000
0000
,
0100
0000
0000
0000
,
0010
0000
0000
0000
,
1000
0000
0100
0000
,
1000
0000
0000
0000
,
0001
0002
0000
0000
,
0003
0000
0000
0000
,
0100
0000
0100
0000
,
0100
0000
0000
0000
,
0010
0000
0010
0000
,
0010
0000
0000
0000
,
1000
0000
1000
0000
,
1000
0000
0000
0000
,
0001
0000
0001
0000
,
0001
0000
0000
0000
,
1000
0000
0100
0000
,
1000
0000
0000
0000
,
0001
0000
0100
0000
,
0001
0000
0000
0000
,
1000
0000
0010
0000
,
1000
0000
0000
0000
,
0001
0000
0000
0000
,
1000
0000
0000
0000
,
0000
0010
0000
0000
0010
0000
0000
0010
,
0000
0010
0000
0000
,
0000
0100
0000
0000
0100
0000
0000
0100
,
0000
0100
0000
0000
,
0000
0001
0000
0000
1000
0000
0000
0001
,
0000
0000
1000
0000
0000
0001
0000
0000
,
1000
0000
0000
0001
0000
0000
0100
0000
,
0100
0000
0001
0000
,
0001
0000
1000
0000
,
1000
0000
0010
0000
,
0010
0000
0100
0000
,
0100
0000
0000
0000
0000
0000
0000
1001
;

//--------------- dance-single - KONAMI ----------------
#NOTES:
     dance-single:
     KONAMI:
     Easy:
     6:
     0,0,0,0,0:
0000
0000
0000
0000
,
0000
0000
0000
0000
,
0000
0000
0000
0000
,
0000
0000
0000
0000
,
0000
0000
0000
0000
,
0000
0000
0000
0000
,
0002
0000
0000
0000
,
0000
0003
0100
1000
,
1001
0000
0000
0000
,
0000
0000
0000
0000
,
1000
0100
0010
0001
,
0100
0010
1000
0100
,
0002
0000
2003
3000
,
0200
0000
0000
0300
,
1000
0001
1000
0001
,
1000
0001
1000
0001
,
0100
0010
0100
0010
,
0100
0010
0100
0010
,
2002
0000
0000
3003
,
0001
0000
0001
0000
,
1000
0000
0100
0000
,
0100
0000
0010
0000
,
1000
0000
0010
0000
,
0001
0000
0100
0000
,
1000
0000
0010
0000
,
0001
0000
0001
0000
,
0100
0000
0100
0000
,
1000
0000
1000
0000
,
0001
0000
0100
0000
,
1000
0000
0001
0000
,
0100
0000
0100
0000
,
0001
0001
0001
0001
,
2000
0000
0000
3000
,
0010
0000
1000
0000
,
0001
0000
0100
0000
,
0001
0001
1000
1000
,
0001
0001
1000
1000
,
0100
0001
0100
0001
,
0100
1000
0100
1000
,
0100
0001
0010
1000
,
0100
1000
0010
0001
,
1000
0100
0010
0001
,
1000
0010
0100
0001
,
0010
0100
0001
1000
,
0010
0100
1000
0001
,
1000
0010
1000
0010
,
0001
0010
0001
0010
,
1000
0001
1000
0001
,
0010
0100
0010
0100
,
1000
0000
0000
0001
0000
0000
1000
0000
,
0000
0100
0000
0000
0001
0000
0000
0000
,
0000
1000
0000
0000
1000
0000
0000
0001
,
0000
0100
0000
0000
,
0000
1000
0000
0000
0010
0000
0000
0001
,
0000
1000
0000
0000
,
0000
0100
0000
0000
0001
0000
0000
1000
,
0000
0000
0100
0000
0000
1000
0000
0000
,
0010
0000
0000
0001
0000
0000
0100
0000
,
0000
0010
0000
0000
0220
0000
0000
0000
,
0000
0000
0000
0000
,
0000
0000
0000
0000
,
0000
0000
0000
0000
,
0000
0000
0000
0000
0330
0000
0000
2002
,
0000
0000
0000
3003
;

//--------------- dance-single - KONAMI ----------------
#NOTES:
     dance-single:
     KONAMI:
     Medium:
     9:
     0,0,0,0,0:
0000
0000
0000
0000
,
0000
0000
0000
0000
,
0000
0000
0000
0000
,
0000
0000
0000
0000
,
0000
0000
0000
0000
,
0000
0000
0000
0000
,
1000
0200
0000
0300
,
0000
2000
0000
0000
3010
0000
0100
0000
,
0002
0000
1003
1000
0000
0000
0010
0000
,
0100
0101
0100
0101
,
0001
1000
0100
0000
0110
0000
2002
0000
,
0000
0000
0000
3003
,
2000
3000
0020
0030
,
0200
0000
0000
0300
,
0010
0010
0010
0010
,
0100
0100
0100
0100
,
0001
0101
1000
1100
,
0001
1000
0010
1100
,
2200
0000
0000
3300
,
0001
0010
0100
1000
,
0001
0010
0100
1000
,
0001
0100
0010
0000
1000
0100
0010
0000
,
0001
0010
0001
1001
,
0001
0100
0010
1000
,
0001
0100
0010
1000
,
1000
0010
0100
0000
0001
0010
0100
0000
,
1000
0010
1000
1001
,
0010
1001
0010
1001
,
0001
1000
0100
0010
,
0001
1000
0100
0010
,
0200
0000
0000
0300
,
1000
0100
0000
0000
1000
0100
0000
0000
1000
0100
0000
0000
1000
0100
0000
0000
,
0202
0000
0000
0303
,
0010
2000
0000
3000
,
0000
1000
0000
1000
0000
0001
0000
0001
,
1000
0010
0100
0000
2000
0000
0000
0000
,
3000
0100
0010
1000
,
0001
1000
0001
0000
0200
0000
0000
0000
,
0300
0010
0100
0001
,
1000
0010
0100
0000
0020
0000
0000
0000
,
0030
0100
0010
1000
,
0001
0010
0100
0000
2000
0000
3000
0000
,
1000
0010
0000
0000
0010
1000
0000
0000
1000
0001
0000
0000
0001
1000
0000
0000
,
0010
1000
0100
0000
1000
0100
0010
0000
,
0002
0000
1000
1003
,
0001
1000
0100
0000
1000
0100
0010
0000
,
0200
0000
1000
1300
,
0010
0100
0001
0000
1000
0001
0100
0000
,
0200
0000
0001
0301
,
1000
1000
0000
0010
0010
0000
0100
0100
,
0000
0001
0001
0000
0110
0000
0110
0000
,
0000
0101
0000
0000
1100
0000
0000
0110
,
0000
2002
0000
3003
,
0000
1010
0000
0000
0110
0000
0000
0101
,
0000
0220
0000
0330
,
0000
0110
0000
0000
1100
0000
0000
1001
,
0000
0000
0110
0000
0000
0101
0000
0000
,
1010
0000
0000
1001
0000
0000
0110
0000
,
0000
0001
0000
0000
1000
0000
0020
0000
,
0000
0000
2000
0030
,
0002
3000
0200
0000
,
0000
0000
0000
0000
,
0000
0000
0000
0000
0303
0000
0000
2002
,
0000
0000
0000
3003
;

//--------------- dance-single - KONAMI ----------------
#NOTES:
     dance-single:
     KONAMI:
     Hard:
     12:
     0,0,0,0,0:
0000
0000
0000
0000
,
0000
0000
0000
0000
,
0000
0000
0000
0000
,
0000
0000
0000
0000
,
0000
0000
0000
0000
,
0000
0000
0000
0000
,
0001
0100
0002
0000
0000
0000
0000
0000
0000
0000
0000
0000
0003
0000
0000
0000
,
0000
1000
0000
0000
0010
0000
1000
0000
,
0002
0000
0100
0100
0000
0000
0013
0000
,
0100
0010
0100
0001
0100
0010
0100
0000
,
1000
0010
0100
0001
0010
0100
2000
0000
,
0000
0000
0000
3000
,
0202
0303
2200
3300
,
2002
0000
0000
3003
,
0001
1000
0001
1000
,
0001
0100
1000
0100
,
1000
0001
0000
0000
0100
0000
0000
0000
0110
0000
0000
0000
0110
0000
0000
0000
,
0011
1010
0011
1010
,
0220
0000
0000
0330
,
0001
0010
0100
1000
0010
0100
0001
0010
,
0100
1000
0010
0100
0001
0010
0100
1000
,
0010
0001
0100
0001
0100
0001
0100
0001
,
1100
0101
1100
1100
,
1000
0010
0100
0001
1000
0010
0100
0001
,
1000
0010
0100
0001
1000
0010
0100
0001
,
1000
0100
1000
0100
1000
0100
1000
0100
,
0001
0100
1000
0100
0001
0010
1000
0010
,
0001
0100
1000
0001
0010
0100
0001
0100
,
1000
0100
0001
0010
1000
0010
0001
0100
,
1000
0001
0010
0100
1000
0001
1000
0001
,
2000
0000
0000
3000
,
1001
0110
1001
0110
,
0202
0000
0000
0303
,
1000
0200
0000
0300
,
0000
0010
0000
0010
0000
0010
0000
0010
,
1000
0100
1000
0010
0200
0000
0000
0000
,
0300
0001
0100
0001
1000
0000
0010
0000
,
1000
0001
1000
0010
0200
0000
0000
0000
,
0300
0001
0100
0001
0100
0000
1000
0000
,
0001
0010
0100
1000
0002
0000
0000
0000
,
0003
1000
0100
0010
0100
0000
1000
0000
,
0100
0010
0100
0010
0200
0000
0300
0000
,
1001
0011
1001
0101
,
0010
0000
1000
0000
0010
0000
1000
0000
0001
0000
0000
0000
0010
0000
0000
1001
,
0000
0001
1000
0100
1000
0000
0001
0000
,
1000
0000
0010
0000
0100
0000
0001
0000
1000
0000
0000
0000
0001
0000
0000
1100
,
0000
0010
0001
1000
0100
0000
0100
0000
,
0010
0000
1000
0000
0010
0000
1000
0000
0001
0000
0000
0000
0100
0000
0000
0101
,
0000
0010
0100
0010
0100
0000
1000
0000
,
0001
0001
0000
1000
1000
0000
0010
0010
,
0000
0100
0100
0000
1001
0000
1001
0000
,
0000
0110
0000
0000
1000
0000
0000
0101
,
0000
1000
0000
0000
,
0000
1100
0000
0000
0010
0000
0000
0101
,
0000
0010
0000
0000
,
0000
1100
0000
0000
0101
0000
0000
0110
,
0000
0000
0110
0000
0000
1010
0000
0000
,
0011
0000
0000
0110
0000
0000
0110
0000
,
0000
1100
0000
0000
0100
0000
0002
0000
,
0000
0000
2003
0100
,
0002
3000
0100
0000
,
0000
0000
0000
0003
,
0000
0000
0000
0100
0001
0100
0001
0100
0001
0100
0001
0100
0000
0000
2200
0000
,
0000
0000
0000
3300
;

//--------------- dance-single - OrangeRight ----------------
#NOTES:
     dance-single:
     OrangeRight:
     Challenge:
     14:
     0,0,0,0,0:
0000
0000
0000
0000
,
0000
0000
0000
0000
,
0000
0000
0000
0000
,
0000
0000
0000
0000
,
0000
0000
0000
0000
,
0000
0000
0000
0000
,
1000
0100
2000
0000
0001
0000
0000
0000
0010
0000
0000
0000
0100
0000
0000
0000
,
3010
0200
0001
0000
0320
0000
2030
0000
,
3200
0001
0010
1000
,
0310
0000
0001
0100
0001
0000
0010
0000
0100
0000
1000
0010
0000
0100
0001
0000
,
1000
0100
0010
0001
0100
0010
2000
0000
,
0010
0001
0100
3001
,
2200
3300
0022
0033
,
2002
0000
0000
3003
,
1000
0001
1000
0001
1000
0001
1000
0001
,
0100
0000
0010
0000
0100
0000
0010
0000
0100
0000
0010
0000
0100
0000
0010
0100
,
0001
1000
0010
0100
0001
1000
0100
0010
,
0001
0000
0100
0000
1000
0000
0100
0000
0001
0000
0010
0000
0001
1000
0001
2000
,
0002
0000
0000
3003
,
1000
0100
0010
1000
0010
0001
0100
0010
,
1000
0100
0001
0100
1000
0010
0001
0010
,
1000
0001
0010
0100
0010
1000
0010
0100
,
0010
0000
0001
0000
0100
0000
1000
0000
0100
0000
0001
0000
1000
0001
0000
0000
,
0001
0100
0010
0001
0010
1000
0100
0010
,
0001
0100
1000
0100
0001
0010
1000
0010
,
0001
1000
0010
0100
0010
0001
0010
0100
,
0010
1000
0100
0001
0100
1000
0010
1000
,
0100
0010
0001
1000
0010
0100
0001
1000
,
0010
0001
0010
1000
0100
0001
0100
1000
,
0010
0100
0001
1000
0100
0010
0001
1000
,
0002
1000
1000
1003
,
1001
0101
0110
1010
,
1000
0010
0100
0001
1000
0100
0010
0000
,
0002
2003
3020
0230
,
0302
0010
0000
0100
0000
1000
0000
0010
,
1003
0100
1000
0000
0010
0000
0200
0000
0001
0000
0000
0001
0000
0000
0001
0000
,
0301
0000
0010
0000
0100
0000
1000
0000
0001
0000
0000
1000
0000
0000
1000
0000
,
0001
0100
0001
0000
0010
0000
0200
0000
1000
0000
0000
1000
0000
0000
1000
0000
,
1300
0000
0010
0000
0100
0000
0001
0000
1000
0000
0000
0001
0000
0000
0001
0000
,
1000
0010
1000
0000
0001
0000
2000
0000
0100
0000
0000
0010
0000
0000
0100
0000
,
3001
0000
0010
0000
0100
0000
0010
0000
0001
0000
0000
1000
0000
0000
1000
0000
,
0001
0010
0001
0000
1000
0000
0002
0000
0010
0000
0000
0100
0000
0000
0010
0000
,
1003
0100
0010
0001
1000
1000
0001
0001
,
1000
0100
1000
0000
0010
0000
0100
0000
0001
0000
1000
0001
0000
0001
1000
0000
,
0001
0010
0001
0000
0100
0000
0010
0000
1000
0000
0001
1000
0000
0001
1000
0000
,
0001
0010
0001
0000
0100
0000
0010
0000
1000
0000
0001
1000
0000
1000
0001
0000
,
1000
0100
1000
0000
0010
0000
0100
0000
0001
0000
1000
0001
0000
0100
0010
0000
,
1000
0100
0010
0000
0001
0000
0100
0000
0010
0000
1000
0001
0000
1000
0100
0000
,
0010
0001
0100
0000
0010
0000
1000
0000
0100
0000
0010
0100
0000
1000
0001
0000
,
1001
1001
0000
1100
1100
0000
0101
0101
,
0000
0110
1001
0000
0011
0000
1010
0000
,
0001
2000
0000
3010
0200
0000
0301
0020
,
0000
0000
0130
0000
2000
0000
0000
0000
3001
0000
1000
0001
1000
0000
0000
0000
,
1000
0002
0000
0013
0200
0000
1300
0020
,
0000
0000
1030
0000
0002
0000
0000
0000
1003
0000
0100
0010
0100
0000
0000
0000
,
1000
0000
0001
0100
0001
0000
1000
0000
0001
0010
0001
0000
1000
0000
0100
0010
,
0100
0000
1000
0000
0010
0100
0001
0000
0001
0000
1000
0100
1000
0000
0001
0000
,
1000
0010
1000
0000
0001
0000
0100
0010
1000
0000
0001
0000
1000
0100
0010
0000
,
0010
0000
0001
1000
0001
1000
0001
0000
2000
0000
0000
0000
0010
0000
0000
0000
,
0001
0100
3002
0100
,
2003
0000
0100
0000
3001
1000
0001
0010
,
0100
1000
0010
0001
0010
1000
0100
0001
,
0100
0000
1000
0000
0001
0100
0001
0100
0010
1000
0100
1000
0100
0000
2200
0000
,
0000
0000
0000
3300
;

//--------------- dance-double - KONAMI ----------------
#NOTES:
     dance-double:
     KONAMI:
     Beginner:
     3:
     0,0,0,0,0:
00000000
00000000
00000000
00000000
,
00000000
00000000
00000000
00000000
,
00000000
00000000
00000000
00000000
,
00000000
00000000
00000000
00000000
,
00000000
00000000
00000000
00000000
,
00000000
00000000
00000000
00000000
,
00000001
00000000
00000000
00000000
,
00000000
00000000
00000100
00000100
,
00000100
00000000
00000000
00000000
,
00001000
00000000
00000000
00000000
,
00010000
00000000
00002000
00000000
,
00000000
00003000
00000000
00000000
,
00010000
00000000
00100000
00000000
,
10000000
00000000
00000000
00000000
,
00010000
00000000
00000000
00000000
,
00000000
00000000
00000000
00000000
,
00001000
00000000
00000000
00000000
,
00000000
00000000
00000000
00000000
,
00011000
00000000
00000000
00000000
,
00000100
00000000
00000010
00000000
,
00000100
00000000
00000010
00000000
,
00000001
00000000
00000000
00000000
,
00001000
00000000
00000000
00000000
,
00000010
00000000
00000100
00000000
,
00000010
00000000
00000100
00000000
,
00001000
00000000
00000000
00000000
,
00010000
00000000
00000000
00000000
,
01000000
00000000
00000000
00000000
,
10000000
00000000
00000000
00000000
,
00100000
00000000
00000000
00000000
,
01000000
00000000
00000000
00000000
,
00010000
00000000
01000000
00000000
,
00010000
00000000
00000000
00000000
,
00100000
00200000
00000000
00000000
,
00300000
00000000
00000000
00000000
,
00001000
00000000
00001000
00000000
,
00001000
00000000
00000000
00000000
,
00010000
00000000
00010000
00000000
,
00010000
00000000
00000000
00000000
,
00000100
00000000
00000100
00000000
,
00000100
00000000
00000000
00000000
,
00001000
00000000
00001000
00000000
,
00001000
00000000
00000000
00000000
,
00000001
00000000
00001000
00000000
,
00000001
00000000
00000000
00000000
,
00000100
00000000
00000010
00000000
,
00000100
00000000
00000000
00000000
,
00001000
00000000
00010000
00000000
,
00001000
00000000
00000000
00000000
,
00010000
00000000
00000000
00000000
,
01000000
00000000
00000000
00000000
,
00000000
10000000
00000000
00000000
10000000
00000000
00000000
01000000
,
00000000
01000000
00000000
00000000
,
00000000
00010000
00000000
00000000
00010000
00000000
00000000
00001000
,
00000000
00001000
00000000
00000000
,
00000000
00000100
00000000
00000000
00000100
00000000
00000000
00000001
,
00000000
00000000
00000001
00000000
00000000
00001000
00000000
00000000
,
00001000
00000000
00000000
00000100
00000000
00000000
00000100
00000000
,
00000100
00000000
00010000
00000000
,
00010000
00000000
00001000
00000000
,
00001000
00000000
00100000
00000000
,
00100000
00000000
00010000
00000000
,
00010000
00000000
00000000
00000000
00000000
00000000
00000000
10010000
;

//--------------- dance-double - KONAMI ----------------
#NOTES:
     dance-double:
     KONAMI:
     Easy:
     5:
     0,0,0,0,0:
00000000
00000000
00000000
00000000
,
00000000
00000000
00000000
00000000
,
00000000
00000000
00000000
00000000
,
00000000
00000000
00000000
00000000
,
00000000
00000000
00000000
00000000
,
00000000
00000000
00000000
00000000
,
00200000
00000000
00000000
00000000
,
00000000
00000000
00000000
00000000
,
02300000
00000000
00000000
00010000
,
00000000
00000000
00000000
03010000
,
00000000
10000000
00000000
00010000
,
00000000
10000000
00000000
00010000
,
01000000
00000000
01000000
00000000
,
01000000
00000000
00000000
00000000
,
10000000
10000000
00000000
00000000
,
00010000
00010000
00000000
00000000
,
00001000
00001000
00000000
00000000
,
00000001
00000001
00000000
00000000
,
00000200
00000000
00000000
00000300
,
00000001
00000100
00000001
00000100
,
00000010
00001000
00000010
00001000
,
00000100
00001000
00000100
00001000
,
00000001
00000010
00000001
00000000
,
00001000
00000100
00001000
00000100
,
00000010
00000001
00000010
00000001
,
00000100
00000001
00000100
00000001
,
00000010
00001000
00000010
00001000
,
00000001
00000000
00000001
00000000
,
00000100
00000000
00001000
00000000
,
00010000
00000000
01000000
00000000
,
10000000
00000000
10000000
00000000
,
00100000
00100000
01000000
01000000
,
00000000
00000000
00000000
00000000
,
00100000
00100000
01000000
01000000
,
00000000
00000000
00000000
00000000
,
20000000
00000000
00000000
30010000
,
02000000
00000000
00000000
03001000
,
00020000
00000000
00000000
00030100
,
00002000
00000000
00000000
00003001
,
00000002
00000000
00000000
00001003
,
00000020
00000000
00000000
00010030
,
00002000
00000000
00000000
00103000
,
00020000
00000000
00000000
10030000
,
01000000
00100000
00010000
00000000
,
01000000
00100000
10000000
00000000
,
01000000
00010000
00001000
00000000
,
00010000
00001000
00000100
00000000
,
00000001
00000100
00000010
00000000
,
00001000
00000100
00000010
00000000
,
00000001
00000000
00001000
00000000
,
00000001
00000000
00001000
00000000
,
00000000
00000001
00000000
00000000
00000001
00000000
00000000
00001000
,
00000000
00001000
00000000
00000000
,
00000000
00010000
00000000
00000000
00010000
00000000
00000000
10000000
,
00000000
10000000
00000000
00000000
,
00000000
00100000
00000000
00000000
00100000
00000000
00000000
01000000
,
00000000
00000000
01000000
00000000
00000000
00001000
00000000
00000000
,
00001000
00000000
00000000
00010000
00000000
00000000
00010000
00000000
,
00000000
00000100
00000000
00000000
00000100
00000000
00000000
00000000
,
00000010
00000000
00000010
00000000
,
00000100
00000000
00000200
00000000
,
00000000
00000000
00000000
00000000
,
00000000
00000000
00000000
00000000
00000000
00000300
00000000
00002002
,
00000000
00000000
00000000
00003003
;

//--------------- dance-double - KONAMI ----------------
#NOTES:
     dance-double:
     KONAMI:
     Medium:
     12:
     0,0,0,0,0:
00000000
00000000
00000000
00000000
,
00000000
00000000
00000000
00000000
,
00000000
00000000
00000000
00000000
,
00000000
00000000
00000000
00000000
,
00000000
00000000
00000000
00000000
,
00000000
00000000
00000000
00000000
,
00001000
00000001
00000000
00000000
00000000
00000000
00000000
00000000
,
00000000
00000100
00000000
00000000
00000010
00000000
00000100
00000000
,
00000020
00000000
00001000
00000000
,
00000100
00000000
00000001
00000030
,
00000010
00001000
00000100
00000001
00000100
00001000
00000020
00000000
,
00000000
00000000
00000000
00000030
,
00002000
00003000
00000002
00000003
,
00002002
00000000
00000000
00003003
,
00000100
00001000
00000100
00000001
,
00000100
00001000
00000100
00000001
,
00001001
00000010
00000100
00001000
,
00000010
00000100
00000001
00001000
,
00002002
00000000
00000000
00003003
,
00000001
00000000
00000100
00000000
00001000
00000000
00010000
00001000
,
00010000
00100000
10000000
01000000
,
10000000
00000000
01000000
00000000
00010000
00000000
00001000
00010000
,
00001000
00000010
00000001
00000000
,
00000100
00000000
00000010
00000000
00000100
00000000
00000001
00000100
,
00001000
00010000
01000000
10000000
,
00100000
00000000
01000000
00000000
00100000
00000000
10000000
01000000
,
00010000
00000000
00001000
00000000
00000100
00000000
00000001
00000010
,
00000100
00001000
00000001
00000000
00000100
00000001
00001000
00000000
,
00000010
00001000
00000001
00000000
00000010
00000001
00001000
00000000
,
00000010
00001000
00000100
00000000
00000010
00000001
00000100
00000000
,
00002002
00000000
00000000
00003003
,
00001001
00001001
00000110
00000110
,
00001001
00000000
00000000
00000000
,
10010000
10010000
01100000
01100000
,
10010000
00000000
00000000
00000000
,
00100000
00000000
00000000
00000000
00100000
00000000
00000000
00000000
10000000
00000000
00000000
01000000
00000000
00000000
00100000
00000000
,
00000000
00000000
00010000
00000000
00000000
00000000
00010000
00000000
01000000
00000000
00000000
00100000
00000000
00000000
10000000
00000000
,
01000000
00000000
00000000
00000000
00010000
00000000
00000000
00000000
00001000
00000000
00000000
00010000
00000000
00000000
00001000
00000000
,
00000000
00000000
00010000
00000000
00000000
00000000
00000100
00000000
00001000
00000000
00000000
00000001
00000000
00000000
00001000
00000000
,
00000100
00000000
00000000
00000000
00001000
00000000
00000000
00000000
00001000
00000000
00000000
00000001
00000000
00000000
00000100
00000000
,
00000000
00000010
00001000
00000001
00000010
00000000
00000000
00000000
,
00000010
00000000
00000000
00000000
00000001
00000000
00000000
00000000
00001000
00000000
00000000
00000100
00000000
00000000
00001000
00000000
,
00000000
00000100
00001000
00000001
00000100
00000000
00000000
00000000
,
00000100
00000000
00000000
00000000
00000100
00000000
00000000
00000000
00000001
00000000
00000000
00000010
00000000
00000000
00000100
00000000
,
00000000
00000000
00001000
00000000
00000000
00000000
00001000
00000000
00000010
00000000
00000000
00000100
00000000
00000000
00000001
00000000
,
00000010
00000000
00000000
00000000
00001000
00000000
00000000
00000000
00010000
00000000
00000000
00001000
00000000
00000000
00010000
00000000
,
00000000
00000000
00001000
00000000
00000000
00000000
00100000
00000000
00010000
00000000
00000000
10000000
00000000
00000000
00010000
00000000
,
00100000
00000000
00000000
00000000
00010000
00000000
00000000
00000000
00010000
00000000
00000000
10000000
00000000
00000000
00100000
00000000
,
00000000
01000000
00010000
10000000
01000000
00000000
00000000
00000000
,
01000000
00000000
10000000
00000000
00010000
00000000
10000000
01000000
,
00000000
00100000
00010000
00000000
01000000
00000000
10010000
00000000
,
00000000
11000000
00000000
00000000
01010000
00000000
00000000
11000000
,
00000000
01010000
00000000
00000000
,
00000000
10100000
00000000
00000000
00110000
00000000
00000000
10100000
,
00000000
00110000
00000000
00000000
,
00000000
10000000
00000000
10000000
01000000
00000000
01000000
00010000
,
00000000
00010000
00001000
00000000
00001000
00000010
00000000
00000010
,
00000001
00000000
00000001
00000100
00000000
00000100
00000001
00000000
,
00000000
00001001
00000000
00000000
00000110
00000000
00001001
00000000
,
00001000
00000100
00000010
00000000
00000001
00000100
00001000
00000000
,
00010000
01000000
10000000
00000000
00010000
01000000
00100000
00000000
,
10000000
00010000
10000000
00010000
00100000
01000000
00100000
01000000
,
10000000
00010000
00100000
01000000
10000000
00010000
01000000
20020000
,
00000000
00000000
00000000
30030000
;

//--------------- dance-double - KONAMI ----------------
#NOTES:
     dance-double:
     KONAMI:
     Hard:
     13:
     0,0,0,0,0:
00000000
00000000
00000000
00000000
,
00000000
00000000
00000000
00000000
,
00000000
00000000
00000000
00000000
,
00000000
00000000
00000000
00000000
,
00000000
00000000
00000000
00000000
,
00000000
00000000
00000000
00000000
,
10000000
00010000
10000000
00000000
00000000
00000000
00000000
00000000
00000000
00000000
00000000
00000000
00000000
00000000
00000000
00000000
,
00000000
00100000
00000000
00000000
00010000
00000000
00001000
00000000
,
00000200
00001000
00000000
00000010
,
00000000
00000001
00000000
00000301
,
00000010
00000001
00000100
00001000
00000100
00000010
00002000
00000000
,
00000000
00000000
00000000
00003000
,
00000022
00000033
00002200
00003300
,
00002002
00000000
00000000
00003003
,
00001000
00000100
00010000
00001000
,
00100000
00000000
00000000
00000000
00001000
00000000
00000000
00000000
01000000
00000000
00000000
00000000
00001000
00000000
00000000
00010000
,
00001000
00010000
00000010
00010000
,
00000100
00010000
00001000
01000000
,
20020000
00000000
00000000
30030000
,
10000000
01000000
10000000
01000000
00010000
01000000
00010000
00001000
,
00010000
00001000
00000100
00001000
00000100
00000010
00000100
00000010
,
00001000
00000010
00001000
00000001
00001000
00000001
00000100
00000001
,
00000100
00001000
00000100
00001000
00010000
00000000
00000000
00000000
,
00001000
00010000
00001000
00010000
00100000
00010000
00100000
00010000
,
00100000
01000000
00100000
01000000
00010000
01000000
00010000
00100000
,
00010000
00100000
00001000
00010000
00001000
00010000
00000100
00010000
,
00000100
00010000
00000100
00000010
00000100
00000010
00000100
00010000
,
00001000
00000100
00000001
00000000
00000010
00001000
00010000
00000000
,
01000000
10000000
00100000
00000000
10000000
00010000
01000000
00000000
,
00001000
00010000
00000010
00000000
00001000
00000001
00000100
00000000
,
00002002
00000000
00000000
00003003
,
00000101
00000101
00001100
00001100
,
00001001
00000000
00000000
00000000
,
01010000
01010000
11000000
11000000
,
10010000
00000000
00000000
00000000
,
00100000
00000000
10000000
00000000
00100000
00000000
10000000
00000000
01000000
00000000
00000000
01000000
00000000
00000000
01000000
00000000
,
00000000
00000000
00010000
00000000
00001000
00000000
00010000
00000000
00000100
00000000
00000000
00000100
00000000
00000000
00000100
00000000
,
00001000
00000000
00000010
00000000
00001000
00000000
00000010
00000000
00010000
00000000
00000000
00010000
00000000
00000000
00010000
00000000
,
00000000
00000000
00000100
00000000
00001000
00000000
00000100
00000000
00000001
00000000
00000000
00000001
00000000
00000000
00000001
00000000
,
00000100
00000000
00010000
00000000
00000100
00000000
00010000
00000000
00001000
00000000
00000000
00001000
00000000
00000000
00001000
00000000
,
00000000
00000010
00000001
00000010
00000001
00000000
00000000
00000000
,
00000100
00000000
00001000
00000000
00000100
00000000
00001000
00000000
00010000
00000000
00000000
00010000
00000000
00000000
00010000
00000000
,
00000000
00100000
10000000
00100000
10000000
00000000
00000000
00000000
,
10000000
00000000
01000000
00000000
00100000
00000000
00010000
00000000
01000000
00000000
00000000
01000000
00000000
00000000
01000000
00000000
,
00000000
00000000
00100000
00000000
00010000
00000000
00001000
00000000
00000010
00000000
00000000
00000010
00000000
00000000
00000010
00000000
,
00000100
00000000
00000001
00000000
00000100
00000000
00001000
00000000
00000001
00000000
00000000
00000001
00000000
00000000
00000001
00000000
,
00000000
00000000
00000010
00000000
00000100
00000000
00010000
00000000
00001000
00000000
00000000
00001000
00000000
00000000
00001000
00000000
,
00010000
00000000
00100000
00000000
01000000
00000000
00001000
00000000
00010000
00000000
00000000
00010000
00000000
00000000
00010000
00000000
,
00000000
00001000
00000100
00000001
00000010
00000000
00000000
00000000
,
00001000
00000010
00000001
00000100
00001000
00000000
00010000
00001000
,
00000000
00010000
01000000
00000000
11000000
00000000
10010000
00000000
,
00000000
01010000
00000000
00000000
11000000
00000000
00000000
10100000
,
00000000
00110000
00000000
00000000
,
00000000
00001010
00000000
00000000
00000011
00000000
00000000
00000101
,
00000000
00001100
00000000
00000000
,
00000000
00011000
00000000
00001000
01001000
00000000
01000000
01010000
,
00000000
00010000
10010000
00000000
10000000
10100000
00000000
00100000
,
01100000
00000000
01000000
01001000
00000000
00010000
00011000
00000000
,
00000000
00011000
00000000
00000000
00001100
00000000
00001001
00000000
,
00000010
00000001
00000100
00001000
00010000
01000000
10000000
00000000
,
00100000
10000000
01000000
00010000
00001000
00000100
00000001
00000000
,
00001000
00000100
00010000
00001000
01000000
00001000
00010000
01000000
,
10000000
01000000
00001000
00000100
00000010
00000001
00001000
00002002
,
00000000
00000000
00000000
00003003
;

//--------------- dance-double - OrangeRight ----------------
#NOTES:
     dance-double:
     OrangeRight:
     Challenge:
     14:
     0,0,0,0,0:
00000000
00000000
00000000
00000000
,
00000000
00000000
00000000
00000000
,
00000000
00000000
00000000
00000000
,
00000000
00000000
00000000
00000000
,
00000000
00000000
00000000
00000000
,
00000000
00000000
00000000
00000000
,
10000000
00010000
20000000
00000000
01000000
00000000
00000000
00000000
00100000
00000000
00000000
00000000
00010000
00000000
00000000
00000000
,
31000000
20000000
00010000
00000000
30020000
00000000
02030000
00000000
,
03002000
00010000
00100000
00013000
,
00010000
00001000
00010000
00000100
00001000
00000010
00000100
00000000
,
00000001
00000100
00001000
00000100
00000001
00000010
00000200
00000000
,
00001000
00000010
00000001
00000310
,
00002200
00003300
00000022
00000033
,
00002002
00000000
00000000
00003003
,
00000001
00001000
00000001
00001000
00000001
00001000
00000001
00001000
,
00000100
00000000
00010000
00000000
00000100
00000000
00010000
00000000
00000100
00000000
00010000
00000000
00000100
00000000
00010000
00001000
,
00100000
00001000
00100000
00001000
00100000
00001000
00100000
00001000
,
10000000
00000000
00010000
00000000
10000000
00000000
00010000
00000000
10000000
00000000
00010000
00000000
10000000
00010000
10000000
00020000
,
20000000
00000000
00000000
30030000
,
10000000
01000000
00100000
10000000
00100000
00010000
01000000
00001000
,
00010000
00000100
00001000
00000010
00000001
00000010
00001000
00000100
,
00000001
00000100
00000010
00000100
00001000
00000100
00000010
00000001
,
00000010
00000000
00000100
00000000
00000010
00000000
00001000
00000000
00000010
00000000
00000001
00000000
00001000
00000001
00000000
00000000
,
00000001
00000100
00000010
00000001
00000010
00001000
00000100
00010000
,
00001000
01000000
00010000
00100000
10000000
00100000
00010000
01000000
,
00100000
01000000
10000000
01000000
00100000
01000000
00010000
00100000
,
01000000
00100000
10000000
00100000
01000000
00100000
00010000
10000000
,
00100000
01000000
00010000
00100000
00001000
00010000
00000100
00001000
,
00000010
00000100
00000010
00000001
00000010
00000100
00000010
00001000
,
00000100
00010000
00001000
00100000
00010000
01000000
10000000
01000000
,
00020000
10000000
10000000
10030000
,
10010000
01010000
00110000
00101000
,
00100000
00001000
00010000
00000000
00000100
00001000
00000010
00000000
,
00002000
00003020
00000230
00000302
,
00002003
00000001
00000000
00000001
00000000
00000001
00000000
00000001
,
00003001
00000000
00000100
00000000
00000010
00000000
00002000
00000000
00000001
00000000
00000000
00000001
00000000
00000000
00000001
00000000
,
00003100
00000000
00010000
00000000
00001000
00000000
01000000
00000000
00010000
00000000
00000000
00100000
00000000
00000000
01000000
00000000
,
10000000
00000000
00100000
00000000
01000000
00000000
00020000
00000000
10000000
00000000
00000000
10000000
00000000
00000000
10000000
00000000
,
00130000
00000000
01000000
00000000
10000000
00000000
00010000
00000000
10000000
00000000
00000000
00010000
00000000
00000000
10000000
00000000
,
00100000
00000000
01000000
00000000
00010000
00000000
00200000
00000000
00001000
00000000
00000000
00001000
00000000
00000000
00001000
00000000
,
00310000
00000000
00100000
00000000
00001000
00000000
00010000
00000000
00000100
00000000
00000000
00001000
00000000
00000000
00000001
00000000
,
00000010
00000000
00000100
00000000
00010000
00000000
00002000
00000000
01000000
00000000
00000000
00100000
00000000
00000000
01000000
00000000
,
00013000
00001000
00100000
00010000
01000000
00100000
10000000
00010000
,
10000000
01000000
10000000
00000000
00100000
00000000
01000000
00000000
00010000
00000000
01000000
00010000
00000000
01000000
00010000
00000000
,
00100000
00000000
00001000
00000000
00010000
00000000
00000100
00000000
00001000
00000000
00000001
00001000
00000000
00000001
00001000
00000000
,
00000001
00000010
00000001
00000000
00000100
00000000
00000010
00000000
00001000
00000000
00000100
00001000
00000000
00000100
00001000
00000000
,
00000100
00000000
00010000
00000000
00001000
00000000
00100000
00000000
00010000
00000000
01000000
00100000
00000000
10000000
00010000
00000000
,
00100000
00001000
00010000
00000000
00000100
00000000
00001000
00000000
00000010
00000000
00001000
00000100
00000000
00000100
00001000
00000000
,
00000100
00010000
00001000
00000000
00100000
00000000
00010000
00000000
01000000
00000000
00010000
00100000
00000000
00100000
00010000
00000000
,
10000000
11000000
00000000
00010000
01010000
00000000
00100000
00101000
,
00000000
00000100
00010100
00000000
00001100
00000000
00000011
00000000
,
00001000
00000002
00000000
00000103
00000020
00000000
00001030
00000200
,
00000000
00000000
00000310
00000000
00000002
00000000
00000000
00000000
00001003
00000000
00000100
00001000
00000100
00000000
00000000
00000000
,
00000100
00020000
00000000
00031000
00200000
00000000
00310000
02000000
,
00000000
00000000
03100000
00000000
20000000
00000000
00000000
00000000
30010000
00000000
01000000
00010000
01000000
00000000
00000000
00000000
,
00010000
00000000
10000000
01000000
10000000
00000000
00010000
00000000
10000000
00100000
10000000
00000000
00010000
00000000
10000000
00010000
,
10000000
00000000
00010000
00000000
01000000
00001000
01000000
00000000
00001000
00000000
00010000
00000100
00010000
00000000
00000010
00000000
,
00001000
00000001
00001000
00000000
00000001
00000000
00001000
00000010
00001000
00000000
00000001
00000000
00001000
00000100
00001000
00000000
,
00000001
00000000
00001000
00000001
00001000
00000001
00001000
00000000
00000002
00000000
00000000
00000000
00000010
00000000
00000000
00000000
,
00001000
00000100
00000023
00000100
,
00000032
00000000
00000010
00000000
00000103
00001000
00000100
00000001
,
00000010
00001000
00010000
00100000
10000000
01000000
00010000
00001000
,
00010000
00000000
00000010
00000000
00001000
00000100
00001000
00000100
00000010
00000001
00000100
00000001
00000100
00000000
00000202
00000000
,
00000000
00000000
00000000
00000303
;
