#TITLE:GO HARD;
#SUBTITLE:;
#ARTIST:Studio Bongo Mango feat. AKLO;
#TITLETRANSLIT:;
#SUBTITLETRANSLIT:;
#ARTISTTRANSLIT:;
#GENRE:;
#CREDIT:;
#MUSIC:GO HARD.mp3;
#BANNER:;
#BACKGROUND:;
#CDTITLE:;
#SAMPLESTART:56.014;
#SAMPLELENGTH:15.000;
#SELECTABLE:YES;
#OFFSET:1.924;
#BPMS:0.000=120.000;
#STOPS:;
#BGCHANGES:;
#FGCHANGES:;

//--------------- dance-single - forcednature ----------------
#NOTES:
     dance-single:
     forcednature:
     Beginner:
     3:
     0,0,0,0,0:
0000
0000
0000
0000
,
0000
0000
0000
0000
,
0000
0000
0000
0000
,
0000
0000
0000
0000
,
0000
0000
0000
0000
,
1000
0000
0000
0000
,
0001
0000
0000
0000
,
0100
0000
0000
0000
,
0010
0000
0000
0000
,
1000
0000
1000
0000
,
1000
0000
0000
0000
,
0001
0000
0001
0000
,
0001
0000
0000
0000
,
0100
0000
0000
0010
,
0100
0000
0000
0010
,
0010
0000
0000
0100
,
0100
0000
0000
0000
,
1001
0000
0000
0100
,
0000
1000
0000
0000
,
1001
0000
0000
0100
,
0000
0001
0000
0010
,
0001
0000
0000
0001
,
1000
0000
0000
0001
,
1000
0000
0000
1000
,
0001
0000
0000
0000
,
1001
0000
0000
0100
,
0000
1000
0000
0000
,
1001
0000
0000
0100
,
0001
0001
0001
0001
,
0010
0000
0100
0100
,
1000
0000
0010
0010
,
0001
0000
0010
0010
,
1001
0000
0000
0100
,
0010
0000
0000
0100
,
1000
0000
0010
0010
,
0001
0000
0100
0100
,
0010
0000
0100
0010
,
1001
0000
0000
0100
,
0010
0000
0000
0000
,
1001
0000
0000
1000
,
0001
0001
0001
0001
,
1001
0000
0000
0000
,
0110
0000
0000
0000
,
1001
0000
0000
0000
,
0100
0100
0100
0100
,
1000
0000
0000
1000
,
0001
0000
0000
0001
,
0100
0000
0000
0100
,
0010
0000
0000
0010
,
1001
0000
0000
0100
;

//--------------- dance-single - forcednature ----------------
#NOTES:
     dance-single:
     forcednature:
     Easy:
     5:
     0,0,0,0,0:
0000
0000
0000
0000
,
0000
0000
0000
0000
,
0000
0000
0000
0000
,
0000
0000
0000
0000
,
0000
0000
0000
0000
,
1000
1000
0001
0000
,
0100
0100
0010
0000
,
0001
0001
1000
0000
,
0010
0010
0100
0000
,
1001
0100
1000
0010
,
1000
0001
0100
0001
,
0010
1000
0010
0001
,
0100
0010
1000
0001
,
2000
0100
0100
3100
,
0002
0100
0100
0103
,
2000
0010
0010
3010
,
0002
0010
0010
0013
,
2002
3003
1000
0010
,
0100
0000
0001
0010
,
2002
3003
0100
1000
,
0001
0000
0100
1000
,
0100
0100
0001
0000
,
0010
0010
1000
0000
,
0001
0001
0010
0000
,
1000
1000
0100
0000
,
2002
3003
0001
0100
,
0010
0000
1000
0100
,
0220
0330
0010
0001
,
0100
0100
0010
1000
,
0001
0100
0110
1001
,
1000
0100
0110
1001
,
0001
0100
1010
0101
,
1000
0100
0010
0000
,
0001
0100
0010
0000
,
1000
0100
0101
1100
,
0010
0001
0110
1001
,
0010
1000
0011
1010
,
0001
0100
0010
0000
,
1000
0100
0010
0000
,
1000
0001
0100
0110
,
0001
1000
0100
0100
,
0010
0010
0000
0000
0000
0000
0000
0000
,
0100
0100
0000
0000
0000
0000
0000
0000
,
1000
1000
0000
0000
0000
0000
0000
0000
,
0001
0001
0001
0000
1000
1000
1000
0000
,
1001
0001
0100
0000
,
0010
1000
0100
0000
,
0110
0001
1000
0000
,
0010
1000
0001
0000
,
0010
0010
0000
0000
0000
0000
1001
0000
;

//--------------- dance-single - forcednature ----------------
#NOTES:
     dance-single:
     forcednature:
     Medium:
     10:
     0,0,0,0,0:
0000
0000
0000
0000
,
0000
0000
0000
0000
,
0000
0000
0000
0000
,
0000
0000
0000
0000
,
0000
0000
0000
0000
,
0001
0000
0000
0000
0001
0000
0000
0100
0000
0000
0010
0000
1000
0000
0000
0000
,
1000
0000
0000
0000
1000
0000
0000
0100
0000
0000
0010
0000
0001
0000
0000
0000
,
0100
0000
0000
0000
0100
0000
0000
0010
0000
0000
1000
0000
0001
0000
0000
0000
,
0100
0000
0000
0000
0100
0000
0000
0010
0000
0000
0001
0000
1000
0000
0000
0000
,
1001
0000
0000
0000
0100
0000
0000
1000
0000
0000
0010
0000
0100
0000
0001
0000
,
0100
0000
0000
0000
0010
0000
0000
1000
0000
0000
0001
0000
0010
0000
0001
0000
,
0100
0000
0000
0000
0010
0000
0000
1000
0000
0000
0100
0000
0010
0000
0001
0000
,
0100
0000
0000
0000
1000
0000
0000
0100
0000
0000
0010
0000
0000
0000
0000
0000
,
1000
0001
0000
0000
0100
0000
0001
1000
0000
0000
0100
0000
0010
0000
0000
0000
,
0001
0100
0000
0000
0010
0000
1000
0100
0000
0000
0010
0000
0001
0000
0000
0000
,
0100
0010
0000
0000
1000
0000
0001
0010
0000
0000
0100
0000
1000
0000
0000
0000
,
0010
0100
0000
0000
0001
0000
1000
0100
0000
0000
0010
0000
0001
0000
0000
0000
,
2001
0100
0001
3010
,
0100
1000
0010
0100
0001
0010
0100
0000
,
0012
1000
0100
0013
,
0100
1000
0001
0100
0010
1000
0001
0000
,
0001
0010
0000
0000
0100
0000
1000
0001
0000
0000
0100
0000
0010
0000
0000
0000
,
1000
0100
0000
0000
0010
0000
0100
1000
0000
0000
0001
0000
0100
0000
0000
0000
,
0010
1000
0000
0000
0001
0000
0010
0001
0000
0000
0100
0000
0010
0000
0000
0000
,
1000
0100
0000
0000
1000
0000
0001
0100
0000
0000
0010
0000
1000
0000
0000
0000
,
1200
0010
0001
0310
,
0100
0010
0001
0000
0100
0010
1000
0000
,
0201
0010
1000
0310
,
0100
0000
0001
0000
1000
0000
0000
0100
1000
0000
0000
0100
1000
0000
0000
0000
,
0010
1000
0100
0000
0201
0000
1300
0000
,
0010
1000
0001
0000
1020
0000
0031
0000
,
0100
0010
1000
0000
1100
0000
0101
0000
,
0010
0000
0000
0010
0100
0000
0000
0100
1000
0000
0000
0000
0101
0000
0000
0000
,
1000
0000
0000
1000
0010
0000
0000
0010
0100
0000
0000
0000
0002
0000
0000
0000
,
0103
1000
0100
0000
0120
0000
0031
0000
,
0010
1000
0100
0000
0201
0000
1300
0000
,
0010
1000
0001
0000
1100
0000
0101
0000
,
0001
0000
0000
0001
1000
0000
0000
1000
0010
0000
0000
0000
0101
0000
0000
0000
,
0001
0000
0000
0001
0010
0000
0000
0010
0200
0000
0000
0000
0300
0000
0000
0000
,
1100
0000
0000
0100
0010
0000
0000
0010
0001
0000
0000
0000
0101
0000
0000
0000
,
1001
0000
0000
1000
0010
0000
0000
0010
0100
0000
0000
0100
0001
0000
0000
0000
,
0010
0020
0100
0000
1000
0000
0031
0000
,
0100
0200
0010
0000
1000
0000
0301
0000
,
1000
2000
0100
0000
0001
0000
3010
0000
,
0001
1000
1001
0000
0100
0010
0110
0000
,
1001
0000
0000
0000
0001
0000
0000
0100
0000
0000
0010
0000
1000
0000
0000
0000
,
0100
0000
0000
0000
0010
0000
0000
0001
0000
0000
1000
0000
0010
0000
0000
0000
,
1100
0000
0000
0000
0100
0000
0000
0010
0000
0000
0001
0000
1000
0000
0000
0000
,
0010
0000
0000
0000
0100
0000
0000
0001
0000
0000
1000
0000
0100
0000
0000
0000
,
1001
1001
0000
0000
0000
1000
0100
0001
;

//--------------- dance-single - forcednature ----------------
#NOTES:
     dance-single:
     forcednature:
     Hard:
     13:
     0,0,0,0,0:
0000
0000
0000
0000
,
0000
0000
0000
0000
,
0000
0000
0000
0000
,
0000
0000
0000
0000
,
0000
0000
0000
0000
,
2000
0000
0000
0000
0100
0000
0000
0001
3000
0000
1000
0000
0010
0000
0100
0000
,
0002
0000
0000
0000
0100
0000
0000
1000
0003
0001
0010
0000
0100
0000
1000
0000
,
0020
0000
0000
0000
0001
0000
0000
1000
0030
0000
0010
0000
0100
0000
0001
0000
,
0020
0000
0000
0000
1000
0000
0000
0001
0030
0010
0100
0000
1001
0000
0000
0000
,
0110
0000
0000
0100
1000
0000
0001
1000
0000
0000
0010
0000
0100
0000
0001
0000
,
0010
0000
0000
0010
0001
0000
1000
0001
0000
0000
0100
0000
0010
0000
1000
0000
,
0001
0000
0000
0001
0010
0000
0100
1000
0000
0000
0010
0000
0100
0000
0001
0000
,
1000
0000
1000
0010
0100
0000
0000
0001
0010
0000
0100
0000
0010
0000
0000
0000
,
0001
0000
0010
0000
0100
0000
0010
0001
0000
0010
0100
0000
1000
0000
0001
0000
,
0000
0000
1000
0000
0010
0000
0100
0001
0000
1000
0100
0000
1000
0000
0010
0000
,
0000
0000
0100
0000
1000
0000
0100
0001
0000
0100
0010
0000
1000
0000
0001
0000
,
0010
0000
0100
0000
1000
0000
0001
0100
0000
1000
0100
0000
0010
0000
0110
0000
,
1002
0000
0000
0000
1003
0000
0000
0100
0001
0000
0100
0000
0010
0100
0000
0000
,
1000
0000
0010
0000
0100
0000
0000
0001
0010
0000
0100
0000
1000
0000
0001
0000
,
2001
0000
0000
0000
3001
0000
0000
0010
1000
0000
0010
0000
0100
0010
0000
0000
,
0001
0000
0100
0000
0010
0000
0000
1000
0001
0000
0000
0000
0010
0000
0000
0000
,
0100
0000
1000
0000
0010
0000
1000
0100
0000
0000
0110
0000
1001
0000
0110
0000
,
0000
0000
0001
0000
0100
0000
0010
1000
0000
0001
0010
0000
0110
0000
1001
0000
,
0000
0000
0001
0000
0100
0000
1000
0100
0000
0010
0100
0000
0101
0000
1010
0000
,
1000
0000
0100
0000
0010
0000
0001
0010
0000
1000
0010
0000
0001
0000
0100
0000
,
2001
0000
0000
0000
3001
0000
0000
0100
0010
0000
1000
0000
0100
0010
0000
0000
,
0001
0000
0100
0000
1000
0000
0000
0100
0010
0000
1000
0000
0001
0000
0010
0000
,
1002
0000
0000
0000
1003
0000
0000
0010
0100
0000
0001
0000
1000
0100
0000
0000
,
0010
0000
0001
1000
1000
0000
1000
0001
0001
0000
0000
0100
0100
0000
0000
0000
,
0110
0000
1000
0000
0001
0010
0000
1000
0020
0000
0030
0000
0110
0000
0000
0000
,
1000
0000
0100
0000
1000
0000
0010
0001
0020
0000
0030
0000
0110
0000
0000
0000
,
0001
0000
0100
0000
0010
1000
0000
0001
0002
0000
0003
0000
1100
0000
0000
0000
,
1000
0010
0100
0001
0000
1000
0010
0100
0001
0000
0000
0000
0110
0000
0000
0000
,
1000
0100
0010
0001
0000
1000
0100
0010
0001
0000
0000
0000
1001
0000
0000
0000
,
0101
0000
0001
0000
0010
1000
0000
0010
0200
0000
0300
0000
1100
0000
0000
0000
,
1000
0000
0010
0000
0001
0000
0010
0100
0020
0000
0030
0000
1001
0000
0000
0000
,
0001
0000
0100
0000
0001
0010
0000
1000
0020
0000
0030
0000
1001
0000
0000
0000
,
1000
0100
1000
0010
0000
1000
0100
1000
0010
0000
0000
0000
0110
0000
0000
0000
,
0001
0100
0001
0010
0000
0001
0100
0001
0010
0000
0000
0000
0000
0000
0000
0000
,
0001
0100
1000
0100
0000
0001
0100
1000
0100
0000
0000
0000
0110
0000
0000
0000
,
1000
0100
0001
0100
0000
1000
0100
0001
0100
0000
0000
0010
0010
0000
0000
0000
,
0110
0000
0110
0000
0002
0000
0000
2003
0000
0000
3010
0000
0100
0000
0001
0000
,
1001
0000
1001
0000
2000
0000
0000
3200
0000
0310
0001
0010
0001
0000
0100
0000
,
0110
0000
0110
0000
2000
0000
0000
3002
0000
0000
0103
0000
1000
0000
0100
0000
,
1001
1001
1001
0000
0110
0110
0110
0000
,
1001
0000
0001
0000
0100
0000
1000
0100
0000
0010
0100
0000
0001
0000
0010
0000
,
0100
0000
0001
0000
1000
0000
0010
0001
0000
0010
0100
0000
1000
0000
0001
0000
,
1001
0000
1000
0000
0010
0000
0001
0010
0000
0100
1000
0000
0100
0000
0001
0000
,
0010
0000
0100
0000
0001
0000
0100
1000
0000
0001
0010
0000
1000
0000
0010
0000
,
0110
0000
0110
0000
1000
0000
0000
0001
0000
0000
0100
0000
0010
0000
0100
0000
;

//--------------- dance-double - forcednature ----------------
#NOTES:
     dance-double:
     forcednature:
     Easy:
     5:
     0,0,0,0,0:
00000000
00000000
00000000
00000000
,
00000000
00000000
00000000
00000000
,
00000000
00000000
00000000
00000000
,
00000000
00000000
00000000
00000000
,
00000000
00000000
00000000
00000000
,
00001000
00010000
01000000
00000000
,
00010000
00001000
00000100
00000000
,
00001000
00010000
01000000
00000000
,
00010000
00001000
00000100
00000000
,
00001001
00000001
00000100
00000000
,
00000010
00001000
00000100
00000000
,
00010000
00001000
01000000
00000000
,
00010000
10000000
01000000
00000000
,
00200000
00000000
00301000
00000000
,
00000200
00000000
00010300
00000000
,
02000000
00000000
03001000
00000000
,
00000020
00000000
00010030
00000000
,
00022000
00000000
00000000
00033000
00000000
00000000
00000000
00000000
,
01000000
00010000
00100000
00000000
,
00022000
00000000
00000000
00033000
00000000
00000000
00000000
00000000
,
00000100
00001000
00000010
00000000
,
00000100
00001000
00010000
00000000
,
00100000
00010000
00001000
00000000
,
00000010
00001000
00010000
00000000
,
01000000
00010000
00001000
00000000
,
00022000
00000000
00000000
00033000
00000000
00000000
00000000
00000000
,
01000000
00001000
00100000
00000000
,
00022000
00000000
00000000
00033000
00000000
00000000
00000000
00000000
,
00000100
00010000
00000010
00010000
,
00001000
00100000
01100000
10010000
,
10000000
00010000
10010000
01100000
,
01000000
00001000
00011000
00011000
,
00010000
00000100
00010000
00000000
,
00000100
00010000
00000100
00000000
,
00000010
00000001
00001001
00000110
,
00000001
00000100
00000110
00001001
,
00001000
00000100
00011000
00011000
,
01000000
00001000
00010000
00010000
,
00000100
00010000
00001000
00001000
,
00100000
00001000
00010000
00010000
,
00000010
00010000
00001000
00001000
,
01000000
01000000
00000000
00000000
00000000
00000000
00000000
00000000
,
00100000
00100000
00000000
00000000
00000000
00000000
00000000
00000000
,
10000000
10000000
00000000
00000000
00000000
00000000
00000000
00000000
,
00010000
00010000
00010000
00000000
00010000
00010000
00010000
00000000
,
01000000
00001000
00010000
00000100
,
00001000
00000001
00000100
00000010
,
00001000
00000100
00000010
00000001
,
00000100
00000010
00010000
00001000
,
00000010
00000020
00000000
00000000
00000000
00000000
00000130
00000000
;

//--------------- dance-double - forcednature ----------------
#NOTES:
     dance-double:
     forcednature:
     Medium:
     9:
     0,0,0,0,0:
00000000
00000000
00000000
00000000
,
00000000
00000000
00000000
00000000
,
00000000
00000000
00000000
00000000
,
00000000
00000000
00000000
00000000
,
00000000
00000000
00000000
00000000
,
00010000
00000000
00000000
00000000
00001000
00000000
00000000
00000100
00000000
00000000
00000000
00000000
00000010
00000000
00000000
00000000
,
00001000
00000000
00000000
00000000
00000001
00000000
00000000
00000010
00000000
00000000
00000000
00000000
00000100
00000000
00000000
00000000
,
00010000
00000000
00000000
00000000
00001000
00000000
00000000
01000000
00000000
00000000
00000000
00000000
00010000
00000000
00000000
00000000
,
10000000
00000000
00000000
00000000
00100000
00000000
00000000
10000000
00000000
00000000
00000000
00000000
01000000
00000000
00000000
00000000
,
10010000
00000000
00010000
00000000
00100000
01000000
00010000
00001000
,
01000000
00000000
00010000
00000000
00001000
00000010
00010000
00001000
,
00000010
00000000
00000100
00000000
00001000
00000001
00000100
00001000
,
00010000
00010000
00100000
00000000
10000000
00000000
01000000
00000000
,
00100000
00001000
00010000
00100000
00010000
00001000
00100000
00000000
,
01000000
00010000
00001000
00000100
00001000
00010000
01000000
00000000
,
00100000
00001000
00010000
00000010
00010000
00001000
00000010
00000000
,
00000100
00001000
00000001
00000100
00001000
00010000
00100000
00000000
,
20020000
00000000
00000000
30030000
00000000
00000000
00000000
00000000
,
10000000
01000000
00010000
00001000
,
00002002
00000000
00000000
00003003
00000000
00000000
00000000
00000000
,
00000001
00000100
00001000
00010000
,
00100000
10000000
01000000
00010000
00001000
01000000
00100000
00000000
,
00010000
00001000
00000010
00000100
00001000
00000001
00000100
00000000
,
00000010
00010000
00100000
00010000
00001000
00010000
01000000
00000000
,
00100000
00001000
00010000
00100000
01000000
00010000
10000000
00000000
,
20020000
00000000
00000000
30030000
00000000
00000000
00000000
00000000
,
10000000
00010000
00001000
00000001
,
00002002
00000000
00000000
00003003
00000000
00000000
00000000
00000000
,
00000001
00000000
00000100
00000000
00001000
00000000
00000000
00001000
00010000
00000000
00000000
00001000
00010000
00000000
00000000
00000000
,
01000000
00100000
00010000
10000000
10010000
00000000
01100000
00000000
,
00010000
01000000
00001000
00010000
00010100
00000000
00101000
00000000
,
00001000
00010000
00000010
00001000
00001001
00000000
00000110
00000000
,
00000001
00000100
00001000
00010000
00100000
00000000
10010000
00000000
,
10000000
01000000
00010000
00001000
00000010
00000000
00001001
00000000
,
00000001
00000100
00000010
00010000
00011000
00000000
00101000
00000000
,
01000000
00010000
00100000
01000000
01100000
00000000
10010000
00000000
,
10000000
01000000
00010000
00001000
01001000
00000000
00010010
00000000
,
00000001
00001000
00010000
10000000
00100000
00000000
10010000
00000000
,
10000000
00010000
00001000
00000001
00000010
00000000
00000000
00000000
,
00000001
00001000
00010000
10000000
00100000
00000000
10010000
00000000
,
10000000
00010000
00001000
00000001
00000010
00000000
00001001
00000000
,
00000001
00000000
00000001
00000000
00000200
00000000
00000000
00002300
00000000
00000000
00000000
00000000
00003000
00000000
00000000
00000000
,
10000000
00000000
10000000
00000000
02000000
00000000
00000000
03020000
00000000
00000000
00000000
00000000
00030000
00000000
00000000
00000000
,
00000001
00000000
00000001
00000000
00000200
00000000
00000000
00002300
00000000
00000000
00000000
00000000
00003000
00000000
00000000
00000000
,
00011000
00011000
00011000
00000000
00011000
00011000
00011000
00000000
,
01000000
00010000
00100000
01000000
00010000
00001000
01000000
00000000
,
00100000
00010000
00001000
00000010
00001000
00010000
00001000
00000000
,
00000100
00000001
00001000
00000100
00010000
00001000
00010000
00000000
,
00100000
10000000
01000000
00010000
01000000
00100000
00001000
00000000
,
00011000
00000000
00011000
00000000
00001000
00000000
00000000
01000000
00000000
00000000
00100000
00000000
00100000
00000000
10000000
00000000
;

//--------------- dance-double - forcednature ----------------
#NOTES:
     dance-double:
     forcednature:
     Hard:
     13:
     0,0,0,0,0:
00000000
00000000
00000000
00000000
,
00000000
00000000
00000000
00000000
,
00000000
00000000
00000000
00000000
,
00000000
00000000
00000000
00000000
,
00000000
00000000
00000000
00000000
,
00001000
00000000
00000000
00000000
00010000
00000000
00000000
01000000
00000000
00000000
00100000
00000000
00010000
00000000
10000000
00000000
,
00100000
00000000
00000000
00000000
00010000
00000000
00000000
00001000
00000000
00000010
00000100
00000000
00001000
00000000
00000001
00000000
,
00000100
00000000
00000000
00000000
00001000
00000000
00000000
00010000
00000000
00000000
01000000
00000000
00100000
00000000
00001000
00000000
,
00010000
00000000
00000000
00000000
00100000
00000000
00000000
10000000
00000000
00010000
00100000
00000000
01000000
00000000
00100000
00000000
,
00011000
00000000
00000000
00000000
00000011
00000000
00000000
00001100
00000000
00000000
00000001
00000000
00000100
00000000
00001000
00000000
,
00010000
00000000
00000000
00000000
01100000
00000000
00000000
10010000
00000000
10000000
01000000
00000000
00100000
00000000
00010000
00000000
,
01000000
00000000
00000000
00000000
00011000
00000000
00000000
00001010
00000000
00000000
00000001
00000000
00000010
00000000
00000100
00000000
,
00001000
00000000
00000010
00000000
00010000
00000000
00000000
00101000
00000000
00000000
01001000
00000000
10000000
00000000
00000000
00000000
,
01000000
00000000
00010000
00000000
00001000
00000000
00010000
00100000
00000000
00010000
00001000
00000000
00000010
00000000
00000200
00000000
,
00000300
00000000
00001000
00000000
00000001
00000000
00000100
00001000
00000000
00010000
00001000
00000000
00000010
00000000
00000200
00000000
,
00000300
00000000
00010000
00000000
00001000
00000000
00010000
00100000
00000000
01000000
00001000
00000000
00010000
00000000
02000000
00000000
,
03100000
00000000
00001000
00000000
00010000
00000000
00100000
10000000
00000000
00010000
00100000
00000000
01000000
00000000
01100000
00000000
,
20020000
00000000
00000000
30030000
10000000
00000000
01000000
00000000
,
00010000
00000000
00010000
00000000
00001000
00000000
00000000
00000010
00000000
00000000
00000000
00000000
00000001
00000000
00001000
00000000
,
00002002
00000000
00000000
00003003
00000001
00000000
00000100
00000000
,
00001000
00000000
00010000
00000000
00100000
00000000
00000000
01000000
00010000
00000000
00000000
00000000
01010000
00000000
00000000
00000000
,
10000000
00000000
01000000
00000000
00010000
00000000
00001000
01000000
00000000
00100000
00010000
00000000
00011000
00000000
00020200
00000000
,
00030300
00000000
00000010
00000000
00001000
00000000
00000001
00000010
00000000
00001000
00010000
00000000
00010100
00000000
00202000
00000000
,
00303000
00000000
01000000
00000000
00010000
00000000
10000000
01000000
00000000
00010000
00001000
00000000
01001000
00000000
00010010
00000000
,
00000001
00000000
00001000
00000000
00000100
00000000
00000001
00000100
00000000
00001000
00000010
00000000
00010000
00000000
00011000
00000000
,
00202000
00000000
00000000
00303000
01000000
00000000
10000000
00000000
,
00010000
00000000
00010000
00000000
01000000
00000000
00000000
00001000
00000000
00000000
00000000
00000000
00000010
00000000
00000100
00000000
,
00002002
00000000
00000000
00003003
00000001
00000000
00000100
00001000
,
00010000
00000000
00100000
01000000
01000000
00000000
00100000
01000000
01000000
00000000
00000000
01000000
01000000
00000000
00000000
00000000
,
10010000
00000000
10000000
00000000
01000000
00100000
00000000
00001000
00020000
00000000
00030000
00000000
02200000
00000000
03300000
00000000
,
01000000
00001000
00010000
00000100
00000220
00000330
00002002
00003003
,
00000001
00000000
00000100
00000000
00001000
00010000
00000000
00000100
00020200
00000000
00030300
00000000
00202000
00000000
00303000
00000000
,
10000000
01000000
00100000
00010000
00000000
00001000
00000100
00000010
00000001
00000000
00000000
00000000
00001001
00000000
00000000
00000000
,
00000001
00000100
00000010
00001000
00000000
00010000
01000000
00100000
10000000
00000000
00000000
00000000
10010000
00000000
00000000
00000000
,
10000000
00000000
01000000
00000000
00010000
00001000
00000000
01000000
00020000
00000000
00030000
00000000
02200000
00000000
03300000
00000000
,
00001000
00010000
00000010
00000100
00002200
00003300
00000202
00000303
,
00000001
00000000
00001000
00000000
00000010
00010000
00000000
00001000
02002000
00000000
03003000
00000000
00020020
00000000
00030030
00000000
,
00000001
00000100
00000010
00001000
00000000
00010000
01000000
00100000
10000000
00000000
00000000
00000000
10010000
00000000
00000000
00000000
,
10000000
01000000
00100000
00010000
00000000
00001000
00000100
00000010
00000001
00000000
00000000
00000000
00000000
00000000
00000000
00000000
,
00000001
00000100
00001000
00010000
00000000
00001000
00010000
01000000
10000000
00000000
00000000
00000000
10010000
00000000
00000000
00000000
,
10000000
01000000
00010000
00001000
00000000
00010000
00001000
00000100
00000001
00000000
00000000
00000001
00000001
00000000
00000010
00000000
,
00001001
00002001
00000000
00000000
00000000
00010000
00013000
00000000
,
10010000
10020000
00000000
00000000
00000000
00001000
00031000
00000000
,
00001001
00002001
00000000
00000000
00000000
00010000
00013000
00000000
,
10010000
10010000
10010000
00000000
01100000
01100000
01100000
00000000
,
10010000
00000000
10000000
00000000
01000000
00000000
01000000
00010000
00000000
00010000
00001000
00000000
00000010
00000000
00000001
00000000
,
00000100
00000000
00000010
00000000
00001000
00000000
00010000
01000000
00000000
01000000
00100000
00000000
10000000
00000000
01000000
00000000
,
00010000
00000000
00001000
00000000
00000010
00000000
00000100
00001000
00000000
00001000
00000001
00000000
00000100
00000000
00000010
00000000
,
00001000
00000000
00010000
00000000
01000000
00000000
00100000
10000000
00000000
10000000
01000000
00000000
00010000
00000000
00001000
00000000
,
00011000
00000000
00011000
00000000
00000100
00000000
00000000
00000010
00000000
00000000
00001000
00000000
01000000
00000000
00100000
00000000
;
