#TITLE:Fuzz Buster;
#SUBTITLE:;
#ARTIST:Smashtrax;
#TITLETRANSLIT:;
#SUBTITLETRANSLIT:;
#ARTISTTRANSLIT:;
#GENRE:;
#CREDIT:;
#MUSIC:Fuzz Buster.mp3;
#BANNER:;
#BACKGROUND:;
#CDTITLE:;
#SAMPLESTART:59.696;
#SAMPLELENGTH:13.241;
#SELECTABLE:YES;
#OFFSET:-0.110;
#BPMS:0.000=145.000;
#STOPS:;
#BGCHANGES:;
#FGCHANGES:;

//--------------- dance-single - MEGAtive ----------------
#NOTES:
     dance-single:
     MEGAtive:
     Beginner:
     3:
     0,0,0,0,0:
0000
0000
0000
0000
,
0000
0000
0000
0000
,
0000
0000
0000
0000
,
0000
0000
0000
0000
,
0001
0000
0100
0000
,
0010
0010
0000
0000
,
1000
0000
0100
0000
,
0010
0010
0000
0000
,
0100
0000
1000
0000
,
0010
0010
0000
0000
,
0100
0100
0100
0000
,
0001
0001
0001
0000
,
1000
0000
1000
0000
,
0100
0000
0010
0000
,
0001
0000
0001
0000
,
0100
0000
0010
0000
,
1000
0000
1000
0000
,
0010
0000
0100
0000
,
0002
0000
0000
0000
,
0000
0000
0003
0000
,
1000
1000
1000
0000
,
0020
0000
0030
0000
,
0100
0100
0100
0000
,
0002
0000
0003
0000
,
1000
1000
1000
0000
,
0200
0000
0300
0000
,
0010
0010
0010
0000
,
0001
0001
0001
0000
,
1000
0000
0010
0000
,
0100
0000
0100
0000
,
0001
0000
0010
0000
,
0100
0000
0100
0000
,
1000
0000
0001
0000
,
0100
0000
0100
0000
,
0001
0000
0000
0000
,
0000
0000
0000
0000
,
0001
0010
0010
0000
,
0100
1000
1000
0000
,
0010
0100
0100
0000
,
0001
0100
0100
0000
,
0001
1000
1000
0000
,
0100
0010
0010
0000
,
0100
1000
1000
0000
,
0001
0100
0100
0000
,
1001
0000
0000
0000
,
0001
0000
0001
0000
,
0010
0010
0010
0000
,
0100
0000
0100
0000
,
1000
1000
1000
0000
,
0001
0000
0001
0000
,
0100
0100
0100
0000
,
0010
0000
0010
0000
,
1000
1000
1000
0000
,
1001
0000
0000
0000
,
1000
0010
0010
0000
,
0100
0001
0001
0000
,
0010
0100
0100
0000
,
0010
0001
0001
0000
,
0100
0010
0010
0000
,
1000
0010
0010
0000
,
1000
0001
0001
0000
,
0010
0100
0100
0000
,
1001
0000
0000
0000
;

//--------------- dance-single - MEGAtive ----------------
#NOTES:
     dance-single:
     MEGAtive:
     Easy:
     7:
     0,0,0,0,0:
0000
0000
0000
0000
,
0000
0000
0000
0000
,
0000
0000
0000
0000
,
0000
0000
0000
0000
,
1000
0000
1000
0010
,
0100
0001
0020
0000
,
0031
0000
0001
1000
,
0100
0010
0200
0000
,
1300
0000
0000
0000
1000
0000
0000
1001
,
0000
0001
0200
0000
,
0310
0000
0010
1000
,
0001
0010
0002
0000
,
1003
1000
0100
0010
,
0001
0001
0200
0000
,
0310
0010
1000
0001
,
0010
0010
0200
0000
,
1300
1000
0001
0100
,
0010
0010
2000
0000
,
0002
0000
0000
0000
,
0000
0000
0000
3003
0000
0000
0000
0000
,
0001
0001
0100
0010
,
1000
1000
0200
0000
,
0310
0010
0100
1000
,
0001
0001
0200
0000
,
0310
0000
0010
0000
0110
0000
0000
1001
,
0000
1000
0100
0010
,
0001
0001
1001
0000
,
0110
0000
1001
1000
,
0100
0010
0100
1000
,
0001
0001
0100
0010
,
1000
1000
0010
0100
,
0001
0010
0020
0000
,
0130
0000
0100
0000
1000
0000
0000
1001
,
0000
0001
0100
0010
,
1000
0000
0000
0000
,
0000
0000
0000
0000
,
1000
0010
0100
0001
,
0010
0100
0010
0001
,
1000
0100
0010
0001
,
1000
0010
0100
0010
,
1000
0001
0100
0010
,
1000
0100
0010
0001
,
1000
0100
0010
0100
,
1000
0001
0100
0010
,
1000
1000
0000
1001
,
0001
0010
0000
0010
,
0100
1000
0001
0001
,
0000
1001
0000
1001
,
1000
0010
0100
0010
,
0000
0110
0000
0110
,
0100
0001
1000
0001
,
0000
1001
0000
1001
,
0001
0010
0100
0010
,
0002
0000
0003
0000
,
1000
0010
0100
0001
,
0010
1000
0010
0001
,
1000
0100
0010
0001
,
0100
1000
0100
0001
,
1000
0010
0100
0001
,
0010
1000
0010
0001
,
1000
0010
0100
0001
,
1000
0010
0001
0010
,
2000
3000
0000
0000
;

//--------------- dance-single - UNI4 Step Team ----------------
#NOTES:
     dance-single:
     UNI4 Step Team:
     Medium:
     11:
     0,0,0,0,0:
0000
0000
0000
0000
,
0000
0000
0000
0000
,
1000
0000
0001
0000
0000
1000
0001
0000
,
1000
0100
0001
0000
0000
0100
1000
0000
,
0001
0100
0001
0000
1000
0100
1000
0000
,
0001
0010
0001
0010
0000
0100
1000
0000
,
0010
1000
0010
0000
0100
0001
0100
0000
,
0001
0100
0001
0100
0000
0010
1000
0000
,
0100
1000
0100
0000
0010
0001
0010
0000
,
0100
0010
0001
1000
0000
0000
0110
0000
,
0001
0100
0010
0000
1000
0100
0010
0000
,
0001
1000
0010
0100
0000
0001
1000
0000
,
0100
1000
0100
0000
0100
1000
0100
0000
,
0010
0001
0010
0000
0010
0001
0010
0000
,
0001
1000
0001
0000
0001
1000
0001
0000
,
0100
0010
0100
0000
0100
0010
0100
0000
,
0010
1000
0100
0000
0010
0001
0100
0000
,
0100
0010
1000
0000
0100
0010
0001
0000
,
1000
0000
0000
0000
,
0001
0000
0000
0000
,
0010
0001
1000
0000
0010
1000
0001
0000
,
0100
0001
1000
0010
0000
0100
0001
0000
,
0010
0100
1000
0000
0010
0100
0001
0000
,
1000
0010
0100
0001
0000
0001
0100
0000
,
0010
1000
0001
0000
0001
1000
0100
0000
,
0100
0010
0001
1000
0000
0010
0100
0000
,
1000
0100
0001
0000
1000
0100
0001
0000
,
1000
0010
0001
0100
0000
0100
0001
0000
,
0001
0010
0100
1000
0100
1000
0100
0000
,
0010
0100
1000
0010
1000
0010
1000
0000
,
0001
0100
0010
1000
0100
1000
0100
0000
,
1000
0100
0010
0001
0010
0001
0010
0000
,
0100
0000
1000
0001
1000
0100
1000
0000
,
0100
0000
0010
0001
0010
0100
0010
0000
,
0001
0001
0001
0001
,
0100
0100
0100
0100
,
0010
1000
0010
1000
0010
1000
0010
0100
,
0001
0100
0001
0010
0001
0010
0001
0000
,
0001
0010
0001
0010
0001
0010
0001
1000
,
0100
1000
0100
0010
0100
0010
0100
0000
,
1000
0001
1000
0001
1000
0001
1000
0010
,
0100
0010
0100
0001
0100
0001
0100
0000
,
0001
0010
0001
0010
0001
0010
0001
1000
,
0001
1000
0001
0100
0010
0100
0010
0000
,
1000
0001
1000
0000
0000
0000
0010
0000
,
0100
0001
0100
0000
0001
0010
0001
0000
,
0010
0100
0010
0100
1000
0100
1000
0000
,
1000
0001
1000
0000
0100
0010
0100
0010
,
0001
0010
0001
0010
0001
0100
0001
0000
,
0001
1000
0001
0000
0001
0100
0010
1000
,
0010
1000
0010
0000
0100
0001
0100
0000
,
0001
0010
0001
0000
0010
0100
0010
0100
,
1000
0100
1000
0000
0010
1000
0001
0000
,
1000
0100
0100
0010
0100
0100
1000
0000
,
0001
0100
0001
0100
0001
0100
0001
1000
,
0010
1000
0010
1000
0100
0010
0001
0000
,
1000
0100
1000
0100
1000
0100
1000
0010
,
0100
0010
0100
0001
0100
0010
1000
0000
,
0001
0010
0100
1000
0001
1000
0100
0010
,
0001
0100
0010
1000
0010
0100
0001
0000
,
1000
0100
0010
0001
1000
0001
0010
0100
,
1000
0010
0001
0010
1000
0100
0010
0000
,
0001
0000
0000
0000
;

//--------------- dance-single - MEGAtive ----------------
#NOTES:
     dance-single:
     MEGAtive:
     Hard:
     12:
     0,0,0,0,0:
0000
0000
0000
0000
,
0000
0000
0000
0000
,
0000
0000
0000
0000
,
0000
0000
0000
0000
,
0001
0000
0001
1000
0100
0010
0100
0000
,
1000
0100
0010
0001
0100
0100
0010
0000
,
1000
0000
1000
0001
0100
0010
0100
0000
,
0001
0100
0010
1000
0100
0010
0010
0000
,
0001
1000
0010
0000
0110
0100
0001
1001
,
0000
1000
1100
0000
0011
0000
1001
0000
,
0101
0000
0001
1000
1010
0000
0100
0001
,
0011
0000
1100
0000
0001
0100
0110
0000
,
0010
1000
0000
1000
0100
0010
0001
0100
,
0010
1000
0000
1000
0100
0010
0001
0000
,
1000
0001
0000
0001
0100
0010
1000
0100
,
0010
0001
0000
0001
0100
0010
1000
0000
,
0100
0000
0010
0000
0000
0000
0010
0000
0100
1000
0100
0000
0010
0000
0001
1000
,
0001
0000
0100
0000
0010
0000
0000
0010
1000
0000
0001
0000
0010
0100
0010
0100
,
2000
0000
0000
0000
,
0000
0000
0000
0000
0000
0000
0000
0000
0000
0000
3100
1000
0002
0000
0000
0000
,
0013
1000
0000
1000
0010
0001
1000
0001
,
0100
1000
0100
0001
0010
0100
0110
0000
,
0100
0001
0000
0001
0100
1000
0001
1000
,
0010
0001
0010
1000
0001
0000
0011
0000
,
0001
0100
0110
0000
1001
0001
0010
0011
,
0000
1000
1010
0000
0101
0000
1010
0000
,
1001
0000
0001
0100
0110
0000
1000
0100
,
0110
0000
1001
0000
0001
0100
0101
0000
,
1000
0020
0000
0031
0010
0100
0010
1000
,
0001
0001
0010
0100
1000
0001
1001
0000
,
0001
0020
0000
1030
0010
0100
0010
0001
,
1000
1000
0010
0100
0001
1000
1001
0000
,
0001
0000
0200
0000
0000
0000
1300
0000
0100
0010
0100
0000
0001
0000
0010
0100
,
0010
0000
0001
0000
1001
0000
0000
1000
0010
0000
0100
0000
0010
0100
0010
0100
,
0001
0000
0000
0000
,
0000
0000
0000
0000
,
0001
0100
0010
0100
0001
0100
0010
1000
,
0100
0000
0010
0000
0100
0000
1000
0000
0010
0000
0100
0000
0010
0000
1000
0001
,
0010
0100
0010
0001
0010
0100
0010
0001
,
1000
0010
1000
0001
0010
0100
1000
1000
,
0001
1000
0010
1000
0001
1000
0010
1000
,
0100
0010
0001
0100
0010
0100
0001
1000
,
0100
0010
0100
1000
0100
0010
0100
1000
,
0010
0000
0100
0000
0001
0000
1000
0000
0100
0000
0010
0000
0001
1000
0001
1000
,
0010
0000
0000
0000
1010
0000
0000
0000
0100
0000
0001
0000
1000
0000
0000
1000
,
0100
0000
1100
0000
0010
0001
0000
0001
,
1000
1000
0010
0100
0001
0001
0010
0000
,
0100
1000
1100
0000
0100
0010
0000
0010
,
0001
0001
0100
0010
1000
1000
0100
0000
,
0010
0001
0011
0000
0010
0100
0000
1000
,
0001
0001
0010
0100
1000
1000
0010
0000
,
0100
0001
0101
0000
0100
0010
0000
0010
,
1000
0000
1000
0000
0100
0000
0010
0000
0001
0000
0001
0000
0100
0000
0000
0100
,
0001
0010
0010
1000
0010
0001
0011
0000
,
0001
0100
0001
0100
0010
1000
0001
0010
,
0100
0000
0010
0000
0100
0000
0001
0000
0100
0000
0010
0000
0100
0000
0010
0001
,
1000
0010
1000
0010
0100
0001
1000
0100
,
0010
0100
0010
1000
0010
0100
0010
0010
,
0001
0010
0001
0010
0100
1000
0001
0100
,
0010
0100
0010
0001
0010
0100
0010
1000
,
0100
1000
0100
1000
0001
0010
0001
1000
,
0010
0000
1000
0000
0010
0000
0001
0000
0010
0000
1000
0000
0010
1000
0001
1000
,
0002
0003
0000
0000
;
