#TITLE:Force of Wind;
#SUBTITLE:;
#ARTIST:Ryu☆;
#TITLETRANSLIT:;
#SUBTITLETRANSLIT:;
#ARTISTTRANSLIT:;
#GENRE:;
#CREDIT:;
#MUSIC:Force of Wind.ogg;
#BANNER:force of wind.png;
#BACKGROUND:;
#CDTITLE:;
#SAMPLESTART:43.441;
#SAMPLELENGTH:15.000;
#SELECTABLE:YES;
#OFFSET:1.298;
#BPMS:0.000=177.000
,195.000=178.750
,196.000=177.000
,259.000=178.000
,260.000=177.000
;
#STOPS:;
#DISPLAYBPM:177.000;
#BGCHANGES:;
#FGCHANGES:;

//--------------- dance-single - forcednature ----------------
#NOTES:
     dance-single:
     forcednature:
     Beginner:
     5:
     0,0,0,0,0:
0000
0000
0000
0000
,
0000
0000
0000
0000
,
0000
0000
0000
0000
,
0000
0000
0000
0000
,
0000
0000
0000
0000
,
0000
0000
0000
0000
,
0000
0000
0000
0000
,
0000
0000
0000
0000
,
0000
0000
0000
0000
,
1000
0000
0000
0000
,
0001
0000
0000
0000
,
0100
0000
0000
0000
,
0010
0000
1000
0000
,
0001
0000
0000
0000
,
0010
0000
0000
0000
,
0100
0000
0000
0000
,
1000
0000
0000
0000
,
0010
0000
0000
0010
0000
0000
0000
0000
,
0000
0000
0000
0000
,
0100
0000
0000
0100
0000
0000
0000
0000
,
0000
0000
0000
0000
,
0001
0000
0000
0001
0000
0000
0000
0000
,
0000
0000
0000
0000
,
1000
0000
0000
1000
0000
0000
0000
0000
,
0000
0000
0000
0000
,
0100
0000
0000
0100
0000
0000
0100
0000
,
0010
0000
0000
0010
0000
0000
0010
0000
,
0001
0001
1000
1000
,
0010
0010
0100
0100
,
0001
1000
0001
1000
,
0100
0010
0100
0010
,
0001
0100
0010
1000
,
0002
0000
0000
0003
,
1000
0100
1000
0000
,
0010
0000
0100
0000
,
0001
0010
0001
0000
,
0100
0000
0010
0000
,
1000
0001
1000
0000
,
0100
0000
0010
0000
,
0001
1000
0001
0000
,
0100
0000
0010
0000
,
1000
0100
1000
0000
,
0001
0000
0010
0000
,
0001
0100
0001
0000
,
1000
0000
0010
0000
,
1000
0001
1000
0000
,
0100
0000
0010
0000
,
0001
1000
0001
0000
,
0220
0000
0000
0330
,
1001
0000
0000
0000
,
0000
0000
1000
0000
,
0010
0000
0000
0000
,
0000
0000
0000
0000
,
0100
0000
0000
0000
,
0000
0000
0000
0001
,
0000
0000
0000
0000
,
0000
0010
0010
0000
,
0110
1000
0000
1000
,
0000
0001
0000
0001
,
0000
0100
0000
0100
,
0000
0010
0000
0010
,
0000
1000
0000
0100
,
0000
0010
0000
0001
,
0000
0100
0000
0010
,
2002
0000
0000
3003
,
1000
0100
1000
0100
,
1000
0000
0010
0000
,
1000
0001
1000
0001
,
1000
0000
0010
0000
,
0001
0100
0001
0100
,
0001
0000
0010
0000
,
0001
1000
0001
1000
,
0001
0000
0010
0000
,
1000
0100
0010
0001
,
1000
0000
0001
0000
,
0001
0100
0010
1000
,
0001
0000
1000
0000
,
1000
0100
0010
0001
,
0100
0000
0010
0000
,
1000
0001
0010
0100
,
1000
1000
0001
0001
,
0110
0000
0000
0000
;

//--------------- dance-single - forcednature ----------------
#NOTES:
     dance-single:
     forcednature:
     Easy:
     9:
     0,0,0,0,0:
0000
0000
0000
0000
,
0000
0000
0000
0000
,
0000
0000
0000
0000
,
0000
0000
0000
0000
,
0000
0000
0000
0000
,
0000
0000
0000
0000
,
0000
0000
0000
0000
,
0000
0000
0000
0000
,
0000
0000
0000
0000
,
1000
0001
0100
0010
,
1000
0001
0010
0100
,
1000
0010
0100
0001
,
0010
0100
0010
0001
,
0100
0010
1000
0001
,
0010
0100
1000
0010
,
0100
0001
1000
0100
,
0010
0000
0000
0000
,
0001
0000
0000
1000
0000
0000
1001
0000
0000
0000
0000
0000
0000
0000
0000
0000
,
0000
0000
0000
0000
,
0100
0000
0000
0010
0000
0000
0110
0000
0000
0000
0000
0000
0000
0000
0000
0000
,
0000
0000
0000
0000
,
1000
0000
0000
0001
0000
0000
1001
0000
0000
0000
0000
0000
0000
0000
0000
0000
,
0000
0000
0000
0000
,
0010
0000
0000
0100
0000
0000
0110
0000
0000
0000
0000
0000
0000
0000
0000
0000
,
0000
0000
0000
0000
,
1000
0000
0000
0100
0000
0000
0010
0000
0000
0001
0000
0000
1001
0000
0000
0000
,
0001
0000
0000
0100
0000
0000
0010
0000
0000
1000
0000
0000
1001
0000
0000
0000
,
1000
0000
0000
0100
0000
0000
0010
0000
0001
0000
0000
0100
0000
0000
0010
0000
,
1000
0000
0000
0001
0000
0000
0100
0000
0001
0000
0000
1000
0000
0000
0100
0000
,
0010
0001
1000
0010
,
0100
0001
1000
0100
,
1000
0001
1000
0000
0001
1000
0001
0000
,
0220
0000
0000
0330
,
1000
0000
0001
0000
0100
0010
0100
0000
,
0001
0010
0100
1000
,
0010
0000
0100
0000
0001
1000
0001
0000
,
0010
0100
1000
0010
,
0100
0000
0001
0000
1000
0100
1000
0000
,
0010
0100
0001
0010
,
0100
0000
1000
0000
0010
0100
0010
0000
,
1000
0000
1000
0000
0001
1000
0001
0000
,
0110
0000
0001
0000
1000
0100
1000
0000
,
0010
0100
0001
0010
,
0100
0000
1000
0000
0001
0100
0001
0000
,
1000
0100
0010
0001
,
0100
0000
0010
0000
1000
0001
1000
0000
,
0010
0100
0001
0010
,
0100
0000
1000
0000
0001
0100
0001
0000
,
2002
0000
0000
3003
,
0110
0000
0001
0000
,
0001
0000
1000
0100
,
0010
0000
0010
0000
,
0010
0000
0100
1000
,
0001
0000
0001
0000
,
0001
0000
0100
0010
,
1000
0000
1000
0000
,
1000
0000
0100
0010
,
1001
0101
0000
0101
,
0000
1100
0000
1100
,
0000
0011
0000
0011
,
0000
1010
0000
1010
,
0001
0010
0100
1000
,
0001
0100
0010
1000
,
0001
0010
0100
1000
,
0220
0000
0000
0330
,
1001
0000
0001
0000
0100
0010
0100
0000
,
0001
0000
0010
0000
0100
1000
0100
0000
,
0010
0000
0001
0000
1000
0010
1000
0000
,
0001
0001
1000
1000
,
0001
0000
0100
0000
0010
1000
0010
0000
,
0100
0000
0001
0000
1000
0100
1000
0000
,
0010
0000
0100
0000
0001
1000
0001
0000
,
0010
0100
1000
0010
,
0110
0000
0100
0000
0001
1000
0001
0000
,
0010
0000
0001
0000
1000
0010
1000
0000
,
0100
0000
0010
0000
0001
1000
0001
0000
,
0100
0000
0010
0000
1000
0001
1000
0000
,
0110
0000
0001
0000
1000
0001
1000
0000
,
0110
0000
1000
0000
0001
1000
0001
0000
,
0110
1000
0110
0001
,
1100
0101
1001
0110
,
1001
0000
0000
0000
;

//--------------- dance-single - forcednature ----------------
#NOTES:
     dance-single:
     forcednature:
     Medium:
     13:
     0,0,0,0,0:
0000
0000
0000
0000
,
0000
0000
0000
0000
,
0000
0000
0000
0000
,
0000
0000
0000
0000
,
0000
0000
0000
0000
,
0000
0000
0000
0000
,
0000
0000
0000
0000
,
0000
0000
0000
0000
,
0000
0000
0000
0000
,
2000
3200
0320
0230
,
2300
3020
0230
0320
,
2030
3200
0320
0032
,
0203
0320
0230
0302
,
0023
0230
2300
3002
,
0203
0320
2030
3002
,
0023
0032
2003
3020
,
0230
0000
0000
0300
,
0101
0000
0000
1100
0000
0000
1001
0000
0000
0000
0000
0000
0000
0000
0000
0000
,
0000
0000
0000
0000
0000
0000
0000
0000
0000
0010
0000
0000
0010
0000
0000
0000
,
1100
0000
0000
0101
0000
0000
1001
0000
0000
0000
0000
0000
0000
0000
0000
0000
,
0000
0000
0000
0000
0100
0000
0000
0100
0000
0100
0000
0000
0100
0000
0000
0000
,
1001
0000
0000
0110
0000
0000
1001
0000
0000
0000
0000
0000
0000
0000
0000
0000
,
0000
0000
0000
0000
0000
0000
0000
0000
0000
0010
0000
0000
0010
0000
0000
0000
,
0110
0000
0000
1001
0000
0000
0110
0000
0000
0000
0000
0000
0000
0000
0000
0000
,
0000
0000
0000
0000
0100
0000
0000
0100
0000
0100
0000
0000
0100
0000
0000
0000
,
1001
0000
0000
1100
0000
0000
0110
0000
0000
0011
0000
0000
1001
0000
0000
0000
,
1001
0000
0000
0101
0000
0000
0110
0000
0000
1010
0000
0000
1001
0000
0000
0000
,
1100
0000
0000
1001
0000
0000
0011
0000
0101
0000
0000
1001
0000
0000
1010
0000
,
1100
0000
0000
0110
0000
0000
0011
0000
0101
0000
0000
0110
0000
0000
1010
0000
,
1000
0000
0000
1000
0100
0000
0000
0100
0010
0000
0000
0010
0001
0000
0000
0001
,
0100
0000
0000
0100
0010
0000
0000
0010
1000
0000
0000
1000
0001
0000
0000
0001
,
0010
0100
1000
0100
0010
0001
0100
0010
,
2002
0000
0000
3003
,
0001
0000
0000
0100
0000
0000
0010
0000
0000
1000
0000
0001
0010
0000
0100
0000
,
1000
0000
0000
0010
0000
0000
0100
0000
0000
0010
0000
0000
1000
0000
0000
0000
,
0001
0000
0000
0010
0000
0000
0100
0000
0000
0010
0000
0001
1000
0000
0001
0000
,
0100
0000
0000
0010
0000
0000
1000
0001
0000
0100
0000
0000
0010
0000
1000
0000
,
0001
0000
0000
0010
0000
0000
0100
0000
0000
0010
0000
0001
1000
0000
0001
0000
,
0100
0000
0000
0010
0000
0000
1000
0000
0000
0100
0000
0000
0010
0000
0000
0000
,
0001
0000
0000
1000
0000
0000
0010
0000
0000
0100
0000
0001
0010
0000
0100
0000
,
1000
0000
0000
0001
0000
0000
0100
0010
0000
1000
0000
0000
0001
0000
0001
0000
,
0010
0000
0000
0100
0000
0000
1000
0000
0000
0010
0000
0100
0001
0000
1000
0000
,
0100
0000
0000
1000
0000
0000
0010
0000
0000
0100
0000
0000
0001
0000
0000
0000
,
0010
0000
0000
0100
0000
0000
1000
0000
0000
0010
0000
0100
0001
0000
0010
0000
,
0100
0000
0000
0010
0000
0000
0001
1000
0000
0010
0000
0000
0100
0000
0001
0000
,
0010
0000
0000
0100
0000
0000
0010
0000
0000
0001
0000
1000
0010
0000
0100
0000
,
0001
0000
0000
1000
0000
0000
0100
0000
0000
1000
0000
0000
0010
0000
0000
0000
,
0100
0000
0000
0001
0000
0000
0010
0000
0000
0100
0000
1000
0001
0000
0100
0000
,
0110
0000
0110
0000
1000
0100
0001
0000
,
0110
0000
1000
1000
,
0001
0000
0001
0000
0010
0000
0100
1000
,
0010
0010
0100
0100
,
0001
0001
1000
0010
,
0100
0100
0001
0001
,
0010
0000
0010
0000
0100
0000
1000
0001
,
0100
0100
0010
1000
,
0001
0010
0100
1000
,
1001
0000
0001
0100
1000
0000
0100
0010
,
1000
0000
1000
0000
0100
0000
0010
0001
,
0100
0000
0010
1000
0001
0000
0010
0100
,
1000
0000
1000
0000
0010
0000
0100
0001
,
0010
0000
0100
0010
0001
0000
0100
0010
,
1000
0000
1000
0000
0001
0000
0010
0100
,
1000
0000
0010
0100
0001
0000
0010
0000
,
2002
0000
0000
3003
,
0001
0000
0000
0100
0000
0000
0010
0000
0000
1000
0000
0001
0010
0000
0100
0000
,
1000
0000
0000
0100
0000
0000
0001
0000
0000
0100
0000
0000
0010
0000
0000
0000
,
0001
0000
0000
0100
0000
0000
0010
0000
0000
1000
0000
0001
0010
0000
0100
0000
,
1000
0000
0000
0001
0000
0000
0100
0010
0000
1000
0000
0000
0001
0000
0100
0000
,
1000
0000
0000
0100
0000
0000
0010
0000
0000
1000
0000
0001
0010
0000
0100
0000
,
1000
0000
0000
0001
0000
0000
0100
0010
0000
1000
0000
0000
0001
0000
0010
0000
,
0100
0000
0000
1000
0000
0000
0001
0000
0000
0100
0000
0010
1000
0000
0001
0000
,
0010
0000
0000
0100
0000
0000
1000
0001
1000
0000
1000
0000
0001
0000
0001
0000
,
1001
0000
0000
1000
0000
0000
0010
0000
0000
0100
0000
0001
0010
0000
0100
0000
,
0010
0000
0000
0001
0000
0000
0100
0010
0000
1000
0000
0000
0001
0000
0010
0000
,
0100
0000
0000
1000
0000
0000
0001
0000
0000
0100
0000
0010
1000
0000
0001
0000
,
0100
0000
0000
1000
0000
0000
0100
0010
0000
1000
0000
0000
0001
0000
0010
0000
,
0110
0000
0000
0100
0000
0000
1000
0000
0000
0001
0000
0100
0010
0000
1000
0000
,
1001
0000
0000
0001
0000
0000
0010
0000
0000
0100
0000
0000
1000
0000
0001
0000
,
0110
0000
0000
1000
0001
0000
0100
0000
0110
0000
0000
0001
1000
0000
0100
0000
,
0110
0000
0000
1000
0100
0000
0000
0010
0001
0010
0000
0000
0100
0000
1000
0001
,
1000
0000
0000
0000
;

//--------------- dance-single - forcednature ----------------
#NOTES:
     dance-single:
     forcednature:
     Hard:
     16:
     0,0,0,0,0:
0000
0000
0000
0000
,
0000
0000
0000
0000
,
0000
0000
0000
0000
,
0000
0000
0000
0000
,
0000
0000
0000
0000
,
0000
0000
0000
0000
,
0000
0000
0000
0000
,
0000
0000
0000
0000
,
0000
0000
0000
0000
,
0002
0203
0320
2030
,
3002
2003
3200
0320
,
0032
0203
0320
0230
,
0302
0023
0230
2300
,
3020
0230
0320
2030
,
3200
0320
0032
0203
,
0320
2030
3200
0302
,
0203
0000
0000
0300
,
0110
0000
0000
1100
0000
0000
1001
0000
0000
1000
0000
0001
0100
0000
0010
0000
,
1000
0000
0000
0100
0000
0000
0010
0000
0000
0001
0000
0000
0100
0000
0000
0000
,
0110
0000
0000
0101
0000
0000
1001
0000
0000
0001
0000
1000
0100
0000
0010
0000
,
0100
0000
0000
1000
0100
0000
0010
0001
0000
0001
0000
0001
0100
0000
0010
0000
,
0110
0000
0000
1010
0000
0000
1001
0000
0000
0001
0000
0100
0001
0000
0010
0000
,
0100
0000
0000
1000
0000
0000
0100
0000
0000
0010
0001
0000
1000
0000
0001
0000
,
1001
0000
0000
1100
0000
0000
0101
0000
0000
1000
0000
0100
1000
0000
0010
0000
,
0100
0000
0000
0001
0010
0000
0100
1000
0000
0010
0000
0010
0100
0001
0100
0010
,
1000
0000
0000
1100
0000
0000
0110
0000
0000
0011
0000
0000
0110
0000
0001
1000
,
0001
0000
0000
0101
0000
0000
0110
0000
0000
1010
0000
0000
0110
0000
1000
0001
,
1000
0000
0000
0101
0000
0000
0001
1000
0001
0000
0000
1100
0000
0000
1000
0001
,
1000
0000
0000
0011
0000
0000
0001
1000
0001
0000
0000
1010
0000
0000
1000
0001
,
1000
0000
0000
1000
0010
0000
0000
0010
0100
0000
0000
0100
0001
0000
0000
0001
,
0010
0000
0000
0010
0100
0000
0000
0100
1000
0000
0000
1000
0010
0000
0000
0010
,
0100
0001
0100
0001
1000
0100
1000
0100
0010
0001
1000
0010
0100
0001
1000
0100
,
0020
0000
0000
0000
0000
0000
0130
0000
0000
1000
0000
0001
0100
0000
0010
0000
,
1000
0000
0100
0010
0000
0001
0010
0000
0100
1000
0001
1000
0010
0000
0100
0000
,
0001
0000
0010
0100
0000
1000
0100
0000
0010
0001
0000
0100
0001
0000
0010
0000
,
0100
0000
1000
0001
0000
0100
0001
0000
0010
0100
1000
0100
0010
0000
0001
0000
,
1000
0000
0010
0100
0000
0001
1000
0001
0000
0010
0000
0100
1000
0000
0001
0000
,
0100
0000
0010
1000
0000
0100
1000
0000
0001
0100
0010
1000
0001
0000
0010
0000
,
0100
0000
0010
0001
0000
0100
0001
0000
1000
0010
0000
0100
0001
0000
0010
0000
,
0100
0000
1000
0001
0000
0100
0001
0000
0010
0100
1000
0001
0100
0000
0010
0000
,
1000
0000
0100
0010
0000
0001
1000
0001
0000
0100
0000
0010
1000
0100
0010
0001
,
0100
0000
0010
1000
0000
0001
1000
0000
0100
0010
0001
0010
0100
0000
1000
0000
,
0001
0000
0100
0010
0000
1000
0001
0000
0010
0100
0000
1000
0100
0000
0010
0000
,
0001
0000
1000
0010
0000
0100
0001
0000
1000
0100
1000
0010
0100
0000
0001
0000
,
0010
0000
0100
1000
0000
0001
0100
0001
0000
0010
0000
0100
0010
0000
0001
0000
,
1000
0000
0010
0100
0000
0001
0100
0000
0010
1000
0001
0010
0100
0000
1000
0000
,
0001
0000
0100
0010
0000
1000
0100
0000
0010
0001
0000
0100
0001
0000
0010
0000
,
0100
0000
1000
0001
0000
0100
0010
0000
1000
0001
0010
0100
1000
0000
0001
0000
,
0110
0000
0000
1000
0000
0000
0001
0000
0000
0100
0000
0100
0010
0000
1000
0000
,
1001
0001
0010
0010
,
0100
0100
1000
0010
,
0100
0100
0001
0001
,
1000
1000
0100
0010
,
0001
0001
0100
0100
,
0010
0010
1000
0001
,
0010
0010
0100
0100
,
1000
0001
0100
0020
,
1030
0100
0010
0100
1000
0010
0100
0010
,
1000
0001
0010
0001
0100
0010
1000
0001
,
0010
0100
1000
0100
0010
0001
0100
0001
,
0100
1000
0100
0010
0100
0001
1000
0000
,
0001
0010
0100
0001
0100
1000
0001
1000
,
0010
0100
0001
1000
0010
0001
0010
0100
,
0001
1000
0100
0001
0100
1000
0010
0100
,
2002
0000
0000
3003
,
1000
0000
0100
0010
0000
0001
0100
0000
0010
1000
0001
0010
0100
0000
1000
0000
,
0001
0000
0100
0010
0000
1000
0100
0010
0001
0100
0000
0010
1000
0000
0001
0000
,
1000
0000
0100
0010
0000
0100
1000
0000
0001
0100
0010
1000
0001
0000
0010
0000
,
0100
0000
1000
0001
0000
0100
0010
1000
0100
1000
0010
0100
0001
0000
0010
0000
,
0100
0000
0010
0001
0000
1000
0001
0000
0100
0010
1000
0100
0010
0000
0100
0000
,
1000
0000
0001
0100
0000
0010
1000
0001
0010
0100
0000
1000
0010
0000
0100
0000
,
0001
0000
0010
0100
0000
1000
0001
0000
0100
0010
1000
0001
0010
0000
0100
0000
,
1000
0000
0001
1000
0001
0100
0010
1000
0100
0010
0001
1000
0010
0000
0010
0000
,
1001
0000
0001
0010
0000
0100
1000
0000
0001
0100
0001
0010
0100
0000
1000
0000
,
0010
0000
0100
0001
1000
0100
0010
0001
0100
0010
0000
1000
0010
0000
0100
0000
,
0001
0000
0010
0100
0000
1000
0001
0000
0100
0001
1000
0010
0100
0000
0001
0000
,
0010
0000
0100
1000
0000
0001
0100
0010
1000
0001
0010
0100
1000
0000
0010
0000
,
0110
0000
0100
0001
0000
1000
0100
0000
0010
0001
1000
0001
0100
0000
0010
0000
,
0110
0000
0010
1000
0000
0001
0010
0000
0100
1000
0001
0100
0010
0000
1000
0000
,
1001
0000
0001
0100
0010
1000
0010
0100
0001
0000
1000
0100
0010
0001
0010
0100
,
1000
0001
0100
0010
1000
0001
0010
0001
0100
0010
0000
0010
1000
0000
0100
0000
,
1001
0000
0000
0000
;
