#TITLE:FUNKY STRUTTIN';
#SUBTITLE:;
#ARTIST:oo39.com;
#TITLETRANSLIT:;
#SUBTITLETRANSLIT:;
#ARTISTTRANSLIT:;
#GENRE:;
#CREDIT:;
#MUSIC:24. FUNKY STRUTTIN'.mp3;
#BANNER:;
#BACKGROUND:;
#CDTITLE:;
#SAMPLESTART:63.908;
#SAMPLELENGTH:15.000;
#SELECTABLE:YES;
#OFFSET:1.868;
#BPMS:0.000=124.000;
#STOPS:;
#BGCHANGES:;
#FGCHANGES:;

//--------------- dance-single - forcednature ----------------
#NOTES:
     dance-single:
     forcednature:
     Beginner:
     2:
     0,0,0,0,0:
0000
0000
0000
0000
,
0000
0000
0000
0000
,
0000
0000
0000
0000
,
0000
0000
0000
0000
,
0000
0000
0000
0000
,
0010
0000
0000
0000
,
0100
0000
0000
0000
,
0001
0000
0000
0000
,
1000
0000
1000
0000
,
1000
0000
0000
0000
,
0100
0000
0000
0000
,
0010
0000
0000
0000
,
0001
0000
0100
0000
,
0001
0000
0000
0000
,
0010
0000
0000
0000
,
0100
0000
0000
0000
,
1000
0000
0100
0000
,
1000
0000
0000
0000
,
0010
0000
0000
0000
,
0100
0000
0000
0000
,
0100
0000
0000
0000
,
0001
0000
0000
0000
,
0010
0000
0000
0000
,
0100
0000
0000
0000
,
0010
0010
0010
0000
,
0100
0000
0000
0000
,
1000
0000
0000
0000
,
0001
0000
0000
0000
,
0001
0000
0000
0000
,
0100
0000
0000
0000
,
0001
0000
0000
0000
,
1000
0000
0000
0000
,
0010
0010
0010
0000
,
1000
1000
1000
0000
,
0100
0000
0010
0000
,
0010
0000
0000
0000
,
0001
0000
0001
0000
,
0001
0000
0000
0000
,
0100
0000
0010
0000
,
0010
0000
0000
0000
,
1000
0000
1000
0000
,
1000
0000
0000
0000
,
0100
0100
0100
0000
,
0010
0000
0000
0000
,
0001
0000
0000
0000
,
0100
0000
0000
0000
,
0100
0000
0000
0000
,
0010
0000
0000
0000
,
1000
0000
0000
0000
,
0100
0000
0000
0000
,
0010
0010
0010
0000
,
0100
0100
0100
0000
,
1001
0000
0001
0000
,
0001
0000
0000
0000
,
1000
0000
1000
0000
,
1000
0000
0000
0000
,
0010
0000
0010
0000
,
0010
0000
0000
0000
,
0100
0000
0100
0000
,
0100
0000
0000
0000
,
0001
0001
0001
1000
;

//--------------- dance-single - forcednature ----------------
#NOTES:
     dance-single:
     forcednature:
     Easy:
     5:
     0,0,0,0,0:
0000
0000
0000
0000
,
0000
0000
0000
0000
,
0000
0000
0000
0000
,
0000
0000
0000
0000
,
0000
0000
0000
0000
,
0001
0000
0100
0100
,
0100
0000
1000
1000
,
1000
0000
0010
0010
,
0010
0001
0001
0100
,
1001
0000
1000
0100
,
1000
0010
1000
0000
,
0001
0000
0100
0010
,
1000
0001
0010
0000
,
0110
0000
1000
0001
,
0100
0001
1000
0010
,
1000
0000
0100
0010
,
0100
1000
0001
0000
,
1001
0000
0001
0000
,
0100
0000
1000
0000
,
0100
0100
0100
0000
,
0010
0010
0010
0000
,
1000
0000
0100
0000
,
0010
0000
0001
0000
,
1000
1000
0001
0001
,
0100
0100
0100
0010
,
1001
0000
1000
0000
,
0100
0000
1000
0000
,
0010
0100
0010
0000
,
0100
0010
0100
0000
,
0001
0000
0010
0000
,
0001
0000
0100
0000
,
0010
0010
0010
0010
,
1000
1000
1000
0100
,
0001
0001
0001
0100
,
1001
0000
0010
1000
,
0001
0100
0001
0010
,
0100
0000
1000
0010
,
1000
0001
0010
0001
,
1001
0000
0010
0100
,
0001
1000
0100
0010
,
0100
0000
1000
0001
,
0100
0010
1000
0001
,
0010
0010
0010
0100
,
1000
0010
0000
1000
,
0001
0100
0000
0001
,
0010
0001
0010
0000
,
0100
1000
0100
0000
,
1000
0010
0000
1000
,
0001
0100
0000
0001
,
0010
0100
1000
0001
,
0100
0100
0100
0001
,
0010
0010
0010
1000
,
1001
0000
0100
1000
,
0010
1000
0100
0010
,
0001
0000
0100
0001
,
1000
0010
1000
0001
,
1001
0000
0010
0100
,
0010
0001
0010
1000
,
0010
0000
0100
1000
,
0001
0100
0010
0000
,
0100
0100
0100
2002
,
3003
0000
0000
0000
;

//--------------- dance-single - forcednature ----------------
#NOTES:
     dance-single:
     forcednature:
     Medium:
     9:
     0,0,0,0,0:
0000
0000
0000
0000
,
0000
0000
0000
0000
,
0000
0000
0000
0000
,
0000
0000
0000
0000
,
0000
0000
0000
0000
,
1000
0000
0100
0001
0100
0000
1000
0000
,
0001
0000
0100
1000
0100
0000
0001
0000
,
1000
0000
0010
0001
0010
0000
1000
0000
,
0001
0001
0001
0001
0001
0100
0010
0000
,
1001
0000
1000
0100
0010
0000
0100
0000
,
1000
0000
0010
0100
0000
0100
0001
0000
,
0010
0000
0100
0010
0001
0000
0100
0000
,
0010
0000
1000
0001
0010
0010
0100
0000
,
1001
0000
1000
0100
1000
0000
0010
0000
,
0100
0000
0001
0010
0000
0010
0100
1000
,
0001
0000
0100
0001
0000
0001
1000
0000
,
0010
0000
1000
0001
0010
0010
0100
1000
,
0010
1000
0000
0100
0000
0010
0100
0000
,
1000
0001
0000
0100
0000
0001
1000
0000
,
0010
0100
0000
0100
0001
0000
1000
0000
,
0100
0010
0000
0010
0001
0000
1000
0000
,
0010
1000
0100
1000
0000
0001
0100
0000
,
0010
1000
0001
0010
0000
0100
0010
0000
,
0001
0000
0000
0001
0100
0000
0000
0100
0010
0000
0000
0010
1000
0000
0000
0000
,
0100
0100
0100
0100
0100
0010
0001
0000
,
0100
0010
1000
0001
0000
1000
0010
0000
,
1000
0100
1000
0010
0000
0100
0001
0000
,
0010
0100
0000
0001
0100
0000
1001
0000
,
0010
1000
0000
0100
0010
0000
1001
0000
,
0001
0100
0001
1000
0000
0010
1000
0000
,
0100
1000
0001
0010
0000
0100
0010
0000
,
0001
0000
0000
0001
0010
0000
0000
0010
0100
0000
0000
0100
1000
0000
0000
0000
,
0010
0010
0010
0010
0010
0100
0001
0000
,
0010
0010
0010
0010
0010
0100
1000
0000
,
0010
0000
1000
0001
0000
0100
0010
0000
,
1000
0000
0100
0010
0000
0010
0001
0000
,
0100
0000
0010
1000
0000
0001
0100
0000
,
0001
1000
0001
1000
0100
0010
0100
0000
,
1000
0000
0010
0100
0000
0100
0001
0000
,
0010
0000
0100
1000
0000
1000
0001
0000
,
0100
0000
0001
1000
0000
1000
0010
0000
,
0100
0000
0100
0001
0010
0001
0010
0000
,
0100
0100
0100
0100
0100
1000
0010
0000
,
0100
0001
0100
0001
0000
0010
0100
0000
,
1000
0001
1000
0010
0000
0100
0001
0000
,
1000
0100
0000
1000
0010
0000
0100
0000
,
0001
0010
0000
0001
0100
0000
0010
0000
,
1000
0100
1000
0001
0000
0100
0001
0000
,
0010
0100
0010
0001
0000
0100
0010
0000
,
1000
0000
0000
1000
0010
0000
0000
0010
0100
0000
0000
0100
0001
0000
0000
0000
,
0010
0010
0010
0010
0010
0100
1000
0000
,
0010
0010
0010
0010
0010
0100
0001
0000
,
1000
0000
0100
1000
0000
0010
0100
0000
,
0001
0000
0010
0100
0000
0100
1000
0001
,
1000
0000
0010
0100
0000
0100
0001
0000
,
1000
0000
0100
0010
0001
0010
0100
0000
,
1000
0000
0001
0100
0000
0100
0001
0000
,
1000
0000
0010
0100
0000
0100
0001
0000
,
0010
0000
0100
1000
0000
1000
0010
0000
,
0100
0000
0001
1000
1000
1000
0010
0000
,
0100
0100
0100
0100
0100
0001
2000
0000
,
3000
0000
0000
0000
;

//--------------- dance-single - forcednature ----------------
#NOTES:
     dance-single:
     forcednature:
     Hard:
     13:
     0,0,0,0,0:
0000
0000
0000
0000
,
0000
0000
0000
0000
,
0000
0000
0000
0000
,
0000
0000
0000
0000
,
0000
0000
0000
0000
,
0001
0000
0000
0001
0100
0000
0000
0100
0010
0000
0000
0010
1000
0000
0000
0000
,
1000
0000
0000
1000
0100
0000
0000
0100
0010
0000
0000
0010
0001
0100
0001
0100
,
0010
0000
0000
0010
1000
0000
0000
1000
0001
0000
0000
0001
0010
0000
0000
0000
,
0110
0000
0110
0000
0110
0000
0110
0000
0110
0000
0001
0000
1000
0100
1000
0000
,
0010
0001
0010
0200
0000
0301
1000
0100
,
0001
0000
1000
0000
0010
0000
0002
0000
0000
0000
0103
0000
0010
1000
0010
1000
,
0100
0010
0001
2000
0000
3010
0001
0010
,
0100
0000
0001
0010
0001
0000
0100
0000
0010
0000
0010
0000
1000
0001
1000
0001
,
1000
0100
0010
2000
0000
3010
0001
1000
,
0010
0000
0100
0000
0001
0000
0020
0000
0000
0000
0130
0000
1000
0010
1000
0010
,
0100
0001
0010
0002
0000
0103
1000
0100
,
0010
0000
1000
0001
1000
0000
0100
0000
0010
0000
0010
0000
0001
0100
0010
1000
,
0001
0100
1000
0100
0000
0010
1000
0001
,
1000
0000
0100
0000
0010
0000
0001
0000
0000
0000
0100
0000
0010
1000
0100
1000
,
0010
0100
0001
0010
0100
0000
1001
0000
,
1000
0000
0010
0100
0010
0000
0001
0000
0010
0000
0010
0000
1000
0001
1000
0001
,
1000
0100
0001
0100
0000
0010
1000
0010
,
0001
0000
1000
0000
0010
0000
0100
0000
0000
0000
0001
0000
1000
0010
1000
0010
,
1000
0000
0100
0010
0001
0000
0100
0010
1000
0000
0001
0010
0100
0000
1000
0000
,
1100
0000
1100
0000
1100
0000
1100
0000
1100
0000
0001
0000
0010
0100
0010
0000
,
0001
0000
0100
0000
1000
0000
0100
0010
0000
0000
0010
0000
1000
0000
0001
0000
,
0010
0000
0100
0000
1000
0000
0001
0100
0000
0000
0100
0000
0010
1000
0010
1000
,
0100
0010
0001
0100
0010
0000
1001
0000
,
0001
0000
1000
0010
1000
0000
0001
0000
0100
0000
0100
0000
0001
1000
0001
1000
,
0001
0000
0010
0000
0100
0000
1000
0100
1000
0000
0010
0000
0100
0000
0001
0000
,
1000
0000
0010
0000
1000
0000
0100
0010
0100
0000
1000
0000
0001
0100
0001
0100
,
0010
0000
0100
0010
1000
0000
0100
0010
0001
0000
1000
0001
0100
0000
0001
0000
,
0101
0000
0101
0000
0101
0000
0101
0000
0101
0000
0001
0000
1000
0100
1000
0000
,
1100
0000
1100
0000
1100
0000
1100
0000
1100
0000
1000
0000
0001
0100
0001
0000
,
0020
0000
0130
2000
0000
0000
3010
0000
,
2000
0000
0000
0000
3001
0000
0200
0000
0000
0000
0310
0000
1000
0001
1000
0001
,
2000
0000
3100
0002
0000
0000
0103
0000
,
0020
0000
0000
0000
0031
0000
1000
0000
0010
0000
0100
0000
0001
1000
0001
1000
,
0001
0010
0100
2000
0000
0000
3010
0000
,
1000
0000
0001
0000
0100
0000
0010
0000
0000
0000
0010
0000
1000
0100
1000
0100
,
1000
0010
0100
0002
0000
0000
0013
0000
,
0100
0000
1000
0000
0001
0000
0100
0000
0100
0000
0100
0000
0010
1000
0010
0000
,
0101
0000
1010
0000
0101
0000
1010
0000
0101
0000
0010
0000
0001
1000
0001
0000
,
1000
0100
0001
0100
0000
0010
0001
1000
,
0010
0000
0001
0000
0010
0000
0100
0000
0000
0000
0001
0000
1000
0100
0010
0100
,
1000
0100
0001
1000
0010
0000
1001
0000
,
1000
0000
0100
0010
0001
0000
0100
0000
0010
0000
0010
0000
1000
0001
1000
0001
,
1000
0000
0010
0000
0001
0000
0010
0100
0000
0000
0100
0000
0001
0000
0100
0000
,
1000
0000
0100
0000
0010
0000
1000
0100
0000
0000
0100
0000
0010
0001
0010
0001
,
0100
0000
0001
1000
0100
0000
1000
0001
0100
0000
0001
1000
0010
0000
0100
0000
,
1001
0000
0110
0000
1001
0000
0110
0000
1001
0000
0010
0000
0100
0010
0100
0000
,
0011
0000
1100
0000
0011
0000
1100
0000
0011
0000
1000
0000
0001
0100
0001
0000
,
0020
0000
0130
2000
0000
0000
3010
0000
,
2000
0000
0000
0000
3001
0000
0100
0000
0000
0000
0100
0000
0010
1000
0010
1000
,
0020
0000
0130
0002
0000
0000
0013
0000
,
0200
0000
0000
0000
1300
0000
0001
0000
0001
0000
0001
0000
0010
0100
0010
0100
,
0020
0000
0031
2000
0000
0000
3010
0000
,
0200
0000
0000
0000
0301
0000
1000
0000
0000
0000
1000
0000
0100
0010
0100
0010
,
0200
0000
1300
0020
0000
0000
0130
0000
,
0002
0000
0000
0000
0013
0000
0110
0000
0110
0000
0110
0000
1000
0001
0000
0000
,
0101
0000
1100
0000
0101
0000
1100
0000
0101
0000
1000
0000
0010
0100
0010
0100
;
