#TITLE:FUNKY ALIENS;
#SUBTITLE:;
#ARTIST:oo39.com;
#TITLETRANSLIT:;
#SUBTITLETRANSLIT:;
#ARTISTTRANSLIT:;
#GENRE:;
#CREDIT:;
#MUSIC:FUNKY ALIENS.mp3;
#BANNER:;
#BACKGROUND:;
#CDTITLE:;
#SAMPLESTART:0.000;
#SAMPLELENGTH:0.000;
#SELECTABLE:YES;
#OFFSET:1.259;
#BPMS:0.000=180.000;
#STOPS:;
#BGCHANGES:;
#FGCHANGES:;

//--------------- dance-single - OrangeRight ----------------
#NOTES:
     dance-single:
     OrangeRight:
     Beginner:
     3:
     0,0,0,0,0:
0000
0000
0000
0000
,
0000
0000
0000
0000
,
0000
0000
0000
0000
,
0000
0000
0000
0000
,
0000
0000
0000
0000
,
1000
0000
0000
0000
,
1000
0000
0000
0000
,
1000
0000
0000
0000
,
1000
0000
1000
0000
,
0001
0000
0000
0000
,
0001
0000
0000
0000
,
0001
0000
0000
0000
,
0001
0000
0001
0000
,
1000
0000
0000
0000
,
1000
0000
0000
0000
,
0100
0000
0000
0000
,
0010
0000
0010
0000
,
0001
0000
0000
0000
,
0001
0000
0000
0000
,
0100
0000
0000
0000
,
0010
0000
0010
0000
,
1000
0000
1000
0000
,
0001
0000
0000
0000
,
0001
0000
0001
0000
,
1000
0000
0000
0000
,
1000
0000
1000
0000
,
0001
0000
0000
0000
,
0001
0000
0001
0000
,
1000
0000
0000
0000
,
1000
0000
0000
0000
,
1000
0000
0000
0000
,
0001
0000
0000
0000
,
0001
0000
0000
0000
,
1000
0000
0000
0000
,
0001
0000
0000
0000
,
1000
0000
0001
0000
,
1000
0000
0001
0000
,
0100
0000
0000
0000
,
0000
0000
0000
0000
,
0010
0000
0010
0000
,
0100
0000
0000
0000
,
0100
0000
0100
0000
,
0010
0000
0000
0000
,
1000
0000
1000
0000
,
0001
0000
0000
0000
,
0001
0000
0001
0000
,
1000
0000
0000
0000
,
1000
0000
1000
0000
,
0100
0000
0000
0000
,
0010
0000
0010
0000
,
0001
0000
0000
0000
,
0100
0000
0100
0000
,
0010
0000
0000
0000
,
1000
0000
0001
0000
,
1000
0000
0001
0000
,
1000
0000
0000
0000
,
0100
0000
0000
0000
,
0010
0000
0000
0000
,
0001
0000
1000
0000
,
0001
0000
0000
0000
,
0100
0000
0000
0000
,
0010
0000
0000
0000
,
1000
0000
0001
0000
,
1000
0000
0000
0000
,
0100
0000
0000
0000
,
0010
0000
0001
0000
,
1000
0000
0000
0000
,
0001
0000
0000
0000
;

//--------------- dance-single - OrangeRight ----------------
#NOTES:
     dance-single:
     OrangeRight:
     Easy:
     5:
     0,0,0,0,0:
0000
0000
0000
0000
,
0000
0000
0000
0000
,
2002
0000
0000
0000
,
0000
0000
0000
0000
,
3003
0000
0000
0000
,
2000
0000
3100
0000
,
0002
0000
0103
0000
,
2000
0000
3100
0000
,
0001
0001
1000
1000
,
0002
0000
0103
0000
,
2000
0000
3100
0000
,
0002
0000
0013
0000
,
1000
1000
0002
0003
,
0100
0000
0010
1000
,
0010
0000
1000
0000
,
0100
0000
0010
0001
,
0010
0000
0001
0000
,
0010
0000
0100
1000
,
0001
0000
1000
0000
,
0010
0000
0100
0001
,
1000
0000
0001
1000
,
0001
0000
0100
0000
,
0010
1000
0010
0000
,
1000
0000
0100
0000
,
0010
0001
0010
0000
,
0001
0000
0100
0000
,
0010
1000
0100
0000
,
1000
0000
0100
0000
,
0010
0001
0100
0010
,
2000
0000
0100
0000
,
0000
0000
3010
0100
,
0002
0000
0100
0000
,
0000
0000
0013
0100
,
1000
0000
0001
0000
,
0010
0000
0100
0000
,
1000
0000
0001
0000
,
0100
0000
0010
0000
,
2000
0000
3000
0000
,
0002
0000
0003
1000
,
0001
0000
0100
0010
,
1000
0000
0001
0000
,
1000
0000
0100
0010
,
0001
0000
1000
0000
,
0001
0000
0010
0100
,
0010
0000
0001
0000
,
0100
0000
0010
1000
,
0001
0000
1000
0000
,
0001
0010
0100
1000
,
0002
0000
1003
0000
,
1000
0010
0100
0001
,
2000
0000
3001
0000
,
0001
0100
0010
0100
,
0002
0000
0013
0000
,
0100
1000
0001
0100
,
0020
0000
1030
0001
,
1000
0000
1000
0000
,
0001
0000
0001
0000
,
1000
0000
0001
0000
,
0100
0000
0010
0000
,
1000
0000
0100
0000
,
0010
0000
0001
0000
,
1000
0000
0100
0000
,
0010
0001
0010
0001
,
0100
0000
0010
0000
,
1000
0000
0001
0000
,
0100
0000
0010
0000
,
1000
0001
0010
0100
,
1000
0000
0000
0000
;

//--------------- dance-single - OrangeRight ----------------
#NOTES:
     dance-single:
     OrangeRight:
     Medium:
     10:
     0,0,0,0,0:
0000
0000
0000
0000
,
0000
0000
0000
0000
,
2002
0000
0000
0000
,
0000
0000
0000
0000
,
3003
0000
0000
0000
,
2000
0000
3000
0000
0001
0100
0001
0000
,
2000
0000
3000
0000
0001
0010
0001
0000
,
2000
0000
3000
0000
0010
0100
0010
0000
,
1000
0001
0001
1000
,
0002
0000
0003
0000
1000
0100
1000
0000
,
0002
0000
0003
0000
1000
0010
1000
0000
,
0002
0000
0003
0000
0010
0100
0010
0000
,
0001
1000
0001
1001
,
1000
0000
0001
0000
0100
0001
0000
0010
,
0000
0010
0100
1000
,
0001
0000
1000
0000
0010
1000
0000
0100
,
0000
1000
0010
0000
0100
0000
0001
0000
,
1000
0000
0010
0000
0100
0001
0000
0010
,
0000
0010
0001
0100
,
0001
0000
0010
0000
0100
1000
0000
0010
,
1000
1000
0001
0001
,
2000
0000
3100
0020
0000
0000
0031
0200
,
0000
0320
0000
1030
0001
0000
1000
0000
,
0002
0000
0103
0020
0000
0000
1030
0200
,
0000
0320
0000
0031
1000
0100
1000
0000
,
0020
0000
0130
0002
0000
0000
1003
0200
,
0000
0320
0000
0031
1000
0000
0001
0000
,
0020
0000
0130
2000
0000
0000
3001
0200
,
0000
0320
0000
1030
0100
0000
1001
0000
,
1000
0100
1001
0100
,
0001
0010
1001
0010
,
1000
0100
1001
0100
,
0001
0000
0010
0000
0001
1000
0001
0000
,
1000
0100
1000
0000
0010
0000
0100
0000
,
0001
1000
0001
0000
0100
0010
0100
0000
,
0001
0010
0001
0000
0100
0000
0010
0000
,
1000
0100
1000
0000
0001
0100
0001
0000
,
1000
0001
1000
0001
,
1000
0000
0001
0000
1000
0001
1000
0001
,
2000
0000
3100
0020
0000
0032
0000
2003
,
0000
3010
0200
0000
0301
1000
0001
0000
,
0002
0000
0103
0020
0000
2030
0000
3002
,
0000
0013
0200
0000
1300
0001
1000
0000
,
2000
0000
3010
0200
0000
0302
0000
0023
,
0000
0130
2000
0000
3001
0100
0010
0000
,
0200
0000
0310
2000
0000
3002
0000
0023
,
0000
0130
1000
0001
1000
0000
1001
0000
,
1020
0000
0230
0000
0302
0000
0013
0100
,
0010
0002
0000
0203
0000
0310
1000
0000
,
0021
0000
0230
0000
2300
0000
3010
0100
,
0010
2000
0000
3200
0000
0310
0001
0000
,
2000
0000
3100
0020
0000
0032
0000
0203
,
0000
0310
2000
0000
3001
0010
0100
0000
,
0020
0000
0130
2000
0000
3002
0000
0203
,
0000
0310
1000
0001
1000
0001
1000
0000
,
0001
0000
1000
0000
0001
0000
0010
0100
,
1000
0001
1000
0001
,
1000
0000
0100
0000
0010
0000
0001
0100
,
0001
0100
0010
1000
,
0002
0000
0003
0000
1000
0100
0010
0000
,
0002
0000
0003
0000
1000
0010
0100
0000
,
0002
0000
0003
0000
0100
0010
1000
0000
,
0001
1000
1000
0001
,
2000
0000
3000
0000
0001
0010
0100
0000
,
2000
0000
3000
0000
0001
0100
0010
0000
,
2000
0000
3000
0000
0010
0100
0001
0000
,
1000
0100
0010
0001
,
1000
0000
0000
0000
;

//--------------- dance-single - OrangeRight ----------------
#NOTES:
     dance-single:
     OrangeRight:
     Hard:
     13:
     0,0,0,0,0:
0000
0000
0000
0000
,
0000
0000
0000
0000
,
2002
0000
0000
0000
,
0000
0000
0000
0000
,
3003
0000
0000
0000
,
2001
0000
3100
0000
0100
1000
0001
0000
,
1002
0000
0103
0000
0100
0001
1000
0000
,
1020
0000
0130
0000
0010
0100
0001
0000
,
1000
0100
0010
0000
0001
0100
0010
0000
,
0120
0000
1030
0000
1000
0100
0010
0000
,
0120
0000
0031
0000
0001
0100
0010
0000
,
2010
0000
3001
0000
0001
1000
0010
0100
,
0001
0010
0100
1000
0010
0100
0110
0000
,
1002
0000
0013
0000
0010
0110
0000
1100
,
0000
1000
0010
0100
0001
0010
0100
1000
,
2001
0000
3010
0000
0010
0110
0000
0101
,
0000
0001
1000
1000
0001
0010
0100
1000
,
1200
0000
0310
0000
0010
0011
0000
0101
,
0000
0001
0100
0010
0100
0001
0010
0001
,
0021
0000
0130
0000
0100
1100
0000
1010
,
0000
1000
0010
0010
1000
0001
1001
0000
,
1200
0000
0310
0012
0000
0103
0010
1010
,
0000
0102
0000
0013
0100
0000
1001
0000
,
0201
0000
0310
2010
0000
3100
0010
0011
,
0000
2100
0000
3001
0010
0100
1000
0001
,
1002
0000
0013
0021
0000
0130
1000
1010
,
0000
0102
0000
0013
0100
0000
0110
0000
,
2001
0000
3010
1020
0000
0130
0001
0011
,
0000
2100
0000
3001
0100
0010
1000
0001
,
1000
0100
1000
0010
0100
0010
1000
0100
,
1000
0000
0001
0000
0100
0000
0010
0000
1000
0000
0100
0000
0010
0001
0010
0000
,
0001
0100
0001
0010
0100
0010
0001
0100
,
0001
1000
0010
0100
0001
1000
0002
0000
,
0013
1000
0010
0001
0100
1000
0100
0001
,
0010
0000
1000
0000
0010
0000
0001
0000
0100
0000
0010
0000
1000
0010
1000
0000
,
0010
0001
0010
1000
0100
0001
0100
1000
,
0001
0000
1000
0000
0010
0100
0000
0100
0001
0000
1000
0000
0001
1000
0001
0000
,
1002
1000
1000
1003
,
2001
0000
0001
0000
3001
1000
0001
0000
,
0102
0000
0013
0110
0000
1100
0000
1010
,
0000
0010
0100
0001
1000
0001
0010
0001
,
0021
0000
0130
1100
0000
1001
0000
0101
,
0100
0010
1000
0100
0010
0001
1000
0100
,
2100
0000
3010
0110
0000
0101
0000
0011
,
0000
0010
0001
0100
1000
0100
0010
0100
,
0102
0000
0013
0110
0000
1100
0000
1001
,
1000
0100
0010
0001
0100
1000
0100
0010
,
2010
0000
3100
0000
0012
0000
0103
0010
,
1000
1100
0000
0110
0000
0011
0001
0100
,
0102
0000
0013
0000
2100
0000
3010
0100
,
0001
1001
0000
0110
0000
1001
0001
1000
,
0001
0010
0100
1000
0100
0001
0100
0010
,
0001
0100
1000
0100
0001
0010
0100
0000
,
1000
0010
0100
0001
0100
1000
0100
0001
,
0010
0100
1000
0001
0100
0010
1000
0000
,
1000
0000
0100
0000
0001
0000
0100
0000
1000
0000
0100
0000
1000
0001
1000
0000
,
0001
0100
1000
0100
0001
0100
1000
0100
,
0001
0000
0010
0000
1000
0000
0010
0000
0001
0000
0010
0000
0100
0010
0100
0000
,
1000
1000
0001
0001
1000
0001
1001
0000
,
0102
0000
0013
0000
0010
0100
1000
0010
,
2010
0000
3100
0000
0100
1000
0010
0100
,
0102
0000
0013
0000
0010
0100
1000
0001
,
1000
1000
0001
0001
0100
1000
0100
0001
,
1002
0000
0103
0000
0100
0010
1000
0001
,
2001
0000
3100
0000
0100
0010
0001
1000
,
2001
0000
3010
0000
1000
0010
0001
0010
,
1000
1000
0001
0001
0010
0100
1000
0001
,
1000
0000
0000
0000
;

//--------------- dance-double - OrangeRight ----------------
#NOTES:
     dance-double:
     OrangeRight:
     Easy:
     6:
     0,0,0,0,0:
00000000
00000000
00000000
00000000
,
00000000
00000000
00000000
00000000
,
00022000
00000000
00000000
00000000
,
00000000
00000000
00000000
00000000
,
00033000
00000000
00000000
00000000
,
00020000
00000000
00031000
00000000
,
00020000
00000000
00030100
00000000
,
00020000
00000000
00030010
00000000
,
00010000
00001000
00001000
00010000
,
00002000
00000000
00013000
00000000
,
00002000
00000000
01003000
00000000
,
00002000
00000000
00103000
00000000
,
00010000
00100000
01000000
10000000
,
00010000
00000000
01000000
00010000
,
01000000
00000000
00100000
00000000
,
10000000
00000000
01000000
10000000
,
01000000
00000000
00100000
00000000
,
00010000
00000000
00100000
00001000
,
00100000
00000000
00001000
00000000
,
00010000
00000000
00000100
00010000
,
00000100
00000000
00001000
00000000
,
00000020
00000030
00000200
00000300
,
00000001
00001000
00000001
00000000
,
00000020
00000030
00000200
00000300
,
00001000
00000100
00001000
00000000
,
00000200
00000300
00020000
00030000
,
00001000
01000000
00001000
00000000
,
00020000
00030000
00002000
00003000
,
00100000
00010000
01000000
00100000
,
20000000
00000000
01000000
00000000
,
00000000
00000000
30100000
01000000
,
00020000
00000000
00100000
00000000
,
00000000
00000000
01030000
00010000
,
00100000
00000000
00001000
00000000
,
00010000
00000000
00000100
00010000
,
00000100
00000000
00010000
00000000
,
00001000
00000000
01000000
00010000
,
20000000
00000000
00000000
30000000
,
00020000
00000000
00000000
00030000
,
20000000
30000000
00010000
01000000
,
00020000
00030000
00100000
00000000
,
00002000
00003000
00010000
00001000
,
00020000
00030000
00000100
00001000
,
00000020
00000030
00000100
00000010
,
00002000
00003000
00000001
00001000
,
00000002
00000003
00000010
00000100
,
00002000
00003000
00000100
00010000
,
00001000
00010000
00000010
00010000
,
00002000
00003000
00010000
00001000
,
00010000
00001000
00100000
00001000
,
00020000
00030000
00001000
00010000
,
00001000
00100000
00010000
01000000
,
00200000
00300000
10000000
00010000
,
10000000
01000000
00100000
00010000
,
20000000
30000000
00010000
10000000
,
00010000
00000000
00010000
01000000
,
00001000
00000000
00001000
00000000
,
00010000
00000000
00010000
00000100
,
00001000
00000000
00000001
00001000
,
00000002
00000000
00000103
00000000
,
00000200
00000000
00000310
00000000
,
00000020
00000000
00001030
00000000
,
00001000
00000100
00010000
00001000
,
00200000
00000000
00310000
00000000
,
00020000
00000000
01030000
00000000
,
02000000
00000000
03100000
00000000
,
00100000
10000000
01000000
00100000
,
00010000
00000000
00000000
00000000
;

//--------------- dance-double - OrangeRight ----------------
#NOTES:
     dance-double:
     OrangeRight:
     Medium:
     10:
     0,0,0,0,0:
00000000
00000000
00000000
00000000
,
00000000
00000000
00000000
00000000
,
00022000
00000000
00000000
00000000
,
00000000
00000000
00000000
00000000
,
00033000
00000000
00000000
00000000
,
00020000
00000000
00030000
00000000
00000100
00001000
00000100
00000000
,
00020000
00000000
00030000
00000000
00000010
00001000
00000010
00000000
,
00020000
00000000
00030000
00000000
00001000
00010000
00001000
00000000
,
00010000
00000100
00000100
00010000
,
00002000
00000000
00003000
00000000
01000000
00010000
01000000
00000000
,
00002000
00000000
00003000
00000000
00100000
00010000
00100000
00000000
,
00002000
00000000
00003000
00000000
00010000
00001000
00010000
00000000
,
00001000
00100000
00010000
01000000
,
00100000
00000000
10000000
00000000
00010000
10000000
00000000
01000000
,
00000000
01000000
00100000
00010000
,
01000000
00000000
00001000
00000000
00010000
00000100
00000000
00001000
,
00000000
00000010
00000100
00000001
,
00000010
00000000
00000001
00000000
00001000
00000001
00000000
00000100
,
00000000
00000100
00000010
00001000
,
00000100
00000000
00010000
00000000
00001000
00100000
00000000
00010000
,
10000000
10000000
00010000
00010000
,
20000000
00000000
31000000
00200000
00000000
00000000
00310000
02000000
,
00000000
03020000
00000000
00130000
00001000
00000000
00010000
00000000
,
00000200
00000000
00001300
00000020
00000000
00000000
00000130
00000002
,
00000000
00002003
00000000
00003100
00000010
00000100
00000010
00000000
,
00000002
00000000
00000103
00000020
00000000
00000000
00001030
00000200
,
00000000
00002300
00000000
00003010
00010000
00000000
00001000
00000000
,
02000000
00000000
03010000
00200000
00000000
00000000
01300000
20000000
,
00000000
30020000
00000000
01030000
00100000
10000000
00010000
00000000
,
10000000
01000000
10010000
01000000
,
00010000
00100000
10010000
00100000
,
00001000
00010000
00010100
00001000
,
00000010
00000000
00000100
00000000
00000001
00001000
00000001
00000000
,
00001000
00000010
00001001
00000010
,
00000001
00000100
00001001
00000100
,
00001000
00000100
00010100
00001000
,
00100000
00000000
00010000
00000000
01000000
00100000
01000000
00000000
,
00010000
10000000
00010000
10000000
,
00010000
00000000
10000000
00000000
00010000
01000000
00010000
01000000
,
00020000
00000000
00130000
00002000
00000000
00023000
00000000
00030200
,
00000000
00001300
00000010
00000000
00001000
00000100
00001000
00000000
,
00000200
00000000
00010300
00002000
00000000
00203000
00000000
00320000
,
00000000
01030000
00010000
00000000
00100000
00010000
00100000
00000000
,
00020000
00000000
01030000
00002000
00000000
00023000
00000000
00030020
,
00000000
00001030
00000001
00000000
00000010
00000100
00000010
00000000
,
00000002
00000000
00000103
00000020
00000000
00002030
00000000
00003200
,
00000000
00001300
00000001
00000000
00001000
00000000
00000001
00000000
,
00002000
00000000
00003200
00000000
00020300
00000000
00031000
00100000
,
00001000
00020000
00000000
00032000
00000000
01003000
00010000
00000000
,
00020000
00000000
00230000
00000000
00302000
00000000
00013000
00000100
,
00010000
00002000
00000000
00023000
00000000
00030010
00001000
00000000
,
00002000
00000000
00003010
00000200
00000000
00000302
00000000
00002003
,
00000000
00003100
00020000
00000000
00031000
00100000
00010000
00000000
,
02000000
00000000
03100000
02000000
00000000
03020000
00000000
20030000
,
00000000
31000000
10000000
00010000
10000000
00010000
10000000
00000000
,
00010000
00000000
10000000
00000000
00010000
00000000
01000000
00001000
,
00010000
00001000
00010000
00001000
,
00010000
00000000
00000100
00000000
00001000
00000000
00000010
00001000
,
00000001
00000100
00000010
00001000
,
00000020
00000000
00000030
00000000
00001000
00000100
00001000
00000000
,
00000020
00000000
00000030
00000000
00001000
00000001
00001000
00000000
,
00000020
00000000
00000030
00000000
00010000
00001000
00010000
00000000
,
00001000
00100000
00100000
00001000
,
02000000
00000000
03000000
00000000
00010000
00100000
00010000
00000000
,
02000000
00000000
03000000
00000000
00010000
10000000
00010000
00000000
,
02000000
00000000
03000000
00000000
00001000
00010000
00001000
00000000
,
00010000
00000100
00001000
00000010
,
00000100
00000000
00000000
00000000
;

//--------------- dance-double - OrangeRight ----------------
#NOTES:
     dance-double:
     OrangeRight:
     Hard:
     12:
     0,0,0,0,0:
00000000
00000000
00000000
00000000
,
00000000
00000000
00000000
00000000
,
00022000
00000000
00000000
00000000
,
00000000
00000000
00000000
00000000
,
00033000
00000000
00000000
00000000
,
00201000
00000000
00310000
00000000
00010000
01000000
00001000
00000000
,
00010020
00000000
00001030
00000000
00001000
00000100
00010000
00000000
,
00201000
00000000
00310000
00000000
00010000
01000000
00001000
00000000
,
00010000
00000100
00010000
00000000
00001000
00100000
00001000
00000000
,
00010200
00000000
00001300
00000000
00001000
00000010
00010000
00000000
,
02001000
00000000
03010000
00000000
00010000
00100000
00001000
00000000
,
00010200
00000000
00001300
00000000
00001000
00000010
00010000
00000000
,
00001000
00100000
00001000
00010000
00000100
00010000
00011000
00000000
,
00201000
00000000
00310000
00000000
00010000
01000000
00000000
00100000
,
10000000
00000000
00100000
00000000
10000000
01000000
00100000
00000000
,
00120000
00000000
01030000
00000000
00010000
00100000
00000000
00001000
,
00010000
00010000
00000100
00000100
00001000
00000010
00010000
00000000
,
00010200
00000000
00001300
00000000
00001000
00000010
00000000
00000100
,
00000001
00000000
00000010
00000000
00000001
00000010
00000100
00000000
,
00002100
00000000
00003010
00000000
00001000
00000010
00000000
00010000
,
00001000
00001000
00100000
00100000
00010000
10000000
10010000
00000000
,
00120000
00000000
01030000
00002000
00000000
00013000
00000100
00002000
,
00000000
00003020
00000000
00000130
00000001
00000000
00000110
00000000
,
00002010
00000000
00003100
00020000
00000000
00031000
01000000
00020000
,
00000000
00230000
00000000
01300000
10000000
00010000
10000000
00000000
,
20100000
00000000
31000000
00200000
00000000
00310000
01000000
00002000
,
00000000
00023000
00000000
00030010
00001000
00000100
00000010
00000000
,
00000012
00000000
00000103
00000020
00000000
00001030
00000100
00020000
,
00000000
00032000
00000000
00103000
00010000
10000000
10010000
00000000
,
00010000
01000000
00010000
00100000
00010000
01000000
00010000
00100000
,
00010000
01000000
00001000
00010000
00000010
00001000
00000010
00000000
,
00001000
00000100
00001000
00000010
00001000
00000100
00001000
00000010
,
00001000
00000100
00010000
00001000
01000000
00010000
00100000
00000000
,
01000000
00100000
01000000
10000000
00100000
01000000
00100000
10000000
,
01000000
00100000
00010000
10000000
00010000
01000000
00001000
00010000
,
00000010
00001000
00000100
00000010
00000100
00001000
00000010
00000100
,
00000001
00000010
00000100
00001000
00000001
00000100
00000010
00000000
,
00002001
00000001
00000001
00003001
,
00001002
00000000
00001000
00000000
00001003
00000001
00001000
00000000
,
00001002
00000000
00000103
00000110
00000000
00001010
00000000
00001100
,
00000000
00000100
00001000
00000010
00010000
00001000
00010000
00000000
,
00012000
00000000
01003000
01010000
00000000
00110000
00000000
01100000
,
00000000
01000000
00100000
00010000
10000000
00100000
01000000
00010000
,
20010000
00000000
31000000
01100000
00000000
00110000
00000000
01010000
,
00000000
01000000
00010000
00100000
00001000
00010000
00001000
00000000
,
00021000
00000000
00030100
00001100
00000000
00001010
00000000
00000110
,
00000000
00000010
00001000
00000100
00010000
00000100
00001000
00000000
,
00002100
00000000
00003010
00000000
00020010
00000000
00031000
00010000
,
00001000
01000000
00010000
00100000
01000000
10000000
00010000
00000000
,
01020000
00000000
00130000
00000000
00102000
00000000
00013000
00001000
,
00010000
00000100
00001000
00000010
00000100
00000001
00001000
00000000
,
00000001
00000100
00000010
00000001
00000010
00001000
00000010
00000100
,
00000010
00001000
00000100
00010000
00001000
01000000
00010000
00000000
,
10000000
01000000
00100000
10000000
00100000
00010000
01000000
00001000
,
00010000
00000100
00001000
00000010
00000100
00000001
00001000
00000000
,
00000001
00000000
00000010
00000000
00000100
00000000
00000010
00000000
00000001
00000000
00000100
00000000
00000010
00000100
00000010
00000000
,
00001000
00000100
00010000
00001000
01000000
00010000
10000000
00000000
,
10000000
00000000
00100000
00000000
01000000
00000000
00100000
00000000
10000000
00000000
01000000
00000000
00100000
01000000
00100000
00000000
,
00010000
01000000
00001000
00010000
00000100
00010000
00001000
00000000
,
02001000
00000000
03010000
00000000
00010000
00100000
00001000
00000000
,
00010200
00000000
00001300
00000000
00001000
00000010
00010000
00000000
,
02001000
00000000
03010000
00000000
00010000
00100000
00001000
00000000
,
00010000
00000010
00010000
00000000
00001000
01000000
00001000
00000000
,
00010020
00000000
00001030
00000000
00001000
00000100
00010000
00000000
,
00201000
00000000
00310000
00000000
00010000
01000000
00001000
00000000
,
00010020
00000000
00001030
00000000
00001000
00000100
00010000
00000000
,
00001000
00001000
00010000
00010000
00000100
00001000
00000010
00000100
,
00000001
00000000
00000000
00000000
;
